#VERSION:0.81;
#TITLE:Unicorn tail;
#SUBTITLE:;
#ARTIST:DJ YOSHITAKA;
#TITLETRANSLIT:;
#SUBTITLETRANSLIT:;
#ARTISTTRANSLIT:;
#GENRE:Techno;
#ORIGIN:;
#CREDIT:;
#BANNER:Unicorn tail.png;
#BACKGROUND:Unicorn tail-bg.png;
#PREVIEWVID:;
#JACKET:Unicorn tail-jacket.png;
#CDIMAGE:;
#DISCIMAGE:;
#LYRICSPATH:;
#CDTITLE:;
#MUSIC:Unicorn tail.mp3;
#OFFSET:-11.380;
#SAMPLESTART:70.660;
#SAMPLELENGTH:15.000;
#SELECTABLE:YES;
#BPMS:0.000=170.000;
#STOPS:32.000=2.820;
#DELAYS:;
#WARPS:;
#TIMESIGNATURES:0.000=4=4;
#TICKCOUNTS:0.000=4;
#COMBOS:0.000=1;
#SPEEDS:0.000=1.000=0.000=0;
#SCROLLS:0.000=1.000;
#FAKES:;
#LABELS:0.000=Song Start;
#BGCHANGES:;
#KEYSOUNDS:;
#ATTACKS:
;

//---------------dance-single - ----------------
#NOTEDATA:;
#CHARTNAME:;
#STEPSTYPE:dance-single;
#DESCRIPTION:;
#CHARTSTYLE:;
#DIFFICULTY:Hard;
#METER:11;
#RADARVALUES:0.505,0.574,0.368,0.379,0.105,265.000,35.000,36.000,0.000,0.000,0.000,0.000,0.000,0.505,0.574,0.368,0.379,0.105,265.000,35.000,36.000,0.000,0.000,0.000,0.000,0.000;
#CREDIT:;
#NOTES:
// measure 0
0001
0000
0000
0000
1000
0000
0000
0100
0000
0000
0010
0000
0100
0000
0000
0000
,  // measure 1
1000
0000
0000
0000
0010
0000
0000
0100
0000
0000
0001
0000
1000
0000
0000
0000
,  // measure 2
0100
0000
0000
0000
0010
0000
0000
0100
0000
0000
1000
0000
0010
0000
0000
0000
,  // measure 3
0100
0000
0000
0000
0001
0000
0000
1000
0000
0000
0100
0000
0010
0000
0000
0000
,  // measure 4
0001
0100
0010
0100
0001
1000
0100
0010
,  // measure 5
0001
1000
0010
0100
0001
1000
0100
0010
,  // measure 6
0002
0000
0000
0000
1003
0001
1000
0000
2000
0000
0000
0000
3010
0000
0010
0000
,  // measure 7
0100
0001
1000
0100
0010
0001
1000
0000
,  // measure 8
2001
0000
0000
0000
,  // measure 9
3020
0000
0000
0000
,  // measure 10
0230
0000
0000
0000
,  // measure 11
0302
0000
0000
0000
,  // measure 12
2003
0000
0000
0000
,  // measure 13
3200
0000
0000
0000
,  // measure 14
0320
0000
0000
0000
,  // measure 15
0032
0000
0000
0000
0000
0000
0000
0000
1003
0001
0000
0000
1001
0000
0000
0000
,  // measure 16
0010
0010
0110
0000
0100
0000
0001
2000
,  // measure 17
0000
0000
3010
0000
0100
0000
0001
0000
1000
0010
1000
0000
0010
0000
0010
0000
,  // measure 18
0100
0100
2002
0000
3003
0010
0110
0100
,  // measure 19
0000
0001
0000
0000
0010
0000
0100
0000
1000
0001
0000
0000
0100
0000
0100
0000
,  // measure 20
0010
0010
1001
0000
0100
0010
0100
0100
,  // measure 21
0001
0010
0000
0000
0001
0000
0100
0000
0110
0000
0000
0000
0010
0000
1000
0000
,  // measure 22
0001
0000
0001
0000
0011
0000
0000
0010
0000
0000
0100
0000
1000
0000
0001
1000
,  // measure 23
0000
0000
0010
0000
0100
0001
0000
0000
0100
0010
0100
0000
0001
0000
1000
0000
,  // measure 24
0010
0010
0110
0000
0100
0000
0001
2000
,  // measure 25
0000
0000
3010
0000
0100
0000
0001
0000
1000
0010
1000
0000
0010
0000
0010
0000
,  // measure 26
0100
0100
2002
0000
3003
0010
0110
0100
,  // measure 27
0001
0000
0001
0000
0010
0000
0100
0000
1000
0001
0000
0000
0100
0000
0100
0000
,  // measure 28
0010
0000
1000
0000
0100
0000
0000
1000
0000
0000
0010
0000
0100
0000
0100
0000
,  // measure 29
0001
0010
0000
0000
0100
0000
1000
0000
1001
0000
0000
0000
0100
0000
0000
0000
,  // measure 30
0020
0000
2030
0000
3020
0000
0230
0000
0301
0000
0001
0000
1000
0100
1000
0000
,  // measure 31
0010
0100
0010
0000
1000
0000
1001
0000
0200
0000
0000
0000
0000
0000
0000
0000
,  // measure 32
0310
1000
0100
0010
0001
1000
0010
0100
,  // measure 33
0001
1000
0100
0010
0100
1000
0010
0100
,  // measure 34
0001
0100
0010
1000
0001
0010
0100
1000
,  // measure 35
0010
0100
0001
1000
0100
0010
0001
1000
,  // measure 36
0002
0000
0203
0000
0320
0000
1030
0002
,  // measure 37
0000
2003
0000
3020
0000
0130
0000
0001
,  // measure 38
2000
0000
3200
0000
0320
0000
0031
0020
,  // measure 39
0000
0230
0000
2300
0000
3001
0100
0010
,  // measure 40
1000
0000
1100
0000
0101
0000
0100
0110
,  // measure 41
0000
1010
0000
1001
0000
1000
0100
0010
,  // measure 42
0011
0000
0101
0000
0110
0000
0010
1010
,  // measure 43
0000
1001
0000
0011
0000
0001
0010
0100
,  // measure 44
1100
0000
1001
0000
0101
0000
0100
0110
,  // measure 45
0000
1010
0000
1001
0000
0011
0000
0001
,  // measure 46
0101
0000
0110
0000
1010
0000
1000
0002
,  // measure 47
0000
0013
0100
1000
0010
0100
2002
0000
,  // measure 48
0000
0000
0000
0000
,  // measure 49
0000
0000
0000
0000
,  // measure 50
0000
0000
0000
0000
,  // measure 51
0000
0000
0000
0000
,  // measure 52
3003
0000
0000
0000
;

//---------------dance-single - ----------------
#NOTEDATA:;
#CHARTNAME:;
#STEPSTYPE:dance-single;
#DESCRIPTION:;
#CHARTSTYLE:;
#DIFFICULTY:Medium;
#METER:7;
#RADARVALUES:0.299,0.308,0.105,0.126,0.005,177.000,10.000,12.000,0.000,2.000,0.000,0.000,0.000,0.299,0.308,0.105,0.126,0.005,177.000,10.000,12.000,0.000,2.000,0.000,0.000,0.000;
#CREDIT:;
#NOTES:
1000
0000
0001
0000
0000
1000
0001
0000
,
0100
0000
0010
0000
0000
0100
0010
0000
,
1000
0000
0100
0000
0000
1000
0100
0000
,
0010
0000
0001
0000
0000
0010
0001
0000
,
0100
0000
0010
0000
0000
1000
0001
0000
,
0010
0000
0100
0000
0000
1000
0001
0000
,
0100
0000
0010
0100
0010
0000
1000
0010
,
1000
0001
0100
0010
,
2002
0000
0000
0000
,
0023
0000
0000
0000
,
0230
0000
0000
0000
,
3300
0000
0000
0000
,
3200
0000
0000
0000
,
0320
0000
0000
0000
,
0032
0000
0000
0000
,
2003
0000
3010
0110
,
0010
0000
1010
0000
0000
0000
1000
0001
,
0000
0000
1000
0000
0010
0100
0010
0100
,
0000
0000
0001
0000
0000
0000
1000
0100
,
0000
0100
1000
0010
,
0100
0000
0101
0000
0000
0000
0001
1000
,
0001
0010
0100
0100
,
1000
0000
0000
0000
1010
0000
0000
0000
0000
0000
0000
0000
0010
0000
0000
0100
,
0000
0100
0010
0000
1000
0001
1000
0000
,
0001
0000
0110
0000
0000
0000
0010
0010
,
0000
0000
0001
0000
1000
0010
1000
0010
,
0000
0100
0000
0001
,
1000
0100
0000
0000
1100
0000
1000
1000
,
0010
0100
0020
0000
0000
0000
1030
0001
,
0010
0000
0010
0100
1000
0000
0002
0000
,
0103
0000
0110
0000
0010
0000
1000
0001
,
0010
0001
0100
0000
0020
0000
0000
0000
,
1030
0000
0100
0000
0010
0000
0001
1000
,
0000
0010
0000
0100
0000
0001
0000
1000
,
0100
0000
0010
0000
0100
0000
1000
0010
,
0000
0001
0000
0010
0000
1000
0100
0010
,
0001
0000
1000
0000
0010
0000
0100
0001
,
0000
1000
0000
0100
0000
0010
0000
0000
,
0011
0000
1100
0000
,
1000
0010
0100
0001
,
1000
0000
0100
0000
0010
0000
0001
1000
,
0000
0010
0000
0100
0000
0001
0000
0000
,
1000
0000
0100
0000
0010
0000
0100
1000
,
0000
0010
0000
0001
0000
0010
0000
0000
,
0100
0000
0001
0000
0010
0000
0100
1000
,
0000
0001
0000
0100
0000
0010
0000
0010
,
1000
0000
0001
0000
0010
0000
0100
1000
,
0000
0001
0000
0100
0000
0010
2000
0000
,
0000
0000
0000
3000
;

//---------------dance-single - ----------------
#NOTEDATA:;
#CHARTNAME:;
#STEPSTYPE:dance-single;
#DESCRIPTION:;
#CHARTSTYLE:;
#DIFFICULTY:Easy;
#METER:5;
#RADARVALUES:0.215,0.201,0.063,0.032,0.000,134.000,6.000,3.000,0.000,0.000,0.000,0.000,0.000,0.215,0.201,0.063,0.032,0.000,134.000,6.000,3.000,0.000,0.000,0.000,0.000,0.000;
#CREDIT:;
#NOTES:
1000
0010
0000
0010
,
0100
0001
0000
0001
,
1000
0100
0000
0100
,
0010
0100
0000
0100
,
1000
0010
0000
0100
,
0001
1000
0000
0100
,
0020
0030
0002
0003
,
1000
0010
0100
0001
,
1001
0000
0000
0000
,
0100
0000
0000
0000
,
0010
0000
0000
0000
,
0001
0000
0000
0000
,
1000
0000
0000
0000
,
0010
0000
0000
0000
,
0100
0000
0000
0000
,
0001
0000
0000
0000
,
1000
0100
0000
0100
,
0000
1000
0010
0010
,
0100
0001
0000
0001
,
0000
1000
0100
0100
,
0000
1000
0000
0010
,
0100
0001
1000
0100
,
0010
0001
0000
0001
,
1000
0010
0000
0010
,
0100
0001
0000
0001
,
0000
0100
0010
0010
,
1000
0001
0000
0001
,
0000
1000
0010
0100
,
0001
1000
0000
0100
,
0010
0010
0001
1000
,
0010
0100
0100
0010
,
1000
0001
2000
0000
,
3001
0100
0010
0000
,
0010
1000
0100
0000
,
0100
0010
0001
0000
,
0001
1000
0010
0000
,
0110
0100
0001
0000
,
1001
1000
0100
0000
,
0110
0000
1001
0000
,
0001
0100
0010
1000
,
0001
0010
0100
0000
,
0100
1000
0001
0100
,
0010
1000
0001
0000
,
0010
0100
1000
0001
,
0100
0010
1000
0000
,
0100
0001
0100
1000
,
0010
0100
0001
0000
,
1000
0100
0010
1001
;

//---------------dance-single - ----------------
#NOTEDATA:;
#CHARTNAME:;
#STEPSTYPE:dance-single;
#DESCRIPTION:;
#CHARTSTYLE:;
#DIFFICULTY:Beginner;
#METER:2;
#RADARVALUES:0.093,0.126,0.011,0.000,0.000,61.000,1.000,0.000,0.000,0.000,0.000,0.000,0.000,0.093,0.126,0.011,0.000,0.000,61.000,1.000,0.000,0.000,0.000,0.000,0.000,0.000;
#CREDIT:;
#NOTES:
1000
0000
0000
0000
,
0010
0000
0000
0000
,
0100
0000
0000
0000
,
0001
0000
0000
0000
,
1000
0000
0000
0000
,
0100
0000
0000
0000
,
0010
0000
0000
0000
,
0001
0000
0000
0000
,
1001
0000
0000
0000
,
0000
0000
0000
0000
,
0000
0000
0000
0000
,
0000
0000
0000
0000
,
0000
0000
0000
0000
,
0000
0000
0000
0000
,
0000
0000
0000
0000
,
0000
0000
0000
0000
,
0000
1000
0000
1000
,
0000
1000
0000
1000
,
0000
0001
0000
0001
,
0000
0001
0000
0001
,
0000
0100
0000
0100
,
0000
0100
0000
0100
,
0000
0010
0000
0010
,
0000
0010
0000
0000
,
0000
0010
0000
0010
,
0000
0010
0000
0010
,
0000
1000
0000
1000
,
0000
1000
0000
0000
,
1000
0000
1000
0000
,
0001
0000
0001
0000
,
0010
0000
0010
0000
,
0100
0000
0100
0000
,
1000
0000
0000
0000
,
1000
0000
0000
0000
,
0001
0000
0000
0000
,
0001
0000
0000
0000
,
0100
0000
0000
0000
,
0100
0000
0000
0000
,
0010
0000
0000
0000
,
0010
0000
0000
0000
,
0010
0000
0010
0000
,
0010
0000
0000
0000
,
1000
0000
1000
0000
,
1000
0000
0000
0000
,
0001
0000
0001
0000
,
0001
0000
0000
0000
,
0100
0000
0100
0000
,
0100
0000
0100
0100
;
