#VERSION:0.81;
#TITLE:Ultimate Sweetie Belle;
#SUBTITLE:;
#ARTIST:Alex S.;
#TITLETRANSLIT:;
#SUBTITLETRANSLIT:;
#ARTISTTRANSLIT:;
#GENRE:Modern Dubstep;
#ORIGIN:;
#CREDIT:;
#BANNER:Ultimate Sweetie Belle.png;
#BACKGROUND:Ultimate Sweetie Belle-bg.png;
#PREVIEWVID:;
#JACKET:Ultimate Sweetie Belle-jacket.png;
#CDIMAGE:;
#DISCIMAGE:;
#LYRICSPATH:;
#CDTITLE:;
#MUSIC:Ultimate Sweetie Belle.mp3;
#OFFSET:-7.760;
#SAMPLESTART:61.480;
#SAMPLELENGTH:15.000;
#SELECTABLE:YES;
#BPMS:0.000=125.000;
#STOPS:;
#DELAYS:;
#WARPS:;
#TIMESIGNATURES:0.000=4=4;
#TICKCOUNTS:0.000=4;
#COMBOS:0.000=1;
#SPEEDS:0.000=1.000=0.000=0;
#SCROLLS:0.000=1.000;
#FAKES:;
#LABELS:0.000=Song Start;
#BGCHANGES:;
#KEYSOUNDS:;
#ATTACKS:
;

//---------------dance-single - ----------------
#NOTEDATA:;
#CHARTNAME:;
#STEPSTYPE:dance-single;
#DESCRIPTION:;
#CHARTSTYLE:;
#DIFFICULTY:Hard;
#METER:12;
#RADARVALUES:0.489,0.439,0.232,0.297,0.144,311.000,25.000,32.000,0.000,0.000,0.000,0.000,0.000,0.489,0.439,0.232,0.297,0.144,311.000,25.000,32.000,0.000,0.000,0.000,0.000,0.000;
#CREDIT:;
#NOTES:
0010
0000
0000
0000
0000
0000
0110
0000
0000
0000
0000
0010
0001
0000
0000
0000
,
0100
0000
0010
0000
1000
0000
0001
0000
0010
0000
0100
1000
0100
0010
0000
0000
,
0001
0000
0000
0000
0000
0000
0101
0000
0000
0000
0000
0100
0010
0000
0000
0000
,
1000
0000
0010
0000
0100
0000
0001
0000
0010
0001
0010
0000
0100
0010
0100
0000
,
1000
0000
0000
0000
0000
0000
0110
0000
0000
0000
0000
0010
0001
0000
0000
0000
,
0100
0000
0010
0000
1000
0000
0001
0000
0100
0000
0010
1000
0010
0100
0000
0000
,
0001
0000
0000
0000
0000
0000
0011
0000
0000
0000
0000
0010
0100
0000
0000
0000
,
0010
0000
0001
0000
0100
0000
0100
0000
0001
1000
0001
0000
1000
0010
1000
0000
,
0010
0000
0000
0000
0000
0000
0110
0000
0000
0000
0000
0100
0001
0000
0000
0000
,
0010
0000
0100
0000
1000
0000
0010
0000
0100
0000
0010
0100
0010
1000
0000
0000
,
0100
0000
0000
0000
0000
0000
0110
0000
0000
0000
0000
0010
0001
0000
0000
0000
,
0100
0010
1000
0001
0110
2002
0000
3003
,
1000
0010
0100
0010
0000
1000
0100
1000
,
0001
0001
0201
0000
0310
0010
0120
0000
,
1030
0010
0100
0001
0000
0010
0100
0010
,
0100
1000
1200
0000
0310
0100
0120
0000
,
0031
0010
0100
1000
0000
0010
0100
0010
,
0100
0100
0102
0000
0013
0010
0210
0000
,
1300
0100
0010
0001
0000
0100
0010
0100
,
0001
1000
2001
0000
3100
1000
1010
1010
,
0010
0100
0001
0010
0100
1000
0010
0100
,
0001
0001
2000
3100
1000
1000
0002
0103
,
0001
0010
0100
0001
1000
0010
0001
0100
,
0010
0010
2000
3001
1000
1000
0200
0310
,
0100
1000
0010
0100
0001
0010
0100
0100
,
1000
1000
0020
0130
0010
0010
0200
0301
,
0001
0010
0100
0001
1000
0001
0100
1000
,
0010
0000
0010
0000
0200
0000
0301
0000
0100
0000
0100
0000
0010
1000
0001
0010
,
0100
0010
0001
0100
0010
1000
0001
1000
,
0100
0010
0001
0100
0010
0000
0000
0000
1000
0000
0010
1000
0001
0010
0000
0000
,
0100
1000
0000
0000
1000
0010
0000
0000
,
0010
0001
0000
0000
0001
0100
0110
0000
,
1000
0100
1000
0010
0210
0000
0301
0001
,
1000
0000
0001
0000
0010
0000
0100
0000
1000
0010
1000
0000
0010
0100
0010
0000
,
0100
0001
0000
0000
0001
0010
0000
0000
,
0010
0000
1000
0000
0000
0000
0000
0000
1000
0000
0100
0000
0010
0100
0010
0000
,
0001
0100
0020
0000
1030
0010
0100
0100
,
0010
1000
0001
0010
0100
0000
0010
0000
0001
0000
0010
0100
0010
0001
0000
0000
,
1000
0010
0000
0000
0010
0001
0000
0000
,
0001
0100
0000
0000
0100
1000
0200
0000
,
0310
0100
1000
0010
0200
0000
0301
0001
,
0100
0000
0010
0000
1000
0000
0001
0000
0010
0100
0010
0000
0100
1000
0100
0000
,
1000
0100
0000
0000
0100
0001
0000
0000
,
0001
0010
1000
0000
0010
1000
0100
0000
,
0220
0000
0000
0330
,
2002
0000
0000
3003
,
2200
0000
0000
3300
,
0022
0000
0000
0033
,
0202
0000
0000
0303
,
2020
0000
0000
3030
;

//---------------dance-single - ----------------
#NOTEDATA:;
#CHARTNAME:;
#STEPSTYPE:dance-single;
#DESCRIPTION:;
#CHARTSTYLE:;
#DIFFICULTY:Medium;
#METER:7;
#RADARVALUES:0.356,0.335,0.307,0.186,0.000,215.000,33.000,20.000,0.000,0.000,0.000,0.000,0.000,0.356,0.335,0.307,0.186,0.000,215.000,33.000,20.000,0.000,0.000,0.000,0.000,0.000;
#CREDIT:;
#NOTES:
0010
0000
0000
1000
0000
0000
1001
0000
,
0000
0001
0010
0001
0100
0000
0110
0000
,
0010
0000
0000
1000
0000
0000
1100
0000
,
0000
0100
0010
0100
0010
0000
0100
0000
,
1000
0000
0000
0001
0000
0000
0101
0000
,
0000
0100
0010
0100
0010
0000
1000
0000
,
0001
0000
0000
0010
0000
0000
0110
0000
,
0000
0100
1000
0100
1000
0000
0010
0000
,
0100
0000
0000
0010
0000
0000
1010
0000
,
0000
1000
0001
0010
0100
0000
0010
0000
,
0001
0000
0000
1000
0000
0000
1010
0000
,
0000
0010
0100
0001
1000
1001
0000
0000
,
1000
0100
1000
0100
0000
0010
0100
0000
,
1000
0001
2000
0000
3001
1000
0002
0000
,
0103
0001
0100
0010
0000
0010
0100
0000
,
0001
1000
0002
0000
1003
0001
2000
0000
,
3100
1000
0010
0100
0000
0001
0100
0000
,
0010
0100
0020
0000
0130
0010
0200
0000
,
0310
0001
1000
0100
0000
0010
0100
0001
,
0010
0100
0020
0000
0130
0010
0200
0000
,
0300
1100
0000
1001
0000
0001
0100
0001
,
0000
0010
0200
0000
1300
0100
0020
0000
,
0030
0011
0000
1001
0000
1000
0100
1000
,
0000
0100
0020
0000
0031
0010
0200
0000
,
0300
1100
0000
0101
0000
1000
0010
0001
,
0000
1000
0002
0000
0103
0001
2000
0000
,
3000
1100
0000
0110
0000
0010
0100
0010
,
0000
0100
2000
0000
3001
1000
0100
0010
,
0001
0001
1000
0000
0010
1000
0010
0100
,
0001
0010
0001
0000
0010
0010
0010
0000
,
0000
1100
0000
0000
0000
0011
0000
0000
,
0000
0101
0000
0000
0000
1010
0000
0000
,
0000
1000
0001
0010
0100
0000
0010
0010
,
0001
0100
0001
1000
0100
0001
0100
1000
,
0000
1010
0000
0000
0000
0101
0000
0000
,
0000
0011
0000
0000
0000
1000
0100
0010
,
0100
1000
0100
0000
1000
1000
0001
0000
,
0100
0001
0100
0000
0010
1000
0001
0010
,
0000
0011
0000
0000
0000
1100
0000
0000
,
0000
1010
0000
0000
0000
0101
0000
0000
,
0000
0001
1000
0010
0100
0000
0010
0100
,
0001
0010
0001
0010
0100
1000
0001
0100
,
0000
0110
0000
0000
0000
1001
0000
0000
,
0000
0110
0000
0000
0000
1001
0000
0000
,
2200
0000
0000
3000
,
0020
0000
0000
0030
,
0002
0000
0000
0003
,
2000
0000
0000
3300
,
0110
0000
0000
0000
;

//---------------dance-single - ----------------
#NOTEDATA:;
#CHARTNAME:;
#STEPSTYPE:dance-single;
#DESCRIPTION:;
#CHARTSTYLE:;
#DIFFICULTY:Easy;
#METER:4;
#RADARVALUES:0.165,0.156,0.046,0.177,0.000,100.000,5.000,19.000,0.000,0.000,0.000,0.000,0.000,0.165,0.156,0.046,0.177,0.000,100.000,5.000,19.000,0.000,0.000,0.000,0.000,0.000;
#CREDIT:;
#NOTES:
0010
0000
0010
0000
,
1000
0000
1000
0000
,
0001
0000
0001
0000
,
0010
0000
0010
0000
,
0100
0000
0100
0000
,
1000
0000
1000
0000
,
0001
0000
0001
0000
,
0100
0000
0100
0000
,
0010
0000
1000
0000
,
0001
0000
0100
0000
,
0010
0000
1000
0000
,
0001
0000
0101
0000
,
0001
0001
0001
0000
,
0000
2000
3000
0002
,
1003
1000
1000
0000
,
0000
0020
0030
0200
,
0310
0010
0010
0000
,
0000
0200
0300
0020
,
1030
1000
1000
0000
,
0000
0002
0003
2000
,
3000
0001
0000
0101
,
0000
0020
0030
2000
,
3000
0100
0000
0101
,
0000
2000
3000
0020
,
0030
0100
0000
1100
,
0000
0020
0030
0002
,
0003
0100
0000
1100
,
0000
0002
0013
0010
,
0000
0100
0000
0100
,
0001
0000
0001
0000
,
0000
1000
0000
0000
0000
1000
0000
0000
,
0000
1000
0000
0000
0000
1000
0000
0000
,
0000
0100
0010
0100
,
0010
0000
0010
0000
,
0000
0001
0000
0000
0000
0001
0000
0000
,
0000
0001
0000
0000
0000
0001
0000
0000
,
0000
0100
0000
0100
,
0010
1000
0100
0000
,
0000
1000
0000
0000
0000
1000
0000
0000
,
0000
1000
0000
0000
0000
1000
0000
0000
,
0000
0100
0010
0100
,
0010
0000
0010
0000
,
0000
0001
0000
0000
0000
0001
0000
0000
,
0000
0001
0000
0000
0000
0001
0000
0000
,
2000
0000
0000
0000
,
3002
0000
0000
0000
,
0023
0000
0000
0000
,
0230
0000
0000
0000
,
0300
0000
0000
0000
;

//---------------dance-single - ----------------
#NOTEDATA:;
#CHARTNAME:;
#STEPSTYPE:dance-single;
#DESCRIPTION:;
#CHARTSTYLE:;
#DIFFICULTY:Beginner;
#METER:3;
#RADARVALUES:0.074,0.089,0.009,0.019,0.000,53.000,1.000,2.000,0.000,0.000,0.000,0.000,0.000,0.074,0.089,0.009,0.019,0.000,53.000,1.000,2.000,0.000,0.000,0.000,0.000,0.000;
#CREDIT:;
#NOTES:
// measure 0
1000
0000
0000
0000
,  // measure 1
1000
0000
0000
0000
,  // measure 2
0001
0000
0000
0000
,  // measure 3
0001
0000
0000
0000
,  // measure 4
0010
0000
0000
0000
,  // measure 5
0010
0000
0000
0000
,  // measure 6
0100
0000
0000
0000
,  // measure 7
0100
0000
0000
0000
,  // measure 8
1000
0000
0000
0000
,  // measure 9
0100
0000
0000
0000
,  // measure 10
0010
0000
0000
0000
,  // measure 11
0001
0000
1001
0000
,  // measure 12
1000
0000
0000
0000
,  // measure 13
0000
0010
0000
0010
,  // measure 14
0000
0000
0000
0000
,  // measure 15
0000
0100
0000
0100
,  // measure 16
0000
0000
0000
0000
,  // measure 17
0000
0001
0000
0001
,  // measure 18
0000
0000
0000
0000
,  // measure 19
0000
1000
0000
1000
,  // measure 20
0000
0100
0000
0000
,  // measure 21
0000
0010
0000
0010
,  // measure 22
0000
0001
0000
0000
,  // measure 23
0000
0100
0000
0100
,  // measure 24
0000
1000
0000
0000
,  // measure 25
0000
0100
0000
0100
,  // measure 26
0000
0001
0000
0000
,  // measure 27
0000
0010
0000
0010
,  // measure 28
0100
0000
0000
0000
,  // measure 29
0100
0000
0000
0000
,  // measure 30
0000
1000
0000
0000
0000
0000
0000
0000
,  // measure 31
0000
1000
0000
0000
0000
0000
0000
0000
,  // measure 32
0010
0000
0000
0000
,  // measure 33
0010
0000
0000
0000
,  // measure 34
0000
0001
0000
0000
0000
0000
0000
0000
,  // measure 35
0000
0001
0000
0000
0000
0000
0000
0000
,  // measure 36
0010
0000
0000
0000
,  // measure 37
0100
0000
0000
0000
,  // measure 38
0000
0001
0000
0000
0000
0000
0000
0000
,  // measure 39
0000
1000
0000
0000
0000
0000
0000
0000
,  // measure 40
0100
0000
0000
0000
,  // measure 41
0010
0000
0000
0000
,  // measure 42
0000
0001
0000
0000
0000
0000
0000
0000
,  // measure 43
0000
1000
0000
0000
0000
0000
0000
0000
,  // measure 44
0200
0000
0000
0000
,  // measure 45
0000
0000
0000
0000
,  // measure 46
0320
0000
0000
0000
,  // measure 47
0000
0000
0000
0000
,  // measure 48
0130
0000
0000
0000
;
