#VERSION:0.81;
#TITLE:The Land of Equestria;
#SUBTITLE:;
#ARTIST:Hirosashii;
#TITLETRANSLIT:;
#SUBTITLETRANSLIT:;
#ARTISTTRANSLIT:;
#GENRE:Trance;
#ORIGIN:;
#CREDIT:;
#BANNER:The Land of Equestria.png;
#BACKGROUND:The Land of Equestria-bg.png;
#PREVIEWVID:;
#JACKET:The Land of Equestria-jacket.png;
#CDIMAGE:;
#DISCIMAGE:;
#LYRICSPATH:;
#CDTITLE:;
#MUSIC:The Land of Equestria.ogg;
#OFFSET:-8.707;
#SAMPLESTART:69.260;
#SAMPLELENGTH:15.000;
#SELECTABLE:YES;
#BPMS:0.000=110.000;
#STOPS:;
#DELAYS:;
#WARPS:;
#TIMESIGNATURES:0.000=4=4;
#TICKCOUNTS:0.000=4;
#COMBOS:0.000=1;
#SPEEDS:0.000=1.000=0.000=0;
#SCROLLS:0.000=1.000;
#FAKES:;
#LABELS:0.000=Song Start;
#BGCHANGES:;
#KEYSOUNDS:;
#ATTACKS:
;

//---------------dance-single - ----------------
#NOTEDATA:;
#CHARTNAME:;
#STEPSTYPE:dance-single;
#DESCRIPTION:;
#CHARTSTYLE:;
#DIFFICULTY:Hard;
#METER:9;
#RADARVALUES:0.297,0.282,0.009,0.035,0.070,232.000,1.000,4.000,0.000,0.000,0.000,0.000,0.000,0.297,0.282,0.009,0.035,0.070,232.000,1.000,4.000,0.000,0.000,0.000,0.000,0.000;
#CREDIT:;
#NOTES:
1000
0000
0010
0000
,
0100
0000
0001
0000
,
0010
0000
0100
0000
,
2002
0000
0000
3003
,
0001
0000
0010
0000
0100
0001
0100
0000
,
1000
0000
0001
0100
1000
0000
0100
0000
,
0010
1000
0001
0000
0010
0000
0100
0000
,
1000
0001
0100
0000
0010
0100
0001
0000
,
0010
0000
0100
0000
1000
0010
0100
0000
,
1000
0100
0001
0000
1000
0100
0001
0000
,
0100
0000
1000
0000
0010
0100
0001
0000
,
0100
0010
1000
0000
0001
0010
0100
0000
,
1000
1000
0010
0010
,
0100
0100
0001
0001
,
0010
0100
0001
0100
,
1000
0000
0001
0000
0100
0000
1000
0100
,
0010
1000
0100
0010
,
0100
1000
0010
0100
,
0001
0010
0100
1000
,
0010
0000
0100
0000
1000
0000
0100
0001
,
1000
0000
0100
0001
0100
0000
1000
0010
,
0100
0000
0001
0100
0010
0000
1000
0001
,
0010
0000
0100
0010
0001
0000
0100
0010
,
0100
0000
0001
0010
0100
0000
1000
0010
,
0001
0000
0001
0010
1000
0000
1000
0100
,
0010
0000
0100
1000
0001
0000
0100
0010
,
1000
0000
0001
0010
0100
0000
1000
0001
,
0200
0000
0000
0300
,
1000
0000
0100
0000
0001
0000
0000
0000
0100
0000
0000
0010
0000
0000
1000
0000
,
0001
0000
0010
0000
0100
0000
0000
0000
0010
0000
0000
0001
0000
0000
0100
0000
,
0010
0000
0100
0000
0001
0000
0000
0000
0010
0000
0000
0100
0000
0000
0001
0000
,
0100
0000
1000
0000
0001
0000
0000
0000
0100
0000
0000
1000
0000
0000
0100
0000
,
0010
0000
1000
0000
0001
0000
0000
0000
0010
0000
0000
0100
0000
0000
1000
0000
,
0100
0000
0010
0000
0001
0000
0000
0000
0100
0000
0000
0010
0000
0000
0100
0000
,
0001
0000
0010
0000
0100
0000
0000
0000
0010
0000
0000
0001
0000
0000
1000
0000
,
0010
0000
0100
0000
0001
0000
0000
0000
0100
0000
0000
0010
0000
0000
1000
0000
,
0001
0000
0010
0000
0100
0000
0010
0000
0001
0000
0000
0100
0000
0000
0010
0000
,
0100
0000
0001
0000
0010
0000
0100
0000
0001
0000
0000
0100
0000
0000
1000
0000
,
0001
0000
0100
0000
1000
0000
0100
0000
0010
0000
0000
1000
0000
0000
0001
0000
,
0010
0000
1000
0000
0010
0000
0001
0000
1000
0000
0000
0010
0000
0000
0100
0000
,
0001
0000
0100
0000
0010
0000
1000
0000
0001
0000
0000
0010
0000
0000
0100
0000
,
0010
0000
0001
0000
0100
0000
0010
0000
0100
0000
0000
0001
0000
0000
0010
0000
,
0100
0000
1000
0000
0010
0000
0100
0000
1000
0000
0000
0100
0000
0000
0001
0000
,
1000
0000
0100
0000
0001
0000
0100
0000
0010
0000
0000
0001
0000
0000
1000
0000
,
0020
0000
0000
0000
,
0000
0000
0000
0000
,
0030
0000
0000
0000
;

//---------------dance-single - ----------------
#NOTEDATA:;
#CHARTNAME:;
#STEPSTYPE:dance-single;
#DESCRIPTION:;
#CHARTSTYLE:;
#DIFFICULTY:Easy;
#METER:2;
#RADARVALUES:0.088,0.079,0.000,0.018,0.000,68.000,0.000,2.000,0.000,0.000,0.000,0.000,0.000,0.088,0.079,0.000,0.018,0.000,68.000,0.000,2.000,0.000,0.000,0.000,0.000,0.000;
#CREDIT:;
#NOTES:
0000
0000
0000
0000
,
0000
0000
0000
0000
,
0000
0000
0000
0000
,
0000
0000
0000
0000
,
1000
0000
0000
0000
,
0010
0000
0000
0000
,
0100
0000
0000
0000
,
0001
0000
0000
0000
,
0010
0000
0000
0000
,
0100
0000
0000
0000
,
0001
0000
0000
0000
,
0100
0000
0000
0000
,
1000
0000
0001
0000
,
0100
0000
1000
0000
,
0100
0000
0010
0000
,
1000
0000
0100
0000
,
0010
0000
0001
0000
,
0100
0000
0010
0000
,
0100
0000
0001
0000
,
0010
0000
0100
0000
,
1000
0000
0001
0000
,
0100
0000
0010
0000
,
1000
0000
0000
0000
,
0001
0000
0000
0000
,
0100
0000
1000
0000
,
0100
0000
0001
0000
,
1000
0000
0100
0000
,
0002
0000
0003
0000
,
0100
0000
0010
0000
,
0001
0000
0100
0000
,
1000
0000
0100
0000
,
0001
0000
1000
0000
,
0010
0000
0100
0000
,
0001
0000
0010
0000
,
0100
0000
0010
0000
,
0001
0000
1000
0000
,
0010
0000
0100
0000
,
0001
0000
0100
0000
,
0010
0000
1000
0000
,
0001
0000
0010
0000
,
0100
0000
1000
0000
,
0010
0000
0100
0000
,
0001
0000
0000
0000
,
1000
0000
0000
0000
,
0020
0000
0000
0000
,
0030
0000
0000
0000
;

//---------------dance-single - ----------------
#NOTEDATA:;
#CHARTNAME:;
#STEPSTYPE:dance-single;
#DESCRIPTION:;
#CHARTSTYLE:;
#DIFFICULTY:Beginner;
#METER:1;
#RADARVALUES:0.066,0.077,0.009,0.009,0.000,51.000,1.000,1.000,0.000,0.000,0.000,0.000,0.000,0.066,0.077,0.009,0.009,0.000,51.000,1.000,1.000,0.000,0.000,0.000,0.000,0.000;
#CREDIT:;
#NOTES:
0000
0000
0000
0000
,
0000
0000
0000
0000
,
0000
0000
0000
0000
,
0000
0000
0000
0000
,
1000
0000
0000
0000
,
0010
0000
0000
0000
,
0100
0000
0000
0000
,
0001
0000
0000
0000
,
1000
0000
0000
0000
,
0100
0000
0000
0000
,
0001
0000
0000
0000
,
0100
0000
0000
0000
,
1000
0000
0000
0000
,
0010
0000
0000
0000
,
0100
0000
0000
0000
,
0001
0000
0000
0000
,
0010
0000
0000
0000
,
0100
0000
0000
0000
,
0001
0000
0000
0000
,
0100
0000
0000
0000
,
1000
0000
0000
0000
,
0010
0000
0000
0000
,
0100
0000
0000
0000
,
0001
0000
0000
0000
,
0010
0000
0000
0000
,
0100
0000
0000
0000
,
1000
0000
0000
0000
,
0002
0000
0003
0000
,
0000
0001
0000
0001
,
0000
1000
0000
1000
,
0000
0010
0000
0010
,
0000
0000
0000
0000
,
0000
0100
0000
0100
,
0000
0010
0000
0010
,
0000
1000
0000
1000
,
0000
0000
0000
0000
,
0000
0001
0000
0001
,
0000
0100
0000
0100
,
0000
1000
0000
1000
,
0000
0000
0000
0000
,
0100
0000
0100
0000
,
0010
0000
0010
0000
,
1000
0000
1000
0000
,
0001
0000
0001
0000
,
1001
0000
0000
0000
;

//---------------dance-single - ----------------
#NOTEDATA:;
#CHARTNAME:;
#STEPSTYPE:dance-single;
#DESCRIPTION:;
#CHARTSTYLE:;
#DIFFICULTY:Medium;
#METER:5;
#RADARVALUES:0.204,0.178,0.018,0.044,0.000,156.000,2.000,5.000,0.000,0.000,0.000,0.000,0.000,0.204,0.178,0.018,0.044,0.000,156.000,2.000,5.000,0.000,0.000,0.000,0.000,0.000;
#CREDIT:;
#NOTES:
1000
0000
0010
0000
,
0100
0000
0001
0000
,
0010
0000
0100
0000
,
2002
0000
0000
3003
,
1000
0000
0010
0000
,
0100
0000
0001
0000
,
0010
0000
0100
0000
,
0001
0000
0100
0000
,
1000
0000
0001
0000
,
0100
0000
0010
0000
,
1000
0000
0001
0000
,
0010
0000
0100
0000
,
1000
1000
0001
0001
,
0100
0010
0100
0001
,
0010
0010
0100
0100
,
1000
0100
0001
0100
,
1000
1000
0010
0010
,
0100
0100
0001
0001
,
0010
0100
1000
0001
,
0100
0010
1000
0001
,
1000
1000
0010
0010
,
0100
0100
0001
0001
,
0010
0010
0100
0100
,
1000
1000
0001
0001
,
1000
0010
0100
0001
,
0010
0100
1000
0100
,
0001
0100
0010
0001
,
0200
0000
0000
0000
,
0310
1000
0100
1000
,
0010
0000
0100
0000
0001
0000
0100
0100
,
0100
0010
1000
0100
,
1000
0000
0001
0000
0100
0000
0010
0010
,
0010
0100
0001
0010
,
0100
0000
0001
0000
0100
0000
1000
1000
,
1000
0001
0100
1000
,
0100
0000
0010
0000
1000
0000
0001
0001
,
0001
0010
0100
1000
,
0100
0000
0010
0000
0001
0000
0100
0100
,
0100
0001
0010
0100
,
1000
0000
0001
0000
0100
0000
0010
0010
,
0010
1000
0100
0010
,
0001
0000
0010
0000
0100
0000
1000
1000
,
1000
0010
0100
0001
,
0010
0100
1000
0010
,
0220
0000
0000
0000
,
0330
0000
0000
0000
;

//---------------dance-double - ----------------
#NOTEDATA:;
#CHARTNAME:;
#STEPSTYPE:dance-double;
#DESCRIPTION:;
#CHARTSTYLE:;
#DIFFICULTY:Easy;
#METER:2;
#RADARVALUES:0.145,0.154,0.000,0.395,0.000,71.000,0.000,45.000,0.000,0.000,0.000,0.000,0.000,0.145,0.154,0.000,0.395,0.000,71.000,0.000,45.000,0.000,0.000,0.000,0.000,0.000;
#CREDIT:;
#NOTES:
00000000
00000000
00000000
00000000
,
00000000
00000000
00000000
00000000
,
00000000
00000000
00000000
00000000
,
02000000
00000000
00000000
00000000
,
03020000
00000000
00000000
00000000
,
00032000
00000000
00003020
00000000
,
00000032
00000000
00000000
00000000
,
00000203
00000000
00002300
00023000
,
00230000
00000000
00000000
00000000
,
20300000
00000000
32000000
00000000
,
03020000
00000000
00000000
00000000
,
00032000
00000000
00000000
00000000
,
00013000
00010000
00010000
00000000
,
01000000
00000000
10000000
00000000
,
00010000
00100000
00001000
00010000
,
00000200
00000000
00000000
00000000
,
00000320
00000000
00000000
00000032
00000000
00000000
00000203
00000000
,
00000000
00000000
00000000
00000000
,
00002300
00000000
00000000
00023000
00000000
00000000
02030000
00000000
,
00000000
00000000
00000000
23000000
,
30010000
01000000
00001000
00010000
,
00000200
00000000
00000300
00001000
,
00000010
00010000
00002000
00000000
,
00000000
00000000
00003000
01000000
,
00100000
02000000
00000000
00000000
,
00000000
03000000
00000000
00000100
,
00000010
00000200
00000000
00001300
,
00000001
00000100
00001000
00010000
,
00200000
00000000
00000000
00000000
,
20300000
00000000
00000000
00000000
,
32000000
00000000
00000000
00000000
,
03020000
00000000
00032000
00003200
,
00000302
00000000
00000000
00000000
,
00000023
00000000
00000000
00000000
,
00002030
00000000
00000000
00000000
,
00023000
00000000
00000000
00000000
,
00030200
00000000
00000000
00000000
,
00000302
00000000
00000000
00000000
,
00000023
00000000
00000000
00000000
,
00002030
00000000
00023000
00230000
,
20300000
00000000
00000000
00000000
,
32000000
00000000
00000000
00000000
,
03020000
00000000
00000000
00000000
,
00032000
00000000
00000000
00000000
,
00013000
00000000
00000000
00000000
;

//---------------dance-double - ----------------
#NOTEDATA:;
#CHARTNAME:;
#STEPSTYPE:dance-double;
#DESCRIPTION:;
#CHARTSTYLE:;
#DIFFICULTY:Medium;
#METER:5;
#RADARVALUES:0.227,0.257,0.000,0.184,0.057,160.000,0.000,21.000,0.000,0.000,0.000,0.000,0.000,0.227,0.257,0.000,0.184,0.057,160.000,0.000,21.000,0.000,0.000,0.000,0.000,0.000;
#CREDIT:;
#NOTES:
00000000
00000000
00000000
00000000
,
00000000
00000000
00000000
00000000
,
00000000
00000000
00000000
00000000
,
00000200
00000000
00002000
00003300
,
00000001
00000100
00000000
00000000
00000010
00000000
00001000
00000000
,
00000100
00010000
00000000
00000000
00001000
00000000
00100000
00000000
,
01000000
10000000
00100000
00000000
01000000
00000000
00010000
00000000
,
00100000
00001000
00010000
00000000
00000010
00000100
00010000
00000000
,
10000000
00100000
00000000
00000000
01000000
00000000
00010000
00000000
,
00100000
00001000
00000000
00000000
00010000
00000000
00000100
00000000
,
00000010
00000001
00000100
00000000
00000010
00000000
00001000
00000000
,
00000100
00010000
00001000
00000000
00100000
01000000
10000000
00000000
,
00010000
00010000
00001000
00001000
,
00000010
00000000
00000000
00000010
00000000
00000000
00000010
00000000
00000000
00000000
00000000
00000000
00001000
00000000
00000100
00000000
,
00010000
00000000
01000000
10000000
00000000
00010000
00000000
02000000
,
00000000
00000000
00000000
00000000
03000000
00000000
00010000
00100000
,
00020000
00000000
00000000
00030200
00000000
00000000
00000302
00000000
,
00000000
00000000
00000000
00000000
00000013
00000000
00001000
00000100
,
00002000
00000000
00000000
00203000
00000000
00000000
20300000
00000000
,
00000000
30000000
00002000
00003000
,
00010000
00000000
00001000
00000000
00000100
00000001
00000000
00000020
,
00000000
00000000
00000000
00000000
00000030
00000000
00000010
00002000
,
00000000
00000000
00000000
02003000
00000000
00000000
00000000
00000000
,
03000000
00000000
00000000
00000000
00000000
00000000
00001000
00000010
,
00000000
00000002
00000000
00000000
00000000
00000000
00000000
00000000
,
00000003
00000000
00000000
00000000
00000000
00000000
00010000
00100000
,
00000000
20000000
00000000
00000000
00020000
00000000
00000000
00000000
,
30000000
00000000
00000000
00000000
00000000
00000000
01030000
01000000
,
01000000
00000000
00010000
00000000
00000000
00010000
00000000
00000000
00010000
00000000
00000000
00000000
00100000
00000000
00000000
00000000
,
00001000
00000000
00010000
00000000
00000000
00010000
00000000
00000000
00010000
00000000
00000000
00000000
00000100
00000000
00000000
00000000
,
00000010
00000001
00000100
00000000
00000010
00001000
00000100
00000000
,
00010000
00000000
00001000
00000000
00000100
00000100
00000100
00000000
,
00000010
00000000
00001000
00000000
00000000
00001000
00000000
00000000
00001000
00000000
00000000
00000000
00000100
00000000
00000000
00000000
,
00010000
00000000
00001000
00000000
00000000
00001000
00000000
00000000
00001000
00000000
00000000
00000000
00100000
00000000
00000000
00000000
,
01000000
10000000
00100000
00000000
01000000
00010000
00100000
00000000
,
00001000
00000000
00010000
00000000
00100000
00100000
00100000
00000000
,
20000000
00000000
00000000
00000000
,
30010000
00000000
00000000
01000000
00000000
00000000
00002000
00000000
00000000
00000000
00000000
00000000
00013000
00000000
00000100
00000000
,
00000001
00000000
00000010
00000000
00000000
00000010
00000000
00000000
00000010
00000000
00000000
00000000
00000100
00000000
00010000
00000000
,
00001000
00000000
00100000
00000000
00000000
00100000
00000000
00000000
00000000
00000000
00000100
00000000
00000000
00000100
00000000
00000000
,
00000002
00000000
00000000
00000000
,
00001003
00000000
00000000
00000010
00000000
00000000
00020000
00000000
00000000
00000000
00000000
00000000
00031000
00000000
00100000
00000000
,
10000000
00000000
01000000
00000000
00000000
01000000
00000000
00000000
01000000
00000000
00000000
00000000
00100000
00000000
00001000
00000000
,
00010000
00000000
00000100
00000000
00000000
00000100
00000000
00000000
00000010
00000000
00000000
00000001
00000000
00000000
00002000
00000000
,
00000000
00000000
00000000
00000000
,
00003000
00000000
00000000
00000000
,
00000000
00000000
00000000
00000000
,
00000000
00000000
00000000
00000000
,
00000000
00000000
00000000
00000000
;

//---------------dance-double - ----------------
#NOTEDATA:;
#CHARTNAME:;
#STEPSTYPE:dance-double;
#DESCRIPTION:;
#CHARTSTYLE:;
#DIFFICULTY:Hard;
#METER:8;
#RADARVALUES:0.303,0.355,0.070,0.228,0.180,208.000,8.000,26.000,0.000,0.000,0.000,0.000,0.000,0.303,0.355,0.070,0.228,0.180,208.000,8.000,26.000,0.000,0.000,0.000,0.000,0.000;
#CREDIT:;
#NOTES:
00000000
00000000
00000000
00000000
,
00000000
00000000
00000000
00000000
,
00000000
00000000
00000000
00000000
,
00020000
00000000
00000000
00030000
,
00001000
00000000
00000100
00000000
00000000
00001000
00000000
00000000
00010000
00000000
00000000
01000000
00000000
00000000
00010000
00000000
,
00001000
00000000
00000010
00000000
00000000
00001000
00000000
00000000
00010000
00000000
00000000
00100000
00000000
00000000
00010000
00000000
,
00001000
00000000
01000000
00000000
00000000
00010000
00000000
00000000
10000000
00000000
00000000
01000000
00000000
00000000
00010000
00000000
,
00001000
00000000
00000010
00000000
00000000
00000001
00000000
00000000
00000000
00000000
00001000
00000000
00000000
00000100
00000000
00000000
,
00010000
00000000
00100000
00000000
00000000
00010000
00000000
00000000
00001000
00000000
00000000
00000010
00000000
00000000
00001000
00000000
,
00010000
00000000
01000000
00000000
00000000
00010000
00000000
00000000
00001000
00000000
00000000
00000100
00000000
00000000
00001000
00000000
,
00010000
00000000
00000010
00000000
00000000
00001000
00000000
00000000
00000001
00000000
00000000
00000010
00000000
00000000
00001000
00000000
,
00010000
00000000
01000000
00000000
00000000
10000000
00000000
00000000
00010000
00000000
00000000
00100000
00000000
00000000
00001000
00010000
,
00000000
00002000
00003200
00000301
,
00000010
00000000
00000000
00000100
00000000
00000000
00001000
00000000
00000002
00000000
00000000
00000000
00000103
00000000
00001000
00000000
,
00020000
00000000
00031000
00100000
01000000
20000000
00000000
30200000
,
00000000
00000000
01000000
00000000
01000000
00000000
01300000
00010000
,
00200000
00000000
00001000
00320000
00000000
00000000
00030200
00000000
,
00000010
00000010
00000310
00000010
,
00000001
00000100
00001000
00010000
,
00100000
10000000
02000000
00010000
,
13000000
00100000
02000000
00000000
03002000
00010000
00000000
00003200
,
00000000
00000000
00000001
00000000
00000001
00000000
00000301
00000100
,
00002000
00000000
00013000
02000000
00000000
00000000
00000000
00000000
,
00000000
00000000
00010000
00000000
00010000
00000000
03010000
00002000
,
00000000
00003020
00000000
00000000
00000000
00000000
00000000
00000000
,
00000000
00000000
00000001
00000000
00000001
00000000
00000031
00002000
,
00000000
02003000
00000000
00000000
00000000
13000000
00100000
00020000
,
00000000
00000000
00001000
00000000
00001000
00000000
00031000
00000100
,
00000001
00000000
00001000
00000000
00000000
00000100
00000000
00000000
00000001
00000000
00000000
00000100
00000000
00000000
00001000
00000000
,
00000100
00000000
00010000
00000000
00000000
00100000
00000000
00000000
10000000
00000000
00000000
00100000
00000000
00000000
00010000
00000000
,
00001000
00000000
00010000
00000000
00011000
00000000
00000000
00000100
00000000
00000000
00000100
00000000
00000101
00000000
00000001
00000000
,
00000010
00000000
00000100
00000000
00001100
00000000
00000000
00000100
00000000
00000000
00010000
00000000
00011000
00000000
00001000
00000000
,
01000000
00000000
00010000
00000000
00000000
00100000
00000000
00000000
10000000
00000000
00000000
00100000
00000000
00000000
00010000
00000000
,
00100000
00000000
00001000
00000000
00000000
00000100
00000000
00000000
00000001
00000000
00000000
00000100
00000000
00000000
00001000
00000000
,
00010000
00000000
00001000
00000000
00011000
00000000
00000000
00100000
00000000
00000000
00100000
00000000
10100000
00000000
10000000
00000000
,
01000000
00000000
00100000
00000000
00110000
00000000
00000000
00100000
00000000
00000000
00001000
00000000
00011000
00000000
00010000
00000000
,
00000200
00000000
00000000
00000000
00000000
00000000
00001300
00000001
,
00000100
00000000
00000000
00001000
00000000
00000000
00010000
00000000
02000000
00000000
00000000
00000000
13000000
00000000
00100000
00000000
,
01000000
00000000
00010000
00000000
00000000
01000000
00000000
00000000
00001000
00000000
00000000
00010000
00000000
00000000
00000100
00000000
,
00000010
00000000
00000001
00000000
00000000
00001000
00000000
00000000
00000000
00000000
00010000
00000000
00000000
10000000
00000000
00000000
,
00200000
00000000
00000000
00000000
00000000
00000000
00310000
10000000
,
00100000
00000000
00000000
00010000
00000000
00000000
00001000
00000000
00000020
00000000
00000000
00000000
00000031
00000000
00000100
00000000
,
00000010
00000000
00001000
00000000
00000000
00000010
00000000
00000000
00010000
00000000
00000000
00001000
00000000
00000000
00100000
00000000
,
01000000
00000000
10000000
00000000
00000000
00010000
00000000
00000000
00100000
00000000
00000000
00001000
00000000
00000000
00000100
00000002
,
00000000
00000000
00000000
00000000
,
00000003
00000000
00000000
00000000
,
00000000
00000000
00000000
00000000
,
00000000
00000000
00000000
00000000
,
00000000
00000000
00000000
00000000
;

//---------------dance-single - ----------------
#NOTEDATA:;
#CHARTNAME:;
#STEPSTYPE:dance-single;
#DESCRIPTION:;
#CHARTSTYLE:;
#DIFFICULTY:Challenge;
#METER:13;
#RADARVALUES:0.512,0.493,0.096,0.053,0.627,392.000,11.000,6.000,0.000,0.000,0.000,0.000,0.000,0.512,0.493,0.096,0.053,0.627,392.000,11.000,6.000,0.000,0.000,0.000,0.000,0.000;
#CREDIT:;
#NOTES:
// measure 0
0000
0000
0000
0000
,  // measure 1
0000
0000
0000
0000
,  // measure 2
0000
0000
0000
0000
,  // measure 3
0020
0000
0000
0000
,  // measure 4
0130
0010
0100
0000
0100
0001
0000
0001
1000
0000
1000
0100
0000
0100
0010
0100
,  // measure 5
1000
0010
1000
0000
0010
1000
0000
1000
0001
0000
0001
0010
0000
0100
0010
0001
,  // measure 6
0100
0001
0100
0000
0010
1000
0000
1000
0001
0000
0010
0100
0000
0100
1000
0010
,  // measure 7
0100
0001
0100
0000
0001
0100
0000
0001
0100
0010
1000
0000
0001
1000
0000
0001
,  // measure 8
1000
0001
0010
0000
0001
0010
0000
0100
0010
0000
0001
1000
0000
0010
1000
0100
,  // measure 9
0010
0001
0010
0000
0001
1000
0000
1000
0010
0000
0100
0010
0000
0010
1000
0001
,  // measure 10
0010
0100
0010
0000
0100
1000
0000
1000
0010
0000
0100
0001
0000
0001
0010
0100
,  // measure 11
1000
0001
1000
0000
0001
0100
0000
0100
1000
0000
0001
0010
0000
0010
1000
0100
,  // measure 12
0010
0000
0110
0100
1000
0000
1001
0001
,  // measure 13
0100
0000
0000
0010
0000
0000
0100
0010
0100
0000
0001
0000
1000
0000
0100
0000
,  // measure 14
0010
0000
0000
0000
0100
0000
0010
0000
0000
0000
0100
1000
0001
0000
0100
0000
,  // measure 15
0010
0000
0100
0000
0001
0100
0010
1000
,  // measure 16
1010
0000
1000
1001
0000
0001
0011
0000
,  // measure 17
0010
0100
1000
0100
0010
0001
0100
0010
,  // measure 18
0110
0000
0010
1010
0000
1000
1001
0000
,  // measure 19
0001
0100
1000
0100
0010
1000
0100
0001
,  // measure 20
1000
0000
0000
0010
1000
0000
0010
0000
0001
0000
0100
0000
0000
0000
0010
1000
,  // measure 21
0010
0000
0110
0000
0100
0001
1000
2010
,  // measure 22
0000
0000
3001
1001
0000
0000
0001
0000
,  // measure 23
0100
0010
1000
0100
0001
1000
0010
0001
,  // measure 24
0020
0100
0000
0000
1000
0000
0100
0000
,  // measure 25
0001
0000
1000
0000
0100
0000
0031
0010
,  // measure 26
0100
0000
0010
0100
0020
0000
0000
0000
1000
0000
0000
0000
0130
0000
0000
0000
,  // measure 27
0020
0000
0000
0000
0001
0000
0000
0000
0100
0000
0130
0000
0010
0100
0010
0100
,  // measure 28
1000
0001
1000
0000
0001
0100
0000
0100
0010
0000
1000
0010
1000
0000
0001
0000
,  // measure 29
1000
0001
1000
0000
0001
0010
0000
0010
0100
0000
0100
1000
0010
0000
0100
0001
,  // measure 30
0010
0100
0010
0000
0100
1000
0000
1000
0010
0000
0100
0001
0010
0100
1000
0001
,  // measure 31
1000
0001
0100
0000
0010
1000
0000
0100
0010
0100
0010
0000
0100
1000
0000
1000
,  // measure 32
0001
0100
0001
0000
0100
0010
0000
0010
1000
0000
1000
0001
0010
0000
0100
1000
,  // measure 33
0001
0010
0001
0000
0100
0001
0000
1000
0001
0000
0010
0100
0000
1000
0100
0010
,  // measure 34
0001
0100
0001
0000
0100
1000
0000
0100
0001
0000
0001
0010
0000
0010
1000
0000
,  // measure 35
0010
0100
0010
0100
1000
0100
0010
0000
0001
1000
0001
0000
0100
0001
0100
0010
,  // measure 36
1000
0010
0001
0000
0010
1000
0000
1000
0100
0000
0100
0010
0000
0010
0100
1000
,  // measure 37
0001
0100
0001
0000
0100
0010
0000
0010
1000
0000
1000
0001
0010
0000
0100
1000
,  // measure 38
0001
0100
0001
0000
0100
0010
0000
0010
0100
0000
0010
1000
0000
1000
0010
0100
,  // measure 39
0001
1000
0001
0000
1000
0100
0000
0100
0010
0001
0100
0000
0010
0100
0000
0010
,  // measure 40
1000
0001
0010
0000
0100
1000
0000
1000
0001
0000
0100
0001
0100
0000
0010
1000
,  // measure 41
0010
1000
0001
0000
0010
0100
0000
0100
1000
0000
1000
0010
0100
0000
0001
0100
,  // measure 42
0010
1000
0001
0000
0010
0001
0000
0001
0100
0000
0010
1000
0100
0000
0010
0100
,  // measure 43
0010
0100
1000
0000
0001
1000
0000
0001
0100
0000
0010
1000
0000
0010
1000
0001
,  // measure 44
0020
0000
0000
0000
,  // measure 45
0030
0000
0000
0000
;
