#TITLE:The Big Angry White Horse;
#SUBTITLE:;
#ARTIST:Morning Blue Dragon;
#TITLETRANSLIT:;
#SUBTITLETRANSLIT:;
#ARTISTTRANSLIT:;
#GENRE:Japanese;
#CREDIT:;
#BANNER:The Big Angry White Horse.png;
#BACKGROUND:The Big Angry White Horse-bg.png;
#LYRICSPATH:;
#CDTITLE:;
#MUSIC:The Big Angry White Horse.mp3;
#OFFSET:-0.259;
#SAMPLESTART:64.700;
#SAMPLELENGTH:15.000;
#SELECTABLE:YES;
#BPMS:0.000=147.970
,112.000=109.920
,120.000=116.130
,128.000=117.650
,130.000=120.000
,132.000=123.290
,133.000=126.760
,134.000=128.570
,135.000=132.350
,136.000=139.530
,138.000=140.620
,140.000=142.860
,145.000=145.160
,146.000=147.540
,147.000=145.160
,148.000=148.020
;
#STOPS:
;
#BGCHANGES:;
#KEYSOUNDS:;
#ATTACKS:;

//---------------dance-single - ----------------
#NOTES:
     dance-single:
     :
     Easy:
     5:
     0.221,0.234,0.011,0.032,0.000,141.000,1.000,3.000,0.000,0.000,0.000,0.221,0.234,0.011,0.032,0.000,141.000,1.000,3.000,0.000,0.000,0.000:
0000
0000
0000
0000
,
0000
0000
0000
0000
,
0000
0000
0000
0000
,
0000
0000
0000
0000
,
0010
0000
0100
0000
,
0001
0000
1000
0000
,
0010
0000
0001
0000
,
0100
0000
1000
0000
,
0000
0001
0000
0001
,
0000
1000
0000
1000
,
0010
0000
0100
0000
,
1000
0000
0100
0000
,
0010
0000
1000
0000
,
0001
0000
0010
0000
,
0100
0000
1000
0000
,
0001
0000
0100
0000
,
0010
0000
0100
0000
,
1000
0000
0010
0000
,
2000
0000
0000
3000
,
0002
0000
0000
0003
,
1000
1000
1000
0000
,
0001
0001
0001
0000
,
0100
0100
0100
0000
,
0010
0010
0010
0000
,
1000
0010
1000
0000
,
0001
0100
0001
0000
,
1000
0001
1000
0000
,
0100
0010
0100
0000
,
0020
0000
0000
0030
,
1000
0000
0100
0000
,
0001
0000
0010
0000
,
0001
0000
1000
0000
,
0100
0000
0010
0000
,
1000
0000
0001
0000
,
0100
0100
0100
0000
,
0010
0010
0010
0000
,
1000
0000
0001
0000
,
1000
0001
1000
0001
,
0100
0100
0010
0000
,
0010
0010
0100
0000
,
0001
0001
1000
1000
,
0001
1000
0001
1000
,
0001
0010
0010
0000
,
1000
0100
0100
0000
,
0010
0010
0100
0100
,
1000
0001
1000
0001
,
0100
0100
0100
0100
,
0010
0010
0010
0010
,
1000
1000
1000
1000
,
0001
0001
0001
0001
,
1000
1000
0100
0100
,
0001
0001
0100
0100
,
0010
0010
1000
1000
,
0010
0010
0001
0001
,
1000
0001
1000
1001
;

//---------------dance-single - ----------------
#NOTES:
     dance-single:
     :
     Medium:
     8:
     0.372,0.380,0.160,0.011,0.000,228.000,15.000,1.000,0.000,0.000,0.000,0.372,0.380,0.160,0.011,0.000,228.000,15.000,1.000,0.000,0.000,0.000:
0000
0000
0000
0000
,
0000
0000
0000
0000
,
0000
0000
0000
0000
,
0000
0000
0000
0000
,
0001
0001
0000
0010
0000
0100
0000
1000
,
0000
0001
0000
0100
0000
0001
0000
0010
,
0000
1000
0000
0010
0000
0001
0000
1000
,
0000
0010
0000
0100
0000
0010
0010
0000
,
0001
0000
1000
1000
0000
0000
0001
0001
,
0000
0000
0010
0010
0000
0000
0100
0000
,
0010
0001
0100
0001
,
1000
0100
0010
0001
,
0010
1000
0001
0100
,
0010
0001
1000
0110
,
1001
0010
0100
0001
,
1000
0100
0010
0001
,
0100
0010
0001
0010
,
1000
0001
0100
0110
,
1001
0010
0100
1000
,
0010
1000
0001
0010
,
0100
0100
0000
1000
0000
0001
0000
0010
,
0000
1000
0000
0010
0000
0100
0000
1000
,
0000
0010
0000
0001
0000
0010
0000
1000
,
0000
0100
0000
0010
0000
0100
0100
0000
,
1000
1000
0000
0010
0000
1000
0000
0001
,
0000
0010
0000
0100
0000
0001
0000
0100
,
0000
0010
0000
0001
0000
0100
0000
1000
,
0000
0001
0000
0010
0000
1000
0000
0010
,
0020
0000
0000
0030
,
0001
0100
1000
0010
,
0100
0000
1000
0000
0010
0000
0100
0010
,
0100
0000
1000
0000
0100
0000
0001
0010
,
0001
0010
0100
0001
,
1000
0000
0010
0000
1000
0000
0001
1000
,
0001
1000
0010
0100
,
0001
0000
0010
0000
0100
0000
0010
1000
,
0010
0100
0010
0001
,
1000
0001
1000
0000
0100
0000
1001
0000
,
0010
0000
0001
0000
0100
0100
0100
0000
,
0010
0000
0001
0000
1000
1000
1000
0000
,
0100
0000
0010
0000
0001
0001
0001
0000
,
0110
1001
0110
1001
,
0010
0000
1000
0000
0001
0001
0001
0000
,
1000
0000
0100
0000
0010
0010
0010
0000
,
1000
0000
0010
0000
1000
1000
1000
0000
,
0110
1001
0110
1001
,
1000
0000
0010
0000
0100
0010
0100
0000
,
0001
0000
0010
0000
0100
0010
0100
0000
,
1000
0000
0001
0000
1000
1000
1000
0000
,
0100
0000
0010
0000
0100
0100
0100
0000
,
1000
1000
1000
0000
0001
0001
0001
0000
,
0100
0100
0100
0000
0010
0010
0010
0000
,
0100
0100
0100
0000
0001
0010
0001
0000
,
1000
1000
1000
0000
0001
1000
0001
0000
,
0110
0000
1001
0000
0010
0100
0010
0000
;

//---------------dance-single - ----------------
#NOTES:
     dance-single:
     :
     Hard:
     11:
     0.538,0.526,0.011,0.053,0.613,347.000,1.000,5.000,0.000,0.000,0.000,0.538,0.526,0.011,0.053,0.613,347.000,1.000,5.000,0.000,0.000,0.000:
0000
0000
0000
0000
,
0000
0000
0000
0000
,
0000
0000
0000
0000
,
0000
0000
0000
0000
,
0010
0000
0000
0010
1000
0000
0000
1000
0100
0000
0000
0100
0010
0000
0000
0010
,
0001
0000
0000
0001
1000
0000
0000
1000
0010
0000
0000
0010
1000
0000
0000
1000
,
0100
0000
0000
0100
0001
0000
0000
0001
0100
0000
0000
0100
1000
0000
0000
1000
,
0001
0000
0000
0001
0100
0000
0000
0100
0010
0000
1000
0000
0100
0000
1000
0000
,
0010
0000
1000
0001
0000
0000
0010
0100
,
0000
0000
1000
0001
0000
0100
0001
0010
,
0001
0000
0000
0000
1000
0000
0100
0000
0010
0000
0000
0100
1000
0000
0000
0000
,
0001
0000
0000
0000
0010
0000
0001
0000
0100
0000
0000
0010
1000
0000
0000
0000
,
0100
0000
0000
0000
0001
0000
0100
0000
1000
0000
0000
0001
0010
0000
0000
0000
,
0100
0000
0000
0000
1000
0000
0001
0000
0100
0000
0000
0010
0100
0000
0000
0000
,
1000
0000
0000
0000
0100
0000
0001
0000
0010
0000
0000
0100
1000
0000
0000
0000
,
0001
0000
0000
0000
0010
0000
0001
0000
0100
0000
0000
0001
1000
0000
0000
0000
,
0010
0000
0000
0000
0100
0000
0010
0000
1000
0000
0000
0001
0100
0000
0000
0000
,
0001
0000
0000
0000
1000
0000
0100
0000
0010
0000
0000
0001
0100
0000
0000
0000
,
0010
0000
0100
0001
0010
0000
0100
1000
,
0001
0000
0100
0010
1000
0000
0100
1000
,
0010
0000
0000
0010
0100
0000
0000
0100
0001
0000
0000
0001
1000
0000
0000
1000
,
0100
0000
0000
0100
0001
0000
0000
0001
0100
0000
0000
0100
0010
0000
0000
0010
,
0001
0000
0000
0001
0100
0000
0000
0100
1000
0000
0000
1000
0100
0000
0000
0100
,
0001
0000
0000
0001
0010
0000
0000
0010
0100
0000
0000
0100
1000
0000
0001
0000
,
1000
0000
0000
1000
0010
0000
0000
0010
0100
0000
0000
0100
0001
0000
0000
0001
,
1000
0000
0000
1000
0100
0000
0000
0100
0010
0000
0000
0010
1000
0000
0000
1000
,
0010
0000
0000
0010
0100
0000
0000
0100
1000
0000
0000
1000
0010
0000
0000
0010
,
0001
0000
0000
0001
1000
0000
0000
1000
0100
0000
0000
0100
0001
0000
1000
0000
,
0200
0000
0000
0300
,
1000
0000
0010
1000
0001
0000
0100
0001
,
0010
0000
0001
1000
0100
0000
0010
0100
,
1000
0001
1000
0100
0010
0000
0100
1000
,
0010
0000
0100
0001
1000
0000
0010
0100
,
0001
0000
1000
0100
0001
0100
1000
0001
,
0100
0000
0001
0010
0100
0000
0010
0001
,
1000
0000
0100
1000
0010
0000
1000
0001
,
0100
0000
0010
1000
0100
0000
1000
0000
,
0001
0000
1000
0000
0100
0000
1000
0000
0001
0000
0000
0100
0001
0000
0010
0000
,
0100
0000
0000
0000
1000
0000
0000
0000
0001
0100
0000
0000
0010
0000
1000
0000
,
0100
0000
0000
0000
1000
0000
0000
0000
0001
0010
0000
0000
0001
0000
1000
0000
,
0010
0000
0000
0000
0100
0000
0000
0000
0010
1000
0000
0000
0001
0000
1000
0000
,
0100
0000
0000
0100
0001
0000
0000
0001
0100
0000
0000
0100
1000
0000
0010
0000
,
1000
0000
0000
0000
0001
0000
0000
0000
0100
0010
0000
0000
0100
0000
0001
0000
,
1000
0000
0000
0000
0010
0000
0000
0000
1000
0100
0000
0000
0010
0000
0100
0000
,
0001
0000
0000
0000
0100
0000
0000
0000
1000
0001
0000
0000
0010
0000
0001
0000
,
0100
0000
0000
0100
0010
0000
0000
0010
1000
0000
0000
1000
0100
0000
1000
0000
,
0001
0100
0000
0001
0000
0010
0000
0001
0000
0100
0000
0001
0010
0000
0000
0000
,
0100
1000
0000
0100
0000
0010
0000
0100
0000
1000
0000
0100
0010
0000
0000
0000
,
0001
1000
0000
0001
0000
0100
0000
0001
0000
1000
0000
0001
0100
0000
0000
0000
,
0010
1000
0000
0010
0000
0100
0000
0010
0000
1000
0000
0010
0100
0000
0000
0000
,
0002
1000
0000
1000
0000
1000
0000
1000
0003
1000
0000
1000
0100
0000
0000
0000
,
2000
0010
0000
0010
0000
0010
0000
0010
3000
0010
0000
0010
0100
0000
0000
0000
,
0002
0100
0000
0100
0000
0100
0000
0100
0003
0100
0000
0100
0010
0000
0000
0000
,
0200
0001
0000
0001
0000
0001
0000
0001
0300
0001
0000
0001
0010
0000
0000
0000
,
0001
0000
0000
0001
1000
0000
0000
1000
0100
0000
0010
0000
1001
0000
0000
0000
;

//---------------dance-double - ----------------
#NOTES:
     dance-double:
     :
     Easy:
     3:
     0.181,0.175,0.011,0.032,0.000,115.000,1.000,3.000,0.000,0.000,0.000,0.181,0.175,0.011,0.032,0.000,115.000,1.000,3.000,0.000,0.000,0.000:
00000000
00000000
00000000
00000000
,
00000000
00000000
00000000
00000000
,
00000000
00000000
00000000
00000000
,
00000000
00000000
00000000
00000000
,
01000000
00000000
01000000
00000000
,
10000000
00000000
10000000
00000000
,
00100000
00000000
00100000
00000000
,
00010000
00000000
00010000
00000000
,
00001000
00000000
00010000
00000000
,
00001000
00000000
00010000
00000000
,
00001000
00000000
00000100
00000000
,
00000001
00000000
00001000
00000000
,
00000100
00000000
00000010
00000000
,
00000100
00000000
00001000
00000000
,
00000010
00000000
00000100
00000000
,
00001000
00000000
00010000
00000000
,
00100000
00000000
10000000
00000000
,
00010000
00000000
01000000
00000000
,
00020000
00000000
00000000
00030000
,
20000000
00000000
00000000
30000000
,
01000000
00000000
01000000
00000000
,
00100000
00000000
00100000
00000000
,
00010000
00000000
00010000
00000000
,
01000000
00000000
01000000
00000000
,
00100000
00000000
10000000
00000000
,
01000000
00000000
00010000
00000000
,
00001000
00000000
00000100
00000000
,
00000001
00000000
00000010
00000000
,
00000200
00000000
00000000
00000300
,
00001000
00000000
00000001
00000000
,
00000100
00000000
00000010
00000000
,
00001000
00000000
00000001
00000000
,
00000010
00000000
00000100
00000000
,
00000001
00000000
00001000
00000000
,
00000010
00000000
00000010
00000000
,
00000100
00000000
00000100
00000000
,
00001000
00000000
00010000
00000000
,
00001000
00010000
00001000
00010000
,
00100000
00000000
01000000
00000000
,
00010000
00000000
10000000
00000000
,
00100000
00000000
10000000
00000000
,
00010000
10000000
00010000
10000000
,
01000000
00000000
00010000
00000000
,
00001000
00000000
00000010
00000000
,
00000001
00000000
00000100
00000000
,
00000001
00001000
00000001
00001000
,
00000100
00000100
00000100
00000000
,
00000010
00000010
00000010
00000000
,
00000001
00000001
00000001
00000000
,
00000100
00000100
00000100
00000000
,
00001000
00001000
00010000
00000000
,
00010000
00010000
01000000
00000000
,
01000000
01000000
10000000
00000000
,
10000000
10000000
00100000
00000000
,
10000000
00010000
10000000
10010000
;

//---------------dance-double - ----------------
#NOTES:
     dance-double:
     :
     Medium:
     7:
     0.332,0.350,0.085,0.011,0.000,209.000,8.000,1.000,0.000,0.000,0.000,0.332,0.350,0.085,0.011,0.000,209.000,8.000,1.000,0.000,0.000,0.000:
00000000
00000000
00000000
00000000
,
00000000
00000000
00000000
00000000
,
00000000
00000000
00000000
00000000
,
00000000
00000000
00000000
00000000
,
00000001
00000100
00000010
00001000
,
00000001
00000010
00000001
00000100
,
00001000
00010000
01000000
10000000
,
00100000
01000000
00010000
10000000
,
01000000
00000000
00010000
00010000
00000000
00000000
01000000
01000000
,
00000000
00000000
00100000
00100000
00000000
00000000
00010000
00000000
,
00001000
00000100
00000010
00000001
,
00001000
00000010
00000100
00000001
,
00000100
00001000
00000001
00000010
,
00000100
00001000
00010000
00011000
,
01000000
10000000
01000000
00100000
,
10000000
00100000
01000000
00010000
,
00100000
01000000
10000000
00010000
,
01000000
00100000
01000000
10010000
,
10000000
00000000
01000000
00000000
,
00010000
00000000
00001000
00000000
,
00000010
00000001
00001000
00000100
,
00000001
00000100
00000010
00001000
,
00000100
00000001
00000100
00001000
,
00000010
00000100
00000010
00001000
,
00010000
01000000
10000000
00010000
,
01000000
00100000
00010000
00100000
,
01000000
00010000
00100000
10000000
,
00010000
01000000
10000000
01000000
,
00200000
00000000
00000000
00300000
,
00010000
00010000
10000000
10000000
,
00100000
00000000
00100000
00000000
00010000
00010000
00010000
00000000
,
00001000
00000000
00001000
00000000
00000010
00000010
00000010
00000000
,
00000001
00000100
00001000
00000100
,
00000010
00000001
00000100
00001000
,
00010000
00010000
00001000
00001000
,
00010000
00010000
00001000
00001000
,
00010000
00100000
10000000
01000000
,
00010000
01000000
00100000
10010000
,
01000000
00000000
10000000
00000000
01000000
01000000
01000000
00000000
,
00100000
00000000
00010000
00000000
00100000
00100000
00100000
00000000
,
00001000
00001000
00010000
00010000
,
00001000
00000010
00000001
00000100
,
00001000
00000000
00000001
00000000
00001000
00001000
00001000
00000000
,
00000100
00000000
00000010
00000000
00000100
00000100
00000100
00000000
,
00001000
00001000
00010000
00010000
,
01000000
10000000
00010000
00100000
,
10000000
01000000
00100000
10010000
,
00100000
01000000
00010000
10010000
,
10000000
01000000
00010000
00011000
,
00001000
00000100
00000001
00001001
,
00000010
00000000
00000100
00000000
00000001
00000001
00000001
00000000
,
00000010
00000000
00000100
00000000
00001000
00001000
00001000
00000000
,
00000001
00000001
00000001
00000000
00000100
00000100
00000100
00000000
,
00001000
00001000
00001000
00000000
00010000
00010000
00010000
00000000
,
00100000
10000000
01000000
10010000
;

//---------------dance-double - ----------------
#NOTES:
     dance-double:
     :
     Hard:
     11:
     0.521,0.467,0.032,0.011,0.619,338.000,3.000,1.000,0.000,0.000,0.000,0.521,0.467,0.032,0.011,0.619,338.000,3.000,1.000,0.000,0.000,0.000:
00000000
00000000
00000000
00000000
,
00000000
00000000
00000000
00000000
,
00000000
00000000
00000000
00000000
,
00000000
00000000
00000000
00000000
,
00000001
00000000
00000000
00000001
00001000
00000000
00000000
00001000
00000100
00000000
00000000
00000100
00000010
00000000
00000000
00000010
,
00000001
00000000
00000000
00000001
00000100
00000000
00000000
00000100
00001000
00000000
00000000
00001000
00010000
00000000
00000000
00010000
,
00100000
00000000
00000000
00100000
10000000
00000000
00000000
10000000
01000000
00000000
00000000
01000000
10000000
00000000
00000000
10000000
,
00010000
00000000
00000000
00010000
01000000
00000000
00000000
01000000
00100000
00000000
00000000
00100000
10000000
00000000
00000000
00000000
,
01000000
00000000
00010000
00001000
00000000
00000000
00001000
00010000
,
00000000
00000000
00010000
00001000
00000000
00000000
00000010
00000100
,
00000010
00000000
00000000
00000001
00000100
00000000
00000001
00000000
00000010
00000000
00000000
00000000
00001000
00000000
00000000
00000000
,
00010000
00000000
00000000
00100000
10000000
00000000
01000000
00000000
00010000
00000000
00000000
00000000
00001000
00000000
00000000
00000000
,
00000100
00000000
00000000
00000001
00001000
00000000
00000100
00000000
00000010
00000000
00000000
00000000
00001000
00000000
00000000
00000000
,
00010000
00000000
00000000
00100000
10000000
00000000
01000000
00000000
00100000
00000000
00000000
00000000
10010000
00000000
00000000
00000000
,
10000000
00000000
00000000
00100000
00010000
00000000
00001000
00000000
00000010
00000000
00000000
00000000
00000001
00000000
00000000
00000000
,
00001000
00000000
00000000
00000100
00000010
00000000
00000001
00000000
00000100
00000000
00000000
00000000
00001000
00000000
00000000
00000000
,
00010000
00000000
00000000
01000000
10000000
00000000
00010000
00000000
01000000
00000000
00000000
00000000
00001000
00000000
00000000
00000000
,
00010000
00000000
00000000
00001000
00000010
00000000
00001000
00000000
00010000
00000000
00000000
00000000
00110000
00000000
00000000
00000000
,
10000000
00000000
01000000
00000000
00100000
00010000
00100000
00000000
,
01000000
00000000
00010000
00000000
00001000
00000010
00001000
00000000
,
00010000
00000000
00000000
00010000
00100000
00000000
00000000
00100000
10000000
00000000
00000000
10000000
01000000
00000000
00000000
01000000
,
00010000
00000000
00000000
00010000
00001000
00000000
00000000
00001000
00000100
00000000
00000000
00000100
00000010
00000000
00000000
00000010
,
00001000
00000000
00000000
00001000
00000100
00000000
00000000
00000100
00010000
00000000
00000000
00010000
00001000
00000000
00000000
00001000
,
00100000
00000000
00000000
00100000
00010000
00000000
00000000
00010000
01000000
00000000
00000000
01000000
00100000
00000000
10000000
00000000
,
01000000
00000000
00000000
01000000
00010000
00000000
00000000
00010000
00001000
00000000
00000000
00001000
00000100
00000000
00000000
00000100
,
00001000
00000000
00000000
00001000
00010000
00000000
00000000
00010000
00100000
00000000
00000000
00100000
00010000
00000000
00000000
00010000
,
00001000
00000000
00000000
00001000
00000100
00000000
00000000
00000100
00000001
00000000
00000000
00000001
00000010
00000000
00000000
00000010
,
00000100
00000000
00000000
00000100
00010000
00000000
00000000
00010000
00001000
00000000
00000000
00001000
00100000
00000000
00010000
00000000
,
02000000
00000000
00000000
03000000
,
00001000
00000000
00010000
00000010
00001000
00000000
00000100
00010000
,
00001000
00000000
00100000
00010000
01000000
00000000
00001000
00010000
,
00000010
00000000
00001000
00000100
00010000
00000000
00001000
00100000
,
00010000
00000000
01000000
00001000
00010000
00000000
00000010
00000000
,
00001000
00000000
00000001
00000010
00000100
00000000
00001000
00000001
,
00000100
00000000
00001000
00010000
01000000
00000000
00010000
00001000
,
00000100
00000000
00001000
00010000
01000000
00000000
10000000
00000000
,
00010000
01000000
00100000
00000000
10000000
01000000
00010000
00000000
,
00001000
00000000
00000000
00000000
00000100
00000000
00000001
00000000
00000010
00000000
00000000
00001000
00010000
00000000
00000010
00000000
,
00001000
00000000
00000000
00000000
00000001
00000000
00000000
00000000
00000010
00000100
00000000
00000000
00000010
00000000
00000001
00000000
,
00000100
00000000
00000000
00000000
00001000
00000000
00000000
00000000
00010000
00001000
00000000
00000000
00100000
00000000
00010000
00000000
,
01000000
00000000
00000000
00000000
00100000
00000000
00000000
00000000
10000000
01000000
00000000
00000000
00100000
00000000
00010000
00000000
,
01000000
00000000
00000000
01000000
00100000
00000000
00000000
00100000
00010000
00000000
00000000
00010000
00001000
00000000
00000100
00000000
,
00000001
00000000
00000000
00000000
00000010
00000000
00000000
00000000
00000100
00001000
00000000
00000000
00000001
00000000
00000100
00000000
,
00001000
00000000
00000000
00000000
00010000
00000000
00000000
00000000
01000000
10000000
00000000
00000000
00010000
00000000
01000000
00000000
,
00100000
00000000
00000000
00000000
10000000
00000000
00000000
00000000
01000000
00100000
00000000
00000000
00010000
00000000
01000000
00000000
,
00100000
00000000
00000000
00100000
00010000
00000000
00000000
00010000
00001000
00000000
00000000
00001000
00000100
00000000
00000000
00000000
,
00000001
00000010
00000000
00000100
00000000
00001000
00000000
00000100
00000000
00000010
00000000
00000001
00000100
00000000
00000000
00000000
,
00001000
00010000
00000000
01000000
00000000
00010000
00000000
00001000
00000000
00010000
00000000
01000000
10000000
00000000
00000000
00000000
,
00010000
01000000
00000000
10000000
00000000
01000000
00000000
00010000
00000000
10000000
00000000
01000000
00010000
00000000
00000000
00000000
,
00001000
00000100
00000000
00000001
00000000
00000100
00000000
00001000
00000000
00000100
00000000
00000001
00001000
00000000
00000000
00000000
,
00000100
00010000
00000000
00001000
00000000
00100000
00000000
00001000
00000000
00010000
00000000
00000100
00001000
00000000
00000000
00000000
,
00000001
00000100
00000000
00001000
00000000
00010000
00000000
00001000
00000000
00000100
00000000
00000001
00001000
00000000
00000000
00000000
,
00000100
00010000
00000000
00001000
00000000
00100000
00000000
00001000
00000000
00010000
00000000
00000100
00000010
00000000
00000000
00000000
,
00000001
00000100
00000000
00001000
00000000
00010000
00000000
01000000
00000000
10000000
00000000
00010000
01000000
00000000
00000000
00000000
,
00001000
00000000
00000000
00001000
00010000
00000000
00000000
00010000
00000010
00000000
00000100
00000000
00001001
00000000
00000000
00000000
;

//---------------dance-single - ----------------
#NOTES:
     dance-single:
     :
     Beginner:
     4:
     0.154,0.146,0.011,0.000,0.000,100.000,1.000,0.000,0.000,0.000,0.000,0.154,0.146,0.011,0.000,0.000,100.000,1.000,0.000,0.000,0.000,0.000:
0000
0000
0000
0000
,
0000
0000
0000
0000
,
0000
0000
0000
0000
,
0000
0000
0000
0000
,
0010
0000
0100
0000
,
0001
0000
1000
0000
,
0010
0000
0001
0000
,
0100
0000
1000
0000
,
0000
0001
0000
0001
,
0000
1000
0000
1000
,
0000
0000
0100
0000
,
1000
0000
0100
0000
,
0010
0000
1000
0000
,
0001
0000
0010
0000
,
0100
0000
1000
0000
,
0001
0000
0100
0000
,
0010
0000
0100
0000
,
1000
0000
0010
0000
,
1000
0000
0000
0000
,
0001
0000
0000
0000
,
1000
1000
0000
0000
,
0001
0001
0000
0000
,
0100
0100
0000
0000
,
0010
0010
0000
0000
,
1000
0000
1000
0000
,
0001
0000
0001
0000
,
1000
0000
1000
0000
,
0100
0000
0100
0000
,
0010
0000
0000
0000
,
1000
0000
0100
0000
,
0001
0000
0010
0000
,
0001
0000
1000
0000
,
0100
0000
0010
0000
,
1000
0000
0001
0000
,
0100
0100
0000
0000
,
0010
0010
0000
0000
,
1000
0000
0001
0000
,
1000
0000
1000
0000
,
0100
0100
0000
0000
,
0010
0010
0000
0000
,
0001
0001
0000
1000
,
0000
1000
0000
1000
,
0000
0010
0010
0000
,
1000
0000
0100
0000
,
0010
0010
0000
0100
,
0000
0001
0000
0001
,
0000
0100
0100
0000
,
0000
0010
0010
0000
,
0000
1000
1000
0000
,
0000
0001
0001
0000
,
0000
1000
0000
0100
,
0000
0001
0000
0100
,
0000
0010
0000
1000
,
0000
0010
0000
0001
,
0000
0001
0000
1001
;

//---------------dance-single - Blank----------------
#NOTES:
     dance-single:
     :
     Challenge:
     14:
     0.766,0.730,0.299,0.021,0.869,473.000,28.000,2.000,0.000,0.000,0.000,0.766,0.730,0.299,0.021,0.869,473.000,28.000,2.000,0.000,0.000,0.000: // measure 0
0000
0000
0000
0000
,  // measure 1
0000
0000
0000
0000
,  // measure 2
0000
0000
0000
0000
,  // measure 3
0000
0000
0000
0000
,  // measure 4
1000
0000
0010
1000
0010
0000
1000
0001
1000
0000
0001
0100
0001
0000
0100
0010
,  // measure 5
0100
0000
0010
1000
0010
0000
1000
0100
1000
0000
0100
0001
0100
0000
1000
0000
,  // measure 6
0010
0000
1000
0010
1000
0000
0001
1000
0001
0000
0100
0001
0100
0000
0010
0100
,  // measure 7
0010
0000
1000
0100
1000
0000
0100
0001
0100
0000
0010
0100
0010
0100
1000
0001
,  // measure 8
0100
0000
0000
0010
1000
0000
0000
1000
0100
0000
0000
0100
0010
0000
0000
0010
,  // measure 9
0001
0000
0000
0001
0100
0000
0000
0100
0010
0000
0000
0010
1000
0000
0001
0000
,  // measure 10
1000
0000
0010
1000
0100
0000
0010
0000
0001
0010
0000
0010
0100
0000
1000
0000
,  // measure 11
0001
0000
0010
0001
0100
0000
0010
0000
1000
0010
0000
0010
0100
0000
0000
0000
,  // measure 12
0001
0000
0100
0001
0010
0000
0100
0000
1000
0100
0000
0100
0010
0000
0001
0000
,  // measure 13
1000
0000
0100
1000
0010
0000
0100
0000
0001
0100
0000
0100
0010
0000
0000
0000
,  // measure 14
1010
0000
1000
0001
0100
0000
0001
0000
0010
0100
0000
0100
1000
0000
0001
0000
,  // measure 15
0010
0000
0001
1000
0100
0000
0001
0000
0010
0001
0000
0001
0100
0000
0000
0000
,  // measure 16
0010
0000
1000
0100
1000
0000
0010
0000
0100
0001
0000
0001
0010
0000
0100
0000
,  // measure 17
0010
0000
0001
0100
0001
0000
0010
0000
0100
1000
0000
1000
0010
0000
0000
0000
,  // measure 18
1010
0000
0000
0000
1000
0000
0001
1000
0000
1000
0001
0000
0011
0000
0000
0000
,  // measure 19
0100
0000
0000
0000
0000
0000
1000
0000
0100
0000
0010
0000
0001
0000
0010
0000
0100
0000
0010
0000
0100
0000
1000
0000
0001
0000
0000
0100
0000
0000
0001
0000
0000
0100
0000
0000
0001
0000
0000
0000
0000
0000
0000
0000
0000
0000
0000
0000
,  // measure 20
1000
0000
0001
1000
0001
0000
0100
0000
0010
0000
1000
0100
0010
0000
0000
0000
,  // measure 21
0001
0000
1000
0001
1000
0000
0100
0000
0010
0000
0001
0100
0010
0000
1000
0010
,  // measure 22
1000
0000
0100
0010
0100
0000
1000
0000
0001
0000
0100
0001
0100
0000
0001
0000
,  // measure 23
0010
0000
0100
0010
0100
0000
1000
0001
1000
0000
0001
0100
0001
0000
0000
0000
,  // measure 24
0011
0000
0010
0100
0010
0000
0100
1000
0100
0000
1000
0010
1000
0000
0000
0000
,  // measure 25
1010
0000
0010
0100
0010
0000
0100
0001
0100
0000
0001
0010
0001
0000
0000
0000
,  // measure 26
0011
0000
0001
0100
0001
0000
0100
0010
0100
0000
0010
1000
0010
0000
0000
0000
,  // measure 27
1000
0000
0010
1000
0001
0010
0000
0100
0000
1000
0000
0001
0000
0100
0000
0010
,  // measure 28
0100
0000
0010
0000
0100
0000
0001
1000
,  // measure 29
1000
0000
0000
0000
0100
0000
0010
0000
0010
0000
0000
0000
0100
0000
1000
0001
,  // measure 30
1000
0000
0100
0010
0110
0000
0001
0010
,  // measure 31
0001
0010
0100
1000
0001
0000
0010
0001
,  // measure 32
1000
0000
0010
1000
0001
0010
0100
1000
,  // measure 33
1000
0100
0010
0001
0010
0100
0010
0100
1000
0001
0010
0100
1000
0010
1000
0010
,  // measure 34
0100
0100
0100
0101
0000
0001
0001
0001
,  // measure 35
0010
0010
0010
0110
0000
0100
1000
1000
,  // measure 36
0010
0010
0010
0110
0000
0100
0001
0010
,  // measure 37
0110
0000
0100
0000
0110
0000
0100
0000
1000
0000
0000
0001
0100
0000
0010
0000
,  // measure 38
1000
0000
0000
0000
0101
0000
0001
0010
0001
0000
0000
0000
0010
0100
1000
0010
,  // measure 39
0100
0000
0000
0000
0010
0100
0001
0010
0100
0000
0010
0000
0001
0000
1000
0000
,  // measure 40
0010
0000
1000
0100
0010
0000
0100
0000
1000
0000
0100
1000
0001
0000
0001
0000
,  // measure 41
0101
0000
0001
0010
0001
0000
0010
0100
0010
0000
0100
1000
0100
0000
1000
0000
,  // measure 42
1001
0000
0000
0000
1010
0000
1000
0100
0010
0000
0000
0000
0001
0010
0001
1000
,  // measure 43
0100
0000
0000
0000
1000
0010
1000
0001
0100
0000
0001
0000
1000
0000
0100
0000
,  // measure 44
0010
0000
0100
1000
0010
0000
0100
0000
0001
0000
0100
0001
1000
0000
0010
0000
,  // measure 45
1000
0000
0100
0010
0001
0000
0001
0010
1000
0000
1000
0010
0100
0000
1000
0000
,  // measure 46
0001
0100
0000
0010
0000
1000
0000
0001
0000
0001
0000
0001
1000
0000
0000
0000
,  // measure 47
1000
0100
0000
0010
0000
0001
0000
1000
0000
1000
0000
1000
0001
0000
0010
0100
,  // measure 48
1000
0010
0000
0100
0000
0010
0000
1000
0000
0100
0000
0010
0001
0000
0000
0000
,  // measure 49
0001
0100
0000
0010
0000
0100
0000
0001
0000
0010
0000
0100
1000
0000
0001
0000
,  // measure 50
0101
0000
0000
1010
0000
0101
0000
0011
0000
1100
0000
1000
0001
0000
0000
0000
,  // measure 51
1100
0000
0000
0011
0000
1100
0000
0101
0000
1010
0000
1000
0001
0000
0000
0000
,  // measure 52
2000
0001
0000
0010
0000
0100
0000
0001
0000
0010
0000
3100
1000
0000
0000
0000
,  // measure 53
0002
1000
0000
0010
0000
0100
0000
1000
0000
0010
0000
0103
0001
0000
1000
0001
,  // measure 54
1000
0000
0010
0100
0010
0000
0100
0010
0100
0000
0110
0000
1001
0000
0000
0000
;
