#VERSION:0.81;
#TITLE:Sweetheart;
#SUBTITLE:;
#ARTIST:Foozogz;
#TITLETRANSLIT:;
#SUBTITLETRANSLIT:;
#ARTISTTRANSLIT:;
#GENRE:Techno;
#ORIGIN:;
#CREDIT:;
#BANNER:Sweetheart.png;
#BACKGROUND:Sweetheart-bg.png;
#PREVIEWVID:;
#JACKET:Sweetheart-jacket.png;
#CDIMAGE:;
#DISCIMAGE:;
#LYRICSPATH:;
#CDTITLE:;
#MUSIC:Sweetheart.mp3;
#OFFSET:-5.576;
#SAMPLESTART:45.760;
#SAMPLELENGTH:15.000;
#SELECTABLE:YES;
#BPMS:0.000=176.000,
48.000=179.050,
49.000=176.000,
111.000=164.778,
112.000=176.000;
#STOPS:112.000=1.357;
#DELAYS:;
#WARPS:;
#TIMESIGNATURES:0.000=4=4;
#TICKCOUNTS:0.000=4;
#COMBOS:0.000=1;
#SPEEDS:0.000=1.000=0.000=0;
#SCROLLS:0.000=1.000;
#FAKES:;
#LABELS:0.000=Song Start;
#BGCHANGES:;
#KEYSOUNDS:;
#ATTACKS:
;

//---------------dance-single - Blank----------------
#NOTEDATA:;
#CHARTNAME:Blank;
#STEPSTYPE:dance-single;
#DESCRIPTION:Blank;
#CHARTSTYLE:;
#DIFFICULTY:Hard;
#METER:10;
#RADARVALUES:0.481,0.459,0.143,0.171,0.067,321.000,15.000,18.000,0.000,0.000,0.000,0.000,0.000,0.481,0.459,0.143,0.171,0.067,321.000,15.000,18.000,0.000,0.000,0.000,0.000,0.000;
#CREDIT:Blank;
#NOTES:
0000
1000
0100
1000
0000
0001
0010
0001
,
0000
0100
0010
0100
0001
0010
0100
1000
,
0001
0000
0100
0010
0000
0010
0100
0000
,
0001
0000
0010
0001
0000
0001
0010
0000
,
0200
0000
2300
0000
,
3020
0000
0230
0000
,
0302
0000
0023
0000
,
0230
0000
2300
0000
,
3000
0001
0100
0001
0000
1000
0010
1000
,
0000
0001
0010
0100
1000
0100
0010
0001
,
1000
0000
0010
0100
0000
0001
1000
0000
,
0200
0000
0000
0000
,
1300
0000
0000
0000
0010
0000
0000
0100
0000
0000
0001
0000
0100
0000
0010
0000
,
1000
0000
0000
0000
0100
0000
0000
0010
0000
0000
0100
0000
1000
0000
0001
0000
,
0100
0000
0000
0000
0010
0000
0000
0100
0000
0000
0001
0000
0010
0000
0100
0000
,
1000
0000
0000
0000
0100
0000
0000
0010
0000
0000
0001
0000
0100
0000
0010
0000
,
0100
0001
0010
0100
0000
1000
0001
1000
,
0000
0010
0100
0001
0100
0000
0010
0000
,
1000
0100
1000
0001
0000
0001
0100
0010
,
1000
0000
0001
0010
0000
0010
0001
0000
,
0100
0000
0000
0000
0010
0000
0000
1000
0000
0000
0100
0000
1000
0000
0001
0000
,
0100
0000
0000
0000
0010
0000
0000
1000
0000
0000
0100
0000
0010
0000
0100
0000
,
1000
0000
0000
0000
0001
0000
0000
0100
0000
0000
0010
0000
0100
0000
0001
0000
,
0010
0000
0000
0000
0100
0000
0000
1000
0000
0000
0100
0000
0010
0000
0001
0000
,
0100
0010
0100
0001
0000
0010
0100
1000
,
0000
0001
0100
0010
1000
0001
0010
0000
,
0100
0000
1000
0001
0000
0001
1000
0000
,
0010
0100
0001
0100
0010
0000
1000
0000
,
0002
0000
1003
0000
,
1000
0000
0000
1100
0000
0000
0001
0000
,
0000
0000
0101
0000
0000
0000
0000
0000
0100
0000
0000
0010
0000
0000
0100
0000
,
0001
0000
0000
0011
0000
0000
0010
0000
,
0000
0000
0110
0000
0000
0000
0000
0000
0100
0000
0000
1000
0000
0000
0010
0000
,
0100
0000
0000
0101
0000
0000
0100
0000
,
0000
0000
0110
0000
0000
0000
0000
0000
0010
0000
0000
1000
0000
0000
0100
0000
,
1000
0000
0001
0000
0100
0010
0100
0000
,
0001
0000
0010
0100
0000
0100
0001
0000
,
0100
0000
0000
1100
0000
0000
1000
0000
,
0000
0000
1010
0000
0000
0000
0000
0000
1000
0000
0000
0010
0000
0000
0100
0000
,
0001
0000
0000
0101
0000
0000
0100
0000
,
0000
0000
0110
0000
0000
0000
0000
0000
0100
0000
0000
0001
0000
0000
1000
0000
,
0010
0000
0000
1010
0000
0000
1000
0000
,
0000
0000
1100
0000
0000
0000
0000
0000
0010
0000
0000
0001
0000
0000
1000
0000
,
0100
0000
0010
0001
0000
0001
0010
0001
,
0100
0000
0010
1000
0000
1000
0001
1000
,
0010
1000
0100
0001
0100
0010
0001
0000
,
0100
0010
0100
0001
0010
0100
1000
0000
,
0110
0000
0100
0001
0000
0100
1000
0000
,
1100
0000
0010
1000
0000
0100
0001
0000
,
0100
0010
0001
0100
0010
0100
0001
0000
,
0010
0100
1000
0001
0100
0010
1000
0000
,
0001
0000
0010
0001
0000
0001
0100
0000
,
0010
1000
0000
1000
0001
0000
0010
0000
,
0100
1000
0010
0001
1000
0100
0001
0010
,
1000
0001
0100
1000
0010
0100
0001
1000
,
0100
0000
0010
0001
0000
0100
0010
0000
,
1000
0100
0000
0010
0001
0000
0100
0000
,
0010
1000
0100
0010
0001
1000
0010
0100
,
0001
1000
0100
0010
0001
0100
0010
1000
,
0001
0010
0000
0100
1000
0000
0010
0100
,
0000
0001
1000
0000
0100
0000
0010
0000
,
0002
0000
0000
0000
,
0203
0000
0000
0000
,
2300
0000
0000
0000
,
3020
0000
0000
0000
,
0032
0000
0000
0000
,
0203
0000
0000
0000
,
0320
0000
0000
0000
,
2030
0000
0000
3000
,
1001
0000
0000
0000
;

//---------------dance-single - Blank----------------
#NOTEDATA:;
#CHARTNAME:Blank;
#STEPSTYPE:dance-single;
#DESCRIPTION:Blank;
#CHARTSTYLE:;
#DIFFICULTY:Medium;
#METER:8;
#RADARVALUES:0.362,0.327,0.114,0.162,0.000,237.000,12.000,17.000,0.000,0.000,0.000,0.000,0.000,0.362,0.327,0.114,0.162,0.000,237.000,12.000,17.000,0.000,0.000,0.000,0.000,0.000;
#CREDIT:Blank;
#NOTES:
0000
1000
0000
1000
0000
0001
0000
0001
,
0000
0100
0000
0100
0010
0000
0100
0000
,
0001
0000
0000
0010
0000
0000
0100
0000
,
1000
0000
0000
0001
0000
0000
0100
0000
,
0020
0000
2030
0000
,
3200
0000
0320
0000
,
0032
0000
0203
0000
,
0320
0000
2030
0000
,
3000
0001
0000
0001
0000
0100
0000
0100
,
0000
0010
0000
0010
1000
0000
0100
0000
,
0010
0000
0001
0000
0000
0001
0000
0000
,
0100
0000
0000
0010
0000
0000
1000
0000
,
0001
0000
0100
0000
0010
1000
0010
0000
,
0100
0000
0001
0000
0010
0001
0010
0000
,
0100
0000
1000
0000
0001
0100
0001
0000
,
0100
0000
0010
0000
1000
0010
1000
0000
,
0000
0001
0000
0001
0000
0010
0000
0010
,
0000
0100
0000
0100
1000
0000
0100
0000
,
0010
0000
0000
0001
0000
0000
0100
0000
,
0000
0010
0000
0000
1000
0000
0100
0000
,
1000
0000
0010
0000
0100
0001
0100
0000
,
0010
0000
0100
0000
0001
0010
0001
0000
,
0010
0000
0100
0000
1000
0010
1000
0000
,
0001
0000
0010
0000
0100
1000
0100
0000
,
0000
1000
0000
1000
0000
0100
0000
0100
,
0000
0010
0000
0010
0001
0000
0100
0000
,
0010
0000
1000
0000
0000
0100
0000
0000
,
0001
0000
0000
0100
0000
0000
0010
0000
,
0002
0000
0000
0000
,
1003
0000
0000
0100
0000
0000
0010
0000
,
0000
0001
0000
0000
0100
0000
0110
0000
,
0010
0000
0000
1000
0000
0000
0100
0000
,
0000
1000
0000
0000
0010
0000
0110
0000
,
0100
0000
0000
0001
0000
0000
0010
0000
,
0000
0100
0000
0000
0010
0000
0011
0000
,
0001
0100
0010
0010
,
1000
0100
1000
1000
,
0001
0000
0000
0101
0000
0000
0100
0000
,
0000
0110
0000
0000
0010
0000
1010
0000
,
1000
0000
0000
1100
0000
0000
0100
0000
,
0000
0110
0000
0000
0010
0000
0011
0000
,
0001
0000
0000
0101
0000
0000
1000
0000
,
0000
1100
0000
0000
0001
0000
0101
0000
,
0100
0010
1000
0100
,
0010
0001
1000
0010
,
0100
0000
0001
0000
0100
0010
0100
0000
,
0001
0000
0010
0000
0100
1000
0100
0000
,
0010
0001
0100
0100
,
0010
1000
0100
0100
,
1000
0000
0010
0000
0100
0001
0100
0000
,
0001
0000
1000
0000
0100
0010
0100
0000
,
1000
0010
0100
0100
,
0010
1000
0001
0001
,
0010
0000
0100
0000
1000
0001
1000
0000
,
0010
0000
0100
0000
0001
0010
0001
0000
,
0010
0100
0010
0010
,
0001
0100
0001
0001
,
1000
0000
0010
0000
1000
0100
1000
0000
,
0100
0000
0010
0000
0001
0100
0010
0000
,
0100
0001
0010
0010
,
0001
0001
1000
1000
,
0200
0000
0000
0000
,
2300
0000
0000
0000
,
3002
0000
0000
0000
,
0203
0000
0000
0000
,
0320
0000
0000
0000
,
2030
0000
0000
0000
,
3002
0000
0000
0000
,
0023
0000
0000
0030
;

//---------------dance-single - Blank----------------
#NOTEDATA:;
#CHARTNAME:Blank;
#STEPSTYPE:dance-single;
#DESCRIPTION:Blank;
#CHARTSTYLE:;
#DIFFICULTY:Easy;
#METER:5;
#RADARVALUES:0.230,0.230,0.152,0.114,0.000,141.000,16.000,12.000,0.000,0.000,0.000,0.000,0.000,0.230,0.230,0.152,0.114,0.000,141.000,16.000,12.000,0.000,0.000,0.000,0.000,0.000;
#CREDIT:Blank;
#NOTES:
1000
0000
1000
0000
,
0010
0000
0010
0000
,
0100
0000
0100
0000
,
0001
0000
0001
0000
,
2000
0000
3000
0000
,
0200
0000
0300
0000
,
0020
0000
0030
0000
,
0002
0000
0003
0000
,
0100
0000
0010
0000
,
0100
0000
0010
0000
,
1000
0000
0001
0000
,
1000
0000
0001
0000
,
1000
0000
0100
0000
,
0010
0000
0001
0000
,
0100
0000
0010
0000
,
1000
0000
0001
0000
,
0010
0000
0010
0000
,
0100
0000
0100
0000
,
1000
0000
1000
0000
,
0001
0000
0001
0000
,
1000
0000
0010
0000
,
0100
0000
1000
0000
,
0100
0000
0001
0000
,
0010
0000
0100
0000
,
1000
0000
1000
0000
,
0001
0000
0001
0000
,
0100
0000
0100
0000
,
0010
0000
0010
0000
,
0000
0000
0000
0000
,
1000
0000
1100
0000
,
0100
0000
1100
0000
,
0001
0000
0101
0000
,
0100
0000
0101
0000
,
0001
0000
0011
0000
,
0010
0000
0011
0000
,
1000
0000
1010
0000
,
0010
0000
1010
0000
,
0001
0000
0101
0000
,
0100
0000
0101
0000
,
0001
0000
0011
0000
,
0010
0000
0011
0000
,
1000
0000
1100
0000
,
0100
0000
1100
0000
,
0001
0000
0101
0000
,
0100
0000
0101
0000
,
0001
0010
0100
0010
,
0001
0100
0010
0100
,
0001
0000
0010
0000
,
0100
0000
1000
0000
,
0010
0100
0010
1000
,
0100
0010
0100
1000
,
0010
0000
0100
0000
,
0001
0000
1000
0000
,
0001
0100
1000
0100
,
0001
1000
0100
0001
,
0100
0000
1000
0000
,
0001
0000
0100
0000
,
0010
1000
0010
0001
,
0010
1000
0001
0010
,
1000
0000
0010
0000
,
0100
0000
1000
0000
,
0002
0000
0003
0000
,
0200
0000
0300
0000
,
0020
0000
0030
0000
,
2000
0000
3000
0000
,
0002
0000
0003
0000
,
0020
0000
0030
0000
,
0200
0000
0300
0000
,
2000
0000
0000
0000
,
3001
0000
0000
0000
;

//---------------dance-single - Blank----------------
#NOTEDATA:;
#CHARTNAME:Blank;
#STEPSTYPE:dance-single;
#DESCRIPTION:Blank;
#CHARTSTYLE:;
#DIFFICULTY:Beginner;
#METER:2;
#RADARVALUES:0.106,0.129,0.000,0.114,0.000,66.000,0.000,12.000,0.000,0.000,0.000,0.000,0.000,0.106,0.129,0.000,0.114,0.000,66.000,0.000,12.000,0.000,0.000,0.000,0.000,0.000;
#CREDIT:Blank;
#NOTES:
// measure 0
0000
0000
0000
0000
,  // measure 1
0000
0000
0000
0000
,  // measure 2
0000
0000
0000
0000
,  // measure 3
0000
0000
0000
0000
,  // measure 4
2000
0000
3000
0000
,  // measure 5
0020
0000
0030
0000
,  // measure 6
0200
0000
0300
0000
,  // measure 7
0002
0000
0003
0000
,  // measure 8
0010
0000
0000
0000
,  // measure 9
0100
0000
0000
0000
,  // measure 10
1000
0000
0000
0000
,  // measure 11
0001
0000
0000
0000
,  // measure 12
2000
0000
0000
0000
,  // measure 13
0000
0000
3000
0000
,  // measure 14
0020
0000
0000
0000
,  // measure 15
0030
0000
0000
0000
,  // measure 16
0100
0000
0000
0000
,  // measure 17
0001
0000
0000
0000
,  // measure 18
0010
0000
0000
0000
,  // measure 19
1000
0000
0000
0000
,  // measure 20
0200
0000
0000
0000
,  // measure 21
0300
0000
0000
0000
,  // measure 22
0002
0000
0000
0000
,  // measure 23
0003
0000
0000
0000
,  // measure 24
0100
0000
0000
0000
,  // measure 25
1000
0000
0000
0000
,  // measure 26
0010
0000
0000
0000
,  // measure 27
0001
0000
0000
0000
,  // measure 28
0000
0000
0000
0000
,  // measure 29
0010
0000
0100
0000
,  // measure 30
0010
0000
0000
0000
,  // measure 31
0001
0000
1000
0000
,  // measure 32
0001
0000
0000
0000
,  // measure 33
1000
0000
0100
0000
,  // measure 34
1000
0000
0000
0000
,  // measure 35
0001
0000
0010
0000
,  // measure 36
0001
0000
0000
0000
,  // measure 37
0100
0000
0010
0000
,  // measure 38
0100
0000
0000
0000
,  // measure 39
0001
0000
0010
0000
,  // measure 40
0001
0000
0000
0000
,  // measure 41
1000
0000
0100
0000
,  // measure 42
1000
0000
0000
0000
,  // measure 43
0001
0000
0100
0000
,  // measure 44
0001
0000
0000
0000
,  // measure 45
0200
0000
0000
0000
,  // measure 46
0000
0000
0300
0000
,  // measure 47
0010
0000
0000
0000
,  // measure 48
0010
0000
0000
0000
,  // measure 49
0020
0000
0000
0000
,  // measure 50
0000
0000
0030
0000
,  // measure 51
1000
0000
0000
0000
,  // measure 52
1000
0000
0000
0000
,  // measure 53
2000
0000
0000
0000
,  // measure 54
0000
0000
3000
0000
,  // measure 55
0001
0000
0000
0000
,  // measure 56
0001
0000
0000
0000
,  // measure 57
0002
0000
0000
0000
,  // measure 58
0000
0000
0003
0000
,  // measure 59
0100
0000
0010
0000
,  // measure 60
1000
0000
0001
0000
,  // measure 61
0010
0000
0000
0000
,  // measure 62
0100
0000
0000
0000
,  // measure 63
1000
0000
0000
0000
,  // measure 64
0001
0000
0000
0000
,  // measure 65
0100
0000
0000
0000
,  // measure 66
0010
0000
0000
0000
,  // measure 67
1000
0000
0000
0000
,  // measure 68
0001
0000
0000
0000
;

//---------------dance-double - ----------------
#NOTEDATA:;
#CHARTNAME:;
#STEPSTYPE:dance-double;
#DESCRIPTION:;
#CHARTSTYLE:;
#DIFFICULTY:Easy;
#METER:3;
#RADARVALUES:0.247,0.263,0.010,0.114,0.000,169.000,1.000,12.000,0.000,0.000,0.000,0.000,0.000,0.247,0.263,0.010,0.114,0.000,169.000,1.000,12.000,0.000,0.000,0.000,0.000,0.000;
#CREDIT:;
#OFFSET:-5.576;
#BPMS:0.000=176.000,
48.000=179.050,
49.000=176.000,
111.000=164.778,
112.000=176.000
;
#STOPS:112.000=1.357
;
#DELAYS:;
#WARPS:;
#TIMESIGNATURES:0.000=4=4
;
#TICKCOUNTS:0.000=4
;
#COMBOS:0.000=1
;
#SPEEDS:0.000=1.000=0.000=0
;
#SCROLLS:0.000=1.000
;
#FAKES:;
#LABELS:0.000=Song Start
;
#NOTES:
00000000
00000000
00000000
01000000
00000000
00000000
00000000
00010000
,
00000000
00000000
00000000
10000000
00000000
00000000
00000000
00000000
,
00100000
00000000
00010000
00000000
,
00001000
00000000
00000010
00000000
,
00000001
00000100
00000000
00000000
,
00000010
00001000
00000000
00000000
,
00001000
00010000
00000000
00000000
,
01000000
00010000
00000000
00000000
,
00000000
00000000
00000000
00000010
00000000
00000000
00000000
00001000
,
00000000
00000000
00000000
00000001
00000000
00000000
00000000
00000000
,
00000100
00000000
00001000
00000000
,
00010000
00000000
01000000
00000000
,
10000000
00100000
00000000
00100000
,
01000000
00001000
00000000
00001000
,
00100000
00001000
00000000
00001000
,
00000100
00000001
00000000
00001000
,
00000001
00000000
00000000
00000010
00000000
00000000
00000000
00000100
,
00000000
00000000
00000000
00001000
00000000
00000000
00000100
00000000
,
00010000
00000000
01000000
00000000
,
10000000
00000000
00100000
00000000
,
01000000
00010000
00000000
00000000
,
00100000
00001000
00000000
00000000
,
00001000
00000100
00000000
00000000
,
00000010
00001000
00000100
00000000
,
00010000
00000000
00000000
01000000
00000000
00000000
00000000
00100000
,
00000000
00000000
00000000
00010000
00000000
00000000
00100000
00000000
,
00001000
00000000
00000010
00000000
,
00000001
00000001
00001000
00001000
,
00000100
00000000
00000001
00001000
,
00000100
00010000
00000000
00001000
,
00000000
00100000
00000000
00100000
,
01000000
10000000
00000000
00010000
,
00000000
00100000
00000000
00001000
,
00000100
00000001
00000000
00001000
,
00000000
00000100
00001000
00000010
,
00001000
00000100
00010000
00000000
,
00010000
01000000
10000000
00010000
,
01000000
00001000
00000000
00010000
,
00000000
00000100
00000000
00000100
,
00000010
00000001
00000000
00001000
,
00000000
00000100
00000000
00010000
,
00100000
10000000
00000000
00010000
,
00000000
00100000
00010000
01000000
,
00010000
00100000
00001000
00000000
,
00001000
00000010
00000001
00001000
,
00000020
00000000
00000000
00000000
,
00002030
00000000
00000000
00000000
,
00003100
00000100
00000100
00000100
,
00010000
00010000
00010000
00010000
,
02000000
00000000
00000000
00000000
,
23000000
00000000
00000000
00000000
,
30010000
00010000
00010000
00010000
,
00100000
00100000
00100000
00100000
,
00001000
00010000
00001000
00010000
,
00000100
00001000
00000100
00000010
,
00000001
00001000
00000000
00000100
,
00000000
00000010
00000001
00000010
,
00000100
00010000
00001000
00010000
,
00001000
00100000
01000000
10000000
,
00100000
10000000
00000000
00100000
,
00000000
01000000
00010000
00100000
,
00002000
00000000
00000000
00000000
,
00003200
00000000
00000000
00000000
,
00000302
00000000
00000000
00000000
,
00000023
00000000
00000000
00000000
,
00002030
00000000
00000000
00000000
,
00023000
00000000
00000000
00000000
,
02030000
00000000
00000000
00000000
,
23000000
00000000
00000000
30000000
,
10010000
00000000
00000000
00000000
;

//---------------dance-double - ----------------
#NOTEDATA:;
#CHARTNAME:;
#STEPSTYPE:dance-double;
#DESCRIPTION:;
#CHARTSTYLE:;
#DIFFICULTY:Medium;
#METER:8;
#RADARVALUES:0.427,0.433,0.352,0.095,0.100,267.000,37.000,10.000,0.000,0.000,0.000,0.000,0.000,0.427,0.433,0.352,0.095,0.100,267.000,37.000,10.000,0.000,0.000,0.000,0.000,0.000;
#CREDIT:;
#OFFSET:-5.576;
#BPMS:0.000=176.000,
48.000=179.050,
49.000=176.000,
111.000=164.778,
112.000=176.000
;
#STOPS:112.000=1.357
;
#DELAYS:;
#WARPS:;
#TIMESIGNATURES:0.000=4=4
;
#TICKCOUNTS:0.000=4
;
#COMBOS:0.000=1
;
#SPEEDS:0.000=1.000=0.000=0
;
#SCROLLS:0.000=1.000
;
#FAKES:;
#LABELS:0.000=Song Start
;
#NOTES:
00000000
10000000
00000000
00010000
00000000
01000000
00000000
00010000
,
00000000
00100000
00000000
00010000
10000000
00000000
00100000
00000000
,
00010000
00000000
00000000
00001000
00000000
00000000
00000010
00000000
,
00000001
00001000
00000100
00010000
,
02000000
00000000
00000000
00000000
,
23000000
00000000
00000000
00000000
,
30200000
00000000
00000000
00000000
,
00302000
00000000
00000000
00003000
,
00000000
00000001
00000000
00001000
00000000
00000010
00000000
00001000
,
00000000
00000100
00000000
00001000
00000001
00000000
00000100
00000000
,
00001000
00000000
00000000
00010000
00000000
00000000
01000000
00000000
,
10000000
00010000
00100000
00001000
,
00011000
00000000
00010100
00000000
00010000
00001000
00000000
00000000
,
01100000
00000000
01010000
00000000
01000000
00100000
00000000
00000000
,
00110000
00000000
01010000
00000000
00010000
00100000
00000000
00000000
,
00001100
00000000
00010100
00000000
00000100
00001000
00000000
00001000
,
00000010
00000100
00000000
00000010
00000000
00001000
00000000
00000100
,
00000000
00010000
00000000
00001000
00010000
00000000
01000000
00000000
,
10000000
00010000
01000000
00100000
,
00010000
00001000
00000010
00001000
,
00011000
00000000
00101000
00000000
00001000
00010000
00000000
00000000
,
00000110
00000000
00001010
00000000
00000010
00000100
00000000
00000000
,
00001100
00000000
00001010
00000000
00001000
00000100
00000000
00000000
,
00110000
00000000
00101000
00000000
00100000
00010000
00000000
00010000
,
01000000
00100000
00000000
01000000
00000000
00010000
00000000
00100000
,
00000000
00001000
00000000
00010000
00001000
00000000
00000010
00000000
,
00000001
00001000
00000010
00000100
,
00000001
00001000
00000001
00001000
00000100
00010000
00001000
00010000
,
00002000
00000000
00000000
00000000
00000000
00000000
00000000
00000000
00103000
00000000
00000000
01000000
00000000
00000000
10000000
00000000
,
00010000
00000000
00000000
01000000
00000000
00000000
00010000
00000000
,
00000000
00000000
01000000
00000000
00000000
00000000
00000000
00000000
00001000
00000000
00000000
00010000
00000000
00000000
00000100
00000000
,
00000010
00000000
00000000
00000001
00000000
00000000
00000010
00000000
,
00000000
00000000
00000001
00000000
00000000
00000000
00000000
00000000
00001000
00000000
00000000
00000100
00000000
00000000
00010000
00000000
,
00001000
00000000
00000000
01000000
00000000
00000000
00001000
00000000
,
00000000
00000000
01000000
00000000
00000000
00000000
00000000
00000000
00010000
00000000
00000000
10000000
00000000
00000000
01000000
00000000
,
00100000
00000000
00000000
01000000
00000000
00000000
10000000
00000000
00010000
00000000
00000000
00000000
00110000
00000000
00000000
00000000
,
00001000
00000000
00000000
00000100
00000000
00000000
00000001
00000000
00001000
00000000
00000000
00000000
00000100
00000000
00000000
00000000
,
00001100
00000000
00000000
00000010
00000000
00000000
00001000
00000000
,
00000000
00000000
00000010
00000000
00000000
00000000
00000000
00000000
00010000
00000000
00000000
00001000
00000000
00000000
00100000
00000000
,
01000000
00000000
00000000
10000000
00000000
00000000
01000000
00000000
,
00000000
00000000
10000000
00000000
00000000
00000000
00000000
00000000
00010000
00000000
00000000
00100000
00000000
00000000
00001000
00000000
,
00010000
00000000
00000000
00000010
00000000
00000000
00010000
00000000
,
00000000
00000000
00000010
00000000
00000000
00000000
00000000
00000000
00001000
00000000
00000000
00000001
00000000
00000000
00000010
00000000
,
00000100
00000000
00000000
00000010
00000000
00000000
00000001
00000000
00001000
00000000
00000000
00000000
00001100
00000000
00000000
00000000
,
00010000
00000000
00000000
01000000
00000000
00000000
10000000
00000000
00010000
00000000
00000000
00000000
01000000
00000000
00000000
00000000
,
00100000
00000000
00000000
10000000
00000000
00000000
00010000
00000000
01000000
00000000
00000000
00000000
00010000
00000000
00000000
00000000
,
00100000
00000000
00000000
00001000
00000000
00000000
00010000
00000000
00000100
00000000
00000000
00000000
00000010
00000000
00000000
00000000
,
00001001
00000011
00001000
00000101
,
00001000
00000000
00000110
00000000
00000001
00000010
00000100
00001000
,
00000100
00000000
00000000
00000001
00000000
00000000
00001000
00000000
00000010
00000000
00000000
00000000
00001000
00000000
00000000
00000000
,
00000100
00000000
00000000
00010000
00000000
00000000
00001000
00000000
00100000
00000000
00000000
00000000
01000000
00000000
00000000
00000000
,
10010000
11000000
00010000
10100000
,
00010000
00000000
01100000
00000000
10000000
01000000
00100000
00010000
,
10000000
00000000
00000000
10000000
00000000
00000000
10000000
00000000
00100000
00000000
00000000
00100000
00000000
00000000
00100000
00000000
,
10000000
00000000
00000000
00010000
00000000
00000000
10000000
00000000
00100000
00000000
00000000
00000000
10000000
00000000
00000000
00000000
,
01010000
00110000
00000000
00101000
,
00000000
00011000
00000000
00010100
,
00001000
00000000
00000000
00001000
00000000
00000000
00001000
00000000
00000010
00000000
00000000
00000010
00000000
00000000
00000010
00000000
,
00001000
00000000
00000000
00000001
00000000
00000000
00001000
00000000
00000010
00000000
00000000
00000000
00001000
00000000
00000000
00000000
,
00001010
00001100
00000000
00010100
,
00000000
00011000
00000000
00101000
,
20000000
00000000
00000000
00000000
,
30020000
00000000
00000000
00000000
,
00230000
00000000
00000000
00000000
,
00302000
00000000
00000000
00003100
,
00000001
00000001
00000001
00000001
,
00000010
00000010
00000010
00000010
,
00001000
00001000
00001000
00001000
,
00010000
00000000
01000000
00000000
10000000
00000000
00010000
10000000
,
00020000
00000000
00000000
00000000
,
00030000
00000000
00000000
00000000
;

//---------------dance-double - ----------------
#NOTEDATA:;
#CHARTNAME:;
#STEPSTYPE:dance-double;
#DESCRIPTION:;
#CHARTSTYLE:;
#DIFFICULTY:Hard;
#METER:11;
#RADARVALUES:0.593,0.635,0.295,0.057,0.205,399.000,31.000,6.000,0.000,0.000,0.000,0.000,0.000,0.593,0.635,0.295,0.057,0.205,399.000,31.000,6.000,0.000,0.000,0.000,0.000,0.000;
#CREDIT:;
#OFFSET:-5.576;
#BPMS:0.000=176.000,
48.000=179.050,
49.000=176.000,
111.000=164.778,
112.000=176.000
;
#STOPS:112.000=1.357
;
#DELAYS:;
#WARPS:;
#TIMESIGNATURES:0.000=4=4
;
#TICKCOUNTS:0.000=4
;
#COMBOS:0.000=1
;
#SPEEDS:0.000=1.000=0.000=0
;
#SCROLLS:0.000=1.000
;
#FAKES:;
#LABELS:0.000=Song Start
;
#NOTES:
00000000
01000000
00010000
01000000
00000000
00001000
00010000
00001000
,
00000000
00000100
00000001
00000100
00000100
00000010
00001000
00000100
,
00010000
00000000
00010000
01000000
00000000
01000000
10000000
00000000
,
10000000
00100000
10000000
00010000
01000000
00001000
00010000
00000100
,
00001000
00000000
00001000
00000001
00000000
00000001
00000100
00000000
,
00000010
00000000
00000010
00010000
00000000
00010000
00001000
00000000
,
00100000
00000000
00100000
00010000
00000000
00010000
01000000
00000000
,
00100000
00000000
00100000
00010000
00000000
00010000
00000010
00000000
,
00000000
00000010
00001000
00000010
00000000
00010000
00001000
00010000
,
00000000
00100000
10000000
00100000
00100000
01000000
00010000
00100000
,
00001000
00000000
00001000
00000010
00000000
00000010
00000001
00000000
,
00000001
00000100
00000001
00001000
00000010
00010000
00001000
00100000
,
00010000
00000000
00000000
00000000
10100000
00000000
00000000
00100000
00000000
00000000
00100000
00000000
00000000
00000000
10000000
00000000
,
01000000
00000000
00000000
00000000
00110000
00000000
00000000
00010000
00000000
00000000
00010000
00000000
00000000
00000000
00100000
00000000
,
00001000
00000000
00000000
00000000
00001100
00000000
00000000
00000100
00000000
00000000
00000100
00000000
00000000
00000000
00000001
00000000
,
00000010
00000000
00000000
00000000
00010100
00000000
00000000
00010000
00000000
00000000
00010000
00000000
00000000
00000000
00010000
00001000
,
00010000
01000000
10000000
00100000
00000000
01000000
00010000
00100000
,
00000000
00001000
00010000
00000100
00000010
00000001
00001000
00000100
,
00010000
00001000
00010000
00000100
00010000
00001000
00100000
00100000
,
01000000
00000000
10000000
00000000
01000000
00000000
00010000
00000000
00001000
00000000
00000010
00000000
00000001
00000000
00001000
00000010
,
00001000
00000000
00000000
00000000
00000101
00000000
00000000
00000100
00000000
00000000
00000100
00000000
00000000
00000000
00000001
00000000
,
00000010
00000000
00000000
00000000
00001100
00000000
00000000
00001000
00000000
00000000
00001000
00000000
00000000
00000000
00000100
00000000
,
00010000
00000000
00000000
00000000
00110000
00000000
00000000
00100000
00000000
00000000
00100000
00000000
00000000
00000000
10000000
00000000
,
01000000
00000000
00000000
00000000
00101000
00000000
00000000
00001000
00000000
00000000
00001000
00000000
00000000
00000000
00001000
00010000
,
00001000
00000010
00000001
00000100
00000000
00000010
00001000
00000100
,
00000000
00010000
00001000
00100000
01000000
10000000
00010000
00100000
,
00001000
00010000
00001000
00100000
00001000
00010000
00000100
00000100
,
00000010
00000000
00000001
00000000
00000010
00000000
00001000
00000000
00010000
00001000
00010000
00001000
00010000
00001000
00010000
00000000
,
00020000
00000000
00030000
00000000
00000000
00000000
10000000
00000000
00100000
00000000
00000000
01000000
00000000
00000000
00010000
00000000
,
00100000
00000000
00000000
00101000
00000000
00000000
00010100
00000000
,
00000000
00000000
00101000
00000000
00000000
00000000
00000000
00000000
00000100
00000000
00000000
00000010
00000000
00000000
00000001
00000000
,
00001000
00000000
00000000
00010010
00000000
00000000
01001000
00000000
,
00000000
00000000
00010010
00000000
00000000
00000000
00000000
00000000
01000000
00000000
00000000
00010000
00000000
00000000
10000000
00000000
,
01000000
00000000
00000000
01010000
00000000
00000000
00011000
00000000
,
00000000
00000000
01010000
00000000
00000000
00000000
00000000
00000000
00001000
00000000
00000000
00000100
00000000
00000000
00000001
00000000
,
00001000
00000000
00000000
01000000
00000000
00000000
10000000
00000000
00010000
00000000
00000000
00000000
00011000
00000000
00000000
00000000
,
00001000
00000000
00000000
00000100
00000000
00000000
00000010
00000000
00010000
00000000
00000000
00000000
00001000
00000000
00000000
00000000
,
00011000
00000000
00000000
00010100
00000000
00000000
00101000
00000000
,
00000000
00000000
00010100
00000000
00000000
00000000
00000000
00000000
00100000
00000000
00000000
01000000
00000000
00000000
10000000
00000000
,
00010000
00000000
00000000
01001000
00000000
00000000
00010010
00000000
,
00000000
00000000
01001000
00000000
00000000
00000000
00000000
00000000
00000010
00000000
00000000
00001000
00000000
00000000
00000001
00000000
,
00000010
00000000
00000000
00001010
00000000
00000000
00011000
00000000
,
00000000
00000000
00001010
00000000
00000000
00000000
00000000
00000000
00010000
00000000
00000000
00100000
00000000
00000000
10000000
00000000
,
00010000
00000000
00000000
00000010
00000000
00000000
00000001
00000000
00001000
00000000
00000000
00000000
00011000
00000000
00000000
00000000
,
00010000
00000000
00000000
00100000
00000000
00000000
01000000
00000000
10000000
00000000
00000000
00000000
00100000
00000000
00000000
00000000
,
10000000
00000000
00000000
01000000
00000000
00000000
00010000
00000000
01000000
00000000
00000000
00010000
00000000
00000000
00001000
00000000
,
00010000
00000000
00000000
00001000
00000000
00000000
00000100
00000000
00000001
00000000
00000000
00000000
00001100
00000000
00000000
00000000
,
00000001
00000010
00000100
00000001
00000100
00001000
00000001
00000100
,
00001000
00000001
00000010
00001000
00000001
00000100
00000001
00000010
,
00000001
00000000
00000000
00000010
00000000
00000000
00001000
00000000
00000010
00000000
00000000
00001000
00000000
00000000
00010000
00000000
,
00001000
00000000
00000000
00010000
00000000
00000000
00100000
00000000
10000000
00000000
00000000
00000000
00110000
00000000
00000000
00000000
,
10000000
01000000
00100000
10000000
00100000
00010000
10000000
00100000
,
00010000
10000000
01000000
00010000
10000000
00100000
10000000
01000000
,
10000000
00000000
00000000
00010000
00000000
00000000
01000000
00000000
00001000
00000000
00000000
00000100
00000000
00000000
00001000
00000000
,
00100000
00000000
00000000
00010000
00000000
00000000
00000010
00000000
00000001
00000000
00000000
00001000
00000000
00000000
00000100
00000000
,
00010000
00000010
00000100
00010000
01000000
00100000
00010000
00000100
,
00000010
00010000
00100000
01000000
00010000
00000100
00001000
00000010
,
00001000
00000000
00000000
00001000
00000000
00000000
00000010
00000000
00010000
00000000
00000000
00100000
00000000
00000000
00010000
00000000
,
00000100
00000000
00000000
00001000
00000000
00000000
01000000
00000000
10000000
00000000
00000000
00010000
00000000
00000000
00100000
00000000
,
00001000
01000000
00100000
00001000
00000010
00000100
00001000
00100000
,
01000000
00001000
00000100
00000010
00001000
00010000
00001000
00010000
,
00002000
00000000
00000000
00000000
,
00003200
00000000
00000000
00000001
00000000
00000000
00000000
00000000
,
00000320
00000000
00000000
00001000
00000000
00000000
00000100
00000000
00000000
00000000
00000000
00000000
00000000
00000000
00000000
00000000
,
00020030
00000000
00000000
00001000
00000000
00000000
01000000
00000000
00000000
00000000
00000000
00000000
00000000
00000000
00000000
00000000
,
01030000
10000000
01000000
10000000
01000000
10000000
01000000
10000000
,
00010000
01000000
00010000
01000000
00010000
01000000
00010000
01000000
,
00001000
00010000
00001000
00010000
00001000
00010000
00001000
00010000
,
00000100
00000000
00000010
00000000
00000100
00000000
00000010
00000000
00000100
00000000
00000010
00000000
00000001
00001000
00000001
00001000
,
00000002
00000000
00000000
00000000
,
00000000
00000003
00000000
00000000
;
