#TITLE:Starry Eyed (Jakwob Remix);
#SUBTITLE:;
#ARTIST:Ellie Goulding;
#TITLETRANSLIT:;
#SUBTITLETRANSLIT:;
#ARTISTTRANSLIT:;
#GENRE:Electro;
#CREDIT:;
#BANNER:Starry Eyed (Jakwob Remix).png;
#BACKGROUND:Starry Eyed (Jakwob Remix)-bg.png;
#LYRICSPATH:;
#CDTITLE:;
#MUSIC:Starry Eyed (Jakwob Remix).mp3;
#OFFSET:-0.036;
#SAMPLESTART:64.000;
#SAMPLELENGTH:15.000;
#SELECTABLE:YES;
#BPMS:0.000=150.000
;
#STOPS:
;
#BGCHANGES:-0.500=Starry Eyed (Jakwob Remix).avi=1.000=0=0=0=StretchNoLoop====,
99999=-nosongbg-=1.000=0=0=0 // don't automatically add -songbackground-
;
#KEYSOUNDS:;
#ATTACKS:;

//---------------dance-single - ----------------
#NOTES:
     dance-single:
     :
     Hard:
     13:
     0.707,0.677,0.659,0.197,0.223,478.000,77.000,23.000,0.000,0.000,0.000,0.707,0.677,0.659,0.197,0.223,478.000,77.000,23.000,0.000,0.000,0.000:
1000
0010
1010
1001
,
0001
0010
0001
0020
0000
0130
0001
0000
,
0101
1100
0101
1100
,
1000
0000
0010
1000
0000
0001
0001
0010
,
0100
0010
0110
0011
,
0002
0000
1000
0000
0013
0000
0000
0000
0110
0000
0000
1100
0000
0000
0100
0000
,
0001
0100
2000
0000
3010
0100
0001
0000
,
0001
1000
0000
1000
0010
0000
0110
0000
,
0100
0001
0010
0100
0110
0000
1100
0000
,
0100
1000
0010
0100
0001
0100
0010
0000
,
1000
0010
0110
0000
0101
0001
0010
0000
,
0100
1000
0010
0200
0000
1000
1000
1300
,
0100
0001
0010
0000
0110
0000
0011
0000
,
0020
0000
0100
0000
0032
0000
0000
0000
1000
0000
0000
0100
0000
0000
1003
0000
,
1000
0010
0200
0000
0310
1000
0100
0000
,
0110
0010
0000
0010
0001
0000
0000
0000
,
1001
0000
1010
0000
1001
0000
0011
0001
,
0100
0000
0101
0000
0011
0000
0110
0100
,
1000
0000
1001
0000
0101
0000
0110
0010
,
1000
0000
1100
0000
1001
0000
0011
0010
,
0100
0000
0110
0000
1001
0000
0011
0001
,
0100
0000
0110
0000
1010
0000
1001
0001
,
0100
0000
0101
0000
0011
0000
0110
0100
,
0010
0000
0011
0000
1001
0000
1010
1000
,
0100
0000
0000
0000
0010
0000
0000
0000
0010
0000
0000
0100
1000
0000
0001
0000
,
0100
0000
0000
0000
0011
0000
0000
0000
0100
0000
0000
0010
1000
0000
0100
0000
,
0001
0000
0000
0000
0110
0000
0000
0000
1001
0000
0000
1000
0010
0000
0100
0000
,
0010
0000
1000
0100
0001
0100
0010
0100
,
1000
0000
0000
0000
1010
0000
0000
0000
0110
0000
0000
0100
0001
0000
0010
0000
,
0100
0110
0000
0110
0000
0010
0001
0100
,
1000
0100
0001
0010
0100
0001
0100
1000
,
0010
0000
0100
0000
0001
0000
0001
0000
1000
0001
1000
0000
1001
0000
0000
0000
,
1000
0010
1000
0010
0100
0001
0100
0001
,
0010
0001
0010
0001
0010
0001
0010
0001
0100
0000
0001
0000
0100
0000
0001
0000
,
0100
0000
1000
0001
1001
0000
1010
0000
,
1000
1000
1000
1000
0100
0100
0100
0100
,
1000
0001
1000
0001
0010
0001
0010
0001
,
0010
0100
0010
0100
0010
0100
0010
0100
1000
0000
0100
0000
1000
0000
0100
0000
,
1000
0000
0001
1000
1001
0000
0011
0000
,
0001
0001
0001
0001
0100
0100
0100
0100
,
0100
0010
0001
0000
0011
0000
0001
1000
,
0100
0000
1100
0000
0101
0001
0001
0001
,
0200
0302
0023
0032
,
1003
0000
1010
0000
0101
0001
0010
0100
,
1000
0010
1000
0010
0100
0001
0100
0001
,
0010
0001
0010
0001
0010
0001
0010
0001
0100
0000
0001
0000
0100
0000
0001
0000
,
2000
3020
0230
0320
,
1030
0100
1000
0010
0100
0001
0100
0010
,
1000
0000
0001
0000
1001
0000
0011
0010
,
0100
0010
0100
1000
0010
0100
0010
0001
,
0010
0110
1001
1001
,
1000
0000
0001
0000
0010
0100
0010
0100
,
1000
0000
1010
0000
0101
0000
0001
0010
,
0002
0203
0320
0230
,
0301
1000
0100
1000
0010
0100
0010
0100
,
0001
1000
0100
0010
0001
1000
0001
1000
,
1001
1000
0010
0100
0110
0000
0101
0000
,
1001
1000
0100
2000
0000
3010
0001
0000
,
0010
0100
0101
0000
1001
0000
1100
0000
,
0100
0010
0001
0020
0000
0100
0100
0130
,
0010
0001
1000
0000
1010
0000
0101
0000
,
0001
0000
0010
0000
0002
0000
0000
0000
0100
0000
0000
0010
0000
0000
1003
0000
,
2000
0010
0100
0000
0100
0001
3010
0000
,
0010
1000
0000
1000
1001
0000
0000
0000
,
0100
0001
0000
0001
0010
0000
0010
0100
1000
0000
1000
0100
0010
0000
0100
0000
,
1000
0010
0000
0010
0100
0000
0100
0001
0010
0000
0010
0001
0100
0000
0010
0000
,
0000
1000
0000
1000
0001
0000
0010
0100
1000
0000
1000
0100
0010
0000
0001
0000
,
0000
0001
0000
0001
1000
0000
1000
0010
0100
0000
0100
0010
1000
0000
0100
0000
,
0010
0100
0000
0100
0010
0000
0010
0001
0100
0000
0100
0001
0010
0000
0100
0000
,
0100
0010
0000
0010
0100
0000
0100
1000
0010
0000
0010
1000
0100
0000
0010
0000
,
0000
0001
0000
0001
1000
0000
0010
0100
0001
0000
0001
0100
0010
0000
1000
0000
,
0000
1000
0000
1000
0001
0000
0001
0010
0100
0000
0100
0010
0001
0000
1000
0000
;

//---------------dance-single - ----------------
#NOTES:
     dance-single:
     :
     Easy:
     6:
     0.352,0.367,0.214,0.317,0.000,226.000,25.000,37.000,0.000,0.000,0.000,0.352,0.367,0.214,0.317,0.000,226.000,25.000,37.000,0.000,0.000,0.000:
1000
0000
1010
0000
,
0000
0000
1000
0001
,
0000
0010
0100
0000
,
0000
0000
0100
0010
,
0001
1000
1000
0000
,
0020
1030
2000
3001
,
0000
0020
0000
0031
,
0002
1003
1001
0000
,
1000
0000
1010
0000
,
1000
1000
1100
0000
,
0001
0000
0011
0000
,
0001
0001
0101
0000
,
1000
0000
1001
0000
,
0002
0013
0020
0130
,
0200
1300
2000
3010
,
0020
0130
0101
0000
,
0001
0001
0001
1000
,
0010
0010
0010
0100
,
0001
0001
0001
0010
,
0100
0100
0100
1000
,
0010
0010
0010
0100
,
0001
0001
0001
1000
,
0100
0100
0100
0010
,
0001
0001
0001
0100
,
0010
0010
1000
1000
,
0001
0001
0010
0010
,
0100
0100
1000
1000
,
0001
0001
0100
0100
,
0020
0000
2030
0000
,
3002
0000
0023
0000
,
0230
0000
2300
0000
,
3002
0000
0203
0301
,
0101
0001
0010
0100
,
1000
0100
0010
0001
,
2000
3000
2000
3000
2000
3000
2000
3000
,
0001
0010
0001
0010
,
0100
1000
0010
0100
,
0001
0010
0100
1000
,
0002
0003
0002
0003
0002
0003
0002
0003
,
1000
0010
1000
0010
,
0110
0100
0001
0000
,
0011
0010
0100
0000
,
0110
0100
1000
0000
,
1010
0010
0100
0000
,
0101
0001
1000
0000
,
1010
0010
0100
0000
,
1100
0001
0100
0000
,
0011
0001
0100
0000
,
0110
0010
1000
0000
,
1100
0100
0010
0000
,
0110
0010
0001
0000
,
0101
0100
0010
0000
,
2000
3000
0002
0003
2000
3000
0002
0003
,
0010
0001
0100
1000
,
0002
0003
2000
3000
0002
0003
2000
3000
,
0001
0010
1000
0100
,
0010
0010
0110
0000
,
0000
0000
1000
0100
,
0001
0100
1100
0000
,
0000
0000
1000
0010
,
0001
0010
1010
0000
,
2000
3001
0002
0103
,
0000
0002
0000
1003
,
2000
3100
1100
0000
,
0010
0000
0010
0000
,
0100
0000
0100
0000
,
1000
0000
1000
0000
,
0001
0000
0001
0000
,
1000
0010
1000
0000
,
0001
0010
0001
0000
,
1000
0100
1000
0000
,
0001
0100
0001
0000
;

//---------------dance-single - ----------------
#NOTES:
     dance-single:
     :
     Medium:
     10:
     0.586,0.492,0.522,0.171,0.004,398.000,61.000,20.000,0.000,0.000,0.000,0.586,0.492,0.522,0.171,0.004,398.000,61.000,20.000,0.000,0.000,0.000:
1000
0000
1010
0000
,
0001
0000
0010
0000
0001
0010
0001
0000
,
1000
0100
1100
0000
,
0001
0000
0000
0000
0100
0001
0100
0001
,
0100
0010
0110
0000
,
0000
0020
2030
3002
,
0013
0000
0110
0000
0000
0100
1000
0000
,
1000
0001
0000
0001
0100
0000
0000
0000
,
0110
1000
1100
0000
,
0110
0000
0001
1000
0000
1000
0001
0000
,
1000
0001
0110
0000
,
0100
0000
0100
1000
0000
1000
0010
0010
,
0100
0001
0101
0000
,
0002
0023
0230
2300
,
0000
0000
3020
0000
0000
0100
0130
0000
,
0100
0001
0000
0001
0010
0000
0000
0000
,
0110
1010
0101
0000
,
0011
1100
1001
0001
,
0011
1100
1010
0000
,
1010
0000
1001
0000
0100
0001
0100
0001
,
0100
0110
1010
1000
,
1100
0110
1010
0001
,
0011
1100
1010
1000
,
0101
1100
0101
0110
,
1000
0000
1000
0000
0001
1000
0100
0010
,
0001
0000
0001
0000
1000
0001
0100
0010
,
1000
0000
1000
0000
0010
0100
0001
1000
,
0100
0000
0100
0000
0001
0010
0001
1000
,
0100
1100
1000
1010
,
0100
0101
0001
0011
,
0010
0100
1000
0001
0100
0001
0010
0100
,
1000
0100
0001
0100
0010
0100
0110
0000
,
1000
0100
1000
0100
0010
0001
0010
0001
,
1000
0100
0010
0001
1000
0010
0100
0001
,
2000
3002
0023
0230
,
1300
0010
0100
0010
1000
0100
0010
0100
,
1000
0100
1000
0100
0010
0001
0010
0001
,
0001
0010
0100
1000
0001
0100
0010
1000
,
0002
2003
3020
0230
,
0301
0100
0010
0100
0001
0010
0100
0010
,
0001
1000
1001
1010
,
1000
0010
0100
0001
1000
0100
0010
0001
,
1000
0010
1010
0011
,
0001
0010
0100
1000
0001
0100
0010
1000
,
0010
0100
0110
0101
,
1000
0001
1000
0001
0010
0100
0010
0100
,
1000
0010
1010
1001
,
0001
1000
0001
1000
0100
0010
0100
0010
,
0001
1010
0101
1000
,
0010
1000
0010
1000
0100
0001
0100
0001
,
0100
0110
0011
1010
,
1000
0100
0001
0100
0010
0010
0010
0100
,
2000
0000
3002
0003
0101
0000
0011
0000
,
0100
1000
0010
1000
0100
0010
0001
1000
,
0010
1000
1010
0101
,
0001
0010
0100
1000
0001
1000
0100
0010
,
0100
0110
1001
1010
,
1000
0100
0010
0002
0000
1003
1000
0000
,
0010
1010
0011
0100
,
1000
0100
0010
0200
0000
0010
0010
0310
,
0100
1000
0001
0000
0101
0000
0011
0000
,
0001
0000
0100
0000
1000
0000
0000
0000
0100
0000
0000
0100
0000
0000
0010
0000
,
1000
0010
0100
0000
0100
0001
0010
0000
,
0010
0100
1000
0001
0100
0000
0000
0000
,
0001
1000
0001
1000
0100
1000
0100
1000
,
0001
1000
0001
1000
0010
1000
0010
1000
,
0010
0100
0010
0100
0001
0100
0001
0100
,
0010
0100
0010
0100
0001
0100
0001
0100
,
0001
1000
0001
1000
0001
0100
0001
0100
,
0001
1000
0001
1000
0001
0100
0001
0100
,
0010
1000
0010
1000
0100
1000
0100
1000
,
0010
1000
0010
1000
0100
1000
0100
1000
;

//---------------dance-single - Copied from----------------
#NOTES:
     dance-single:
     Copied from:
     Beginner:
     3:
     0.190,0.187,0.274,0.086,0.000,113.000,32.000,10.000,0.000,0.000,0.000,0.190,0.187,0.274,0.086,0.000,113.000,32.000,10.000,0.000,0.000,0.000: // measure 0
0000
0000
0000
0000
,  // measure 1
0000
0000
0000
0000
,  // measure 2
1000
0000
0000
0000
,  // measure 3
0001
0000
0100
0000
,  // measure 4
0010
0000
1000
0000
,  // measure 5
0100
0000
0101
0000
,  // measure 6
0100
0000
0110
0000
,  // measure 7
0010
0000
0000
0000
,  // measure 8
1000
0000
0100
0000
,  // measure 9
0100
0000
0001
0000
,  // measure 10
0100
0000
0100
0000
,  // measure 11
1000
0000
0010
0000
,  // measure 12
0000
0000
0101
0000
,  // measure 13
0000
0000
1010
0000
,  // measure 14
0000
0000
1100
0000
,  // measure 15
0000
0000
0011
0000
,  // measure 16
0100
0000
0010
0000
,  // measure 17
1000
0000
0001
0100
,  // measure 18
0000
0010
0100
0000
,  // measure 19
1000
0000
0100
0000
,  // measure 20
1000
0000
0010
0000
,  // measure 21
0000
0110
0000
0101
,  // measure 22
0001
0000
0100
0000
,  // measure 23
1000
0000
0100
0000
,  // measure 24
0001
0000
0000
0000
,  // measure 25
1000
0000
0000
0000
,  // measure 26
0001
0000
0000
0000
,  // measure 27
1000
0000
1000
1000
,  // measure 28
0001
0000
0010
0000
,  // measure 29
0100
0000
1000
0000
,  // measure 30
0001
0000
0001
0000
,  // measure 31
1000
1000
1000
1000
,  // measure 32
0001
0000
0000
0000
,  // measure 33
0110
0000
1010
0000
,  // measure 34
1001
0000
0000
0000
,  // measure 35
0101
0000
0110
0000
,  // measure 36
0011
0000
0000
0000
,  // measure 37
1100
0000
0110
0000
,  // measure 38
1001
0000
0000
0000
,  // measure 39
0101
0000
1010
0000
,  // measure 40
0110
0000
0000
0000
,  // measure 41
1001
0000
0101
0000
,  // measure 42
1010
0000
0000
0000
,  // measure 43
0110
0000
1001
0000
,  // measure 44
0101
0000
0000
0000
,  // measure 45
1100
0000
0101
0000
,  // measure 46
1001
0000
0000
0000
,  // measure 47
1010
0000
0011
0000
,  // measure 48
0100
0000
0000
0001
,  // measure 49
0100
0000
0100
0000
,  // measure 50
0010
0000
0010
0000
,  // measure 51
0100
0100
0100
0100
,  // measure 52
0001
0000
0000
0000
,  // measure 53
1000
0000
0100
0000
,  // measure 54
1000
0000
0010
0000
,  // measure 55
0100
0000
0001
0000
,  // measure 56
0020
0030
0001
0000
,  // measure 57
0200
0300
0010
0000
,  // measure 58
2000
3000
0100
0000
,  // measure 59
0002
0003
0100
0000
,  // measure 60
2000
3000
0010
0000
,  // measure 61
0200
0300
0001
0000
,  // measure 62
0020
0030
0001
0000
,  // measure 63
0200
0300
0010
0000
,  // measure 64
2002
0000
0000
0000
,  // measure 65
0000
0000
0000
0000
,  // measure 66
0000
0000
0000
0000
,  // measure 67
0000
0000
0000
0000
,  // measure 68
0000
0000
0000
0000
,  // measure 69
0000
0000
0000
0000
,  // measure 70
0000
0000
0000
0000
,  // measure 71
0000
0000
0000
0000
,  // measure 72
0000
0000
0000
3003
;
