#TITLE:Spring Pony;
#SUBTITLE:;
#ARTIST:S-C-U;
#TITLETRANSLIT:;
#SUBTITLETRANSLIT:;
#ARTISTTRANSLIT:;
#GENRE:Chiptune;
#CREDIT:;
#BANNER:Spring Pony.png;
#BACKGROUND:Spring Pony-bg.png;
#LYRICSPATH:Spring Pony.lrc;
#CDTITLE:;
#MUSIC:Spring Pony.mp3;
#OFFSET:-0.400;
#SAMPLESTART:64.380;
#SAMPLELENGTH:15.000;
#SELECTABLE:YES;
#BPMS:0.000=150.000
;
#STOPS:
;
#BGCHANGES:;
#KEYSOUNDS:;
#ATTACKS:;

//---------------dance-single - ----------------
#NOTES:
     dance-single:
     :
     Hard:
     12:
     0.583,0.537,0.189,0.027,0.364,430.000,21.000,3.000,0.000,0.000,0.000,0.583,0.537,0.189,0.027,0.364,430.000,21.000,3.000,0.000,0.000,0.000:
1000
0000
0000
0011
0000
0000
0000
0000
0000
0000
0000
0000
0000
0000
0000
0000
,
0001
0000
0000
1100
0000
0000
0000
0000
0000
0000
0000
0000
0000
0000
0000
0000
,
1000
0000
0000
0011
0000
0000
0000
0000
0001
0000
0000
1100
0000
0000
0000
0000
,
1000
0000
0100
0000
0010
0000
0000
0001
0000
0000
0100
0000
0010
0000
0100
0000
,
0000
0000
0001
0000
0000
0010
0000
0000
0001
0000
0000
0100
0000
0000
0001
0000
,
0000
0000
1000
0000
0000
0010
0000
0000
1000
0000
0000
0100
0000
0000
1000
0000
,
0100
0000
0000
0010
0000
0000
0100
0000
0000
0001
0000
0000
0100
0000
1000
0000
,
0010
0000
0000
0010
0000
0000
0010
0000
0100
0000
0010
0000
1000
0000
0001
0000
,
0000
0000
0010
0000
0000
0100
0000
0000
0010
0000
0000
1000
0000
0000
0010
0000
,
0000
0000
0100
0000
0000
0010
0000
0000
0100
0000
0000
0001
0000
0000
0100
0000
,
1000
0000
0000
0100
0000
0000
1000
0000
0000
0010
0000
0000
1000
0000
0001
0000
,
0010
0000
0000
0100
0000
0000
0010
0000
0100
0000
1000
0000
0010
0000
0100
0000
,
0001
0001
0001
0000
1000
0001
1000
0001
,
0100
0100
0100
0000
0010
1000
0010
1000
,
0100
0000
0000
0100
0000
0000
0110
0000
0000
0000
0010
0000
0000
0010
0000
0000
,
0110
0000
0010
0000
0010
0001
0100
0010
,
1000
0000
0000
0001
0000
0001
0000
0000
1000
0000
0100
0000
1000
0000
0000
0000
,
0010
0000
0000
0100
0000
0100
0000
0000
0001
0000
0100
0000
0010
0000
1000
0000
,
0001
0001
0001
0000
1000
0010
0100
0001
,
0010
0010
0010
0000
0100
1000
0010
1000
,
0100
0000
0000
0100
0000
0000
0110
0000
0000
0000
0010
0000
0000
0010
0000
0000
,
0110
0000
0100
0000
0100
1000
0010
0100
,
0001
0000
0000
1000
0000
1000
0000
0000
0100
0000
0010
0000
0100
0000
0000
0000
,
0010
0000
0000
0001
0000
0001
0000
0000
1000
0000
0001
0000
0100
0000
0010
0000
,
0000
1000
0010
0100
0001
0010
0100
0000
,
1000
0000
0000
0100
0000
0100
0000
0110
0000
0000
0000
0000
0010
0000
0000
0000
,
0001
0100
0010
1000
0100
0010
0100
0000
,
1100
0000
0000
0000
0110
0000
0000
0011
0000
0001
0000
0000
0100
0000
0010
0000
,
1000
0001
1000
0010
0100
1000
0100
0001
,
0010
0100
0010
0100
1000
0010
0001
0010
,
0100
0000
0000
0100
0000
0000
0110
0000
0000
0000
0010
0000
1000
0000
0001
0000
,
0010
0100
1000
0100
0010
0001
0100
0010
,
0000
0100
0010
1000
0100
0010
0001
0000
,
0001
0000
0000
0100
0000
0100
0000
0110
0000
0000
0010
0000
1000
0000
0000
0000
,
0100
0010
0001
0100
0010
1000
0001
0000
,
0010
0000
0000
0000
0110
0000
0000
1001
0000
1001
0000
0000
1000
0000
0000
0000
,
0100
0000
0000
0010
0000
0010
0000
0010
0000
0000
0100
1000
0100
0000
0000
0000
,
1000
0000
0000
0001
0000
0001
0000
0001
0000
0000
0100
0010
0100
0000
0000
0000
,
0010
1000
0000
0001
0000
0010
0000
0100
0000
1000
0000
0010
0100
0000
0002
0000
,
0000
0000
0000
0000
,
1003
0000
0001
0000
1000
0000
0000
0010
0000
0010
0000
0000
1000
0000
0001
0000
,
0010
0000
0100
0000
0010
0000
0000
0001
0000
0001
0000
0000
0100
0000
0010
0000
,
1000
0000
0001
0000
1000
0000
0000
0100
0000
0000
0010
0000
0001
0000
0100
0000
,
0010
0000
0000
0010
0000
0000
1010
0000
1000
0000
1000
0000
0001
0000
1000
0000
,
0001
0000
0010
0000
0001
0000
0000
0010
0000
0010
0000
0000
0100
0000
1000
0000
,
0010
0000
0001
0000
0010
0000
0000
0001
0000
0001
0000
0000
0010
0000
1000
0000
,
0100
0000
0010
0000
0001
0000
0000
1000
0000
0000
1000
0000
0100
0000
0010
0000
,
0100
0000
0000
0100
0000
0000
1100
0000
1000
0000
1000
0000
0001
0000
0010
0000
,
0100
1000
0100
1000
0001
0100
0001
0100
,
0010
1000
0010
1000
0001
0010
0001
0010
,
0100
1000
0010
0100
0001
0010
0100
0001
,
1000
0010
0001
0100
0010
1000
0001
0100
,
0001
0001
1000
0010
1000
0001
0010
0001
,
1000
1000
0001
0100
0001
1000
0100
1000
,
0001
1000
0010
1000
0001
0010
0001
1000
,
0100
0000
1000
0000
0001
0000
0100
0000
0010
0100
0010
0100
0010
0000
0100
0000
,
0220
0000
0000
0000
,
0000
0000
0000
0000
0330
0000
0000
0000
0100
0000
0001
0000
0100
0000
0000
0010
,
0000
0000
0100
0000
0001
0000
1000
0000
0100
0000
1000
0000
0100
0000
0000
0010
,
0000
0100
1000
0001
0010
0100
1000
0010
,
0100
0000
0001
0000
1000
0000
0001
0000
1000
0000
0100
0000
0010
0000
0000
0001
,
0000
0001
1000
0000
0010
0000
1000
0000
0100
0000
0010
0000
0100
0000
0000
1000
,
0000
0000
0100
0000
0010
0000
0100
0000
1000
0000
0010
0000
0100
0000
0000
0001
,
0000
0010
0100
0010
0100
1000
0001
0100
,
0001
0000
1000
0000
0100
0000
1000
0000
0001
0000
0010
0000
0001
0000
0000
1000
,
0000
1000
0010
0000
0100
0000
0010
0000
0100
0000
0001
0000
1000
0000
0001
1000
,
0000
0001
0000
1000
0001
0000
1001
0000
0000
0000
0000
0000
0000
0000
0000
0000
;

//---------------dance-single - ----------------
#NOTES:
     dance-single:
     :
     Beginner:
     4:
     0.155,0.147,0.081,0.027,0.000,109.000,9.000,3.000,0.000,0.000,0.000,0.155,0.147,0.081,0.027,0.000,109.000,9.000,3.000,0.000,0.000,0.000:
0010
0000
0000
0000
,
0010
0000
0000
0000
,
0010
0000
0010
0000
,
0100
0000
0100
0000
,
1000
0000
1000
0000
,
0100
0000
0100
0000
,
0010
0000
0001
0000
,
0010
0000
0001
0000
,
0010
0000
0010
0000
,
0001
0000
0001
0000
,
0100
0000
0010
0000
,
0100
0000
0010
0000
,
1000
0000
0000
0000
,
1001
0000
0000
0000
,
0001
0000
0000
0000
,
1001
0000
0000
0000
,
1000
0000
0010
0000
,
1000
0000
1000
0000
,
0010
0000
0000
0000
,
0110
0000
0000
0000
,
0100
0000
0000
0000
,
0110
0000
0000
0000
,
0100
0000
0001
0000
,
0100
0000
0100
0000
,
0000
0001
0000
0000
0000
0000
0000
0000
,
0101
0000
0000
0000
,
1000
0000
0000
0000
,
1100
0000
0000
0000
,
0100
0000
0100
0000
,
0100
0000
0100
0000
,
0010
0000
0020
0000
,
0000
0000
0000
0000
,
0030
0100
0000
0000
0000
0000
0000
0000
,
1100
0000
0000
0000
,
0010
0000
0000
0000
,
0011
0000
0000
0000
,
0001
0000
0001
0000
,
0001
0000
0001
0000
,
1000
0000
1000
0000
,
2000
0000
0000
0000
,
3100
0000
0100
0000
,
1000
0000
1000
0000
,
0001
0000
0001
0000
,
0100
0000
0100
0000
,
0010
0000
0010
0000
,
1000
0000
1000
0000
,
0001
0000
0001
0000
,
0010
0000
0010
0000
,
0100
0000
0100
0000
,
1000
0000
1000
0000
,
0010
0000
0010
0000
,
0001
0000
0001
0000
,
0100
0000
0100
0000
,
1000
0000
1000
0000
,
0010
0000
0010
0000
,
0001
0000
0001
0000
,
0200
0000
0000
0000
,
0000
0000
0310
0000
,
0010
0000
0010
0000
,
0010
0000
1000
0000
,
0001
0000
1000
0000
,
0001
0000
0100
0000
,
0100
0000
0100
0000
,
0100
0000
0001
0000
,
1000
0000
0001
0000
,
1000
0000
1001
0000
;

//---------------dance-single - ----------------
#NOTES:
     dance-single:
     :
     Easy:
     6:
     0.325,0.417,0.207,0.090,0.000,220.000,23.000,10.000,0.000,0.000,0.000,0.325,0.417,0.207,0.090,0.000,220.000,23.000,10.000,0.000,0.000,0.000:
1100
0000
0000
0000
,
0011
0000
0000
0000
,
0101
0000
1010
0000
,
1000
0100
0010
0001
,
0000
0100
0100
0100
,
0000
0010
0010
0010
,
1000
0010
0100
0001
,
1000
0100
0010
0001
,
0000
0100
0100
0100
,
0000
0010
0010
0010
,
1000
0010
0001
0010
,
1000
0100
0001
0100
,
1000
1000
0010
1000
,
0001
0001
0010
0001
,
0100
0000
0000
0100
0000
0100
0000
0000
,
0100
0000
0000
0010
,
2000
0000
0000
0000
,
3002
0000
1000
1003
,
0001
0100
0001
0001
,
1000
0100
1000
1000
,
0010
0000
0000
0010
0000
0010
0000
0000
,
0010
0000
0000
0100
,
0002
0000
0000
0000
,
2003
0000
0001
3001
,
0000
1000
0100
0010
,
0001
0001
0001
0000
,
0100
0001
0100
0010
,
1000
1000
1000
0000
,
1001
0001
0010
0100
,
0010
0100
1000
0010
,
0100
0000
0000
0200
0000
0000
0000
0000
,
0020
0000
0000
0330
,
0000
1000
0100
0010
,
0001
0001
0001
0000
,
0010
0001
0010
0100
,
1000
1000
1000
0000
,
1010
1000
0001
1000
,
1001
0001
0100
0001
,
0101
0110
1010
2002
,
0000
0000
0000
3003
,
1000
0100
0001
1000
,
0010
0100
1000
0001
,
0100
0100
0010
0100
,
0010
1000
0001
0010
,
0100
1000
0001
0010
,
0100
0001
1000
0010
,
0100
0100
1000
0100
,
0010
0010
0001
0010
,
0001
0100
1000
0100
,
0010
1000
0010
0001
,
1000
0100
0001
0100
,
0010
1000
0010
0001
,
1000
0100
0001
0100
,
1100
0100
0001
0100
,
1100
0100
0101
0100
,
1100
0101
1100
0101
,
2002
0000
0000
0000
,
0000
3003
0001
0010
,
0001
0100
1000
0010
,
1000
0100
0010
1000
,
0010
0001
0010
0100
,
0010
0100
0001
0100
,
0001
0010
1000
0100
,
1000
0010
0100
1000
,
0100
0001
0100
0010
,
0100
0010
0110
1001
,
0011
1100
0000
0000
;

//---------------dance-single - ----------------
#NOTES:
     dance-single:
     :
     Medium:
     10:
     0.467,0.477,0.108,0.054,0.198,346.000,12.000,6.000,0.000,0.000,0.000,0.467,0.477,0.108,0.054,0.198,346.000,12.000,6.000,0.000,0.000,0.000:
1000
0000
0000
1000
0000
0000
0000
0000
0000
0000
0000
0000
0000
0000
0000
0000
,
0001
0000
0000
0001
0000
0000
0000
0000
0000
0000
0000
0000
0000
0000
0000
0000
,
0010
0000
0000
0010
0000
0000
0000
0000
0100
0000
0000
0100
0000
0000
0000
0000
,
1000
0000
0100
0000
0010
0001
0010
0000
,
0000
0000
0001
0000
0000
1000
0000
0000
0001
0000
0000
0100
0000
0000
0001
0000
,
0000
0000
1000
0000
0000
0001
0000
0000
1000
0000
0000
0100
0000
0000
1000
0000
,
0010
0000
0000
0100
0000
0000
0010
0000
0000
0100
0000
0000
0001
0000
0100
0000
,
0010
0000
0000
1000
0000
0000
0010
0000
1000
0000
0100
0000
1000
0000
0000
0000
,
0000
0000
0001
0000
0000
1000
0000
0000
0001
0000
0000
0010
0000
0000
0001
0000
,
0000
0000
1000
0000
0000
0001
0000
0000
1000
0000
0000
0010
0000
0000
1000
0000
,
0100
0000
0000
1000
0000
0000
0100
0000
0000
0010
0000
0000
0001
0000
1000
0000
,
0001
0000
0000
0100
0000
0000
0010
0000
1000
0000
0001
0000
1000
0000
0000
0000
,
0100
0000
0100
0000
0010
0001
0010
0000
,
0100
0000
0100
0000
1000
0010
1000
0000
,
0001
0000
0000
0000
0000
0000
1001
0000
0000
0000
0110
0000
0000
0110
0000
0000
,
0110
0000
0000
0000
0000
0010
1000
0010
,
0200
0001
0001
0301
,
0002
1000
1000
1003
,
1000
0000
0100
0000
0010
0010
0010
0000
,
0001
0000
0100
0000
0010
0010
0010
0000
,
1000
0000
0000
0000
0000
0000
1001
0000
0000
0000
0110
0000
0000
0110
0000
0000
,
0110
0000
0000
0000
0000
0010
1000
0100
,
2000
0010
0010
3010
,
0200
0001
0001
0301
,
0000
0100
0010
1000
0100
0010
0001
0000
,
1000
0001
1000
0000
,
0001
0100
0010
1000
0100
0010
0100
0000
,
0000
0000
0000
0000
0110
0000
0000
0010
0000
0100
0000
0000
0010
0000
0000
0000
,
0100
0000
1000
0000
0100
0001
0100
0000
,
1000
0000
0010
0000
0001
0010
0001
0000
,
0010
0000
0000
0010
0000
0000
0010
0000
0000
0000
1000
0000
0100
0000
0000
0000
,
0010
0001
0010
0001
0100
0001
0100
0000
,
0000
0010
1000
0100
0010
0001
0100
0000
,
0010
0000
0010
0000
1000
0001
1000
0000
,
1000
0100
1000
0001
0100
0001
1000
0000
,
0000
0000
0000
0000
0110
0000
0000
0010
0000
0100
0000
0000
0010
0000
0000
0000
,
0100
0000
0000
1000
0000
0000
0000
0100
0000
0000
0000
0000
0010
0000
0000
0000
,
0001
0000
0000
0100
0000
0000
0000
0001
0000
0000
0000
0000
0100
0000
0000
0000
,
0010
0000
0000
1000
0000
0001
0000
1000
0000
0001
0000
0000
0010
0000
0020
0000
,
0000
0000
0000
0000
,
0130
0010
0100
0000
1000
0100
1000
0000
,
0100
0010
0100
0000
0001
0100
0001
0000
,
0100
1000
0010
0000
0100
0001
0010
0000
,
0100
0000
0000
0100
0000
0000
0100
0000
1000
0000
0000
0000
1001
0000
0000
0000
,
0010
0100
0010
0000
0001
0010
0001
0000
,
0010
0100
0010
0000
1000
0010
1000
0000
,
0010
0100
0010
0100
0010
1000
0001
0000
,
1000
0000
0000
1000
0000
0000
1000
0000
0100
0000
0010
0000
0100
0000
0000
0000
,
1000
0100
0001
0000
0001
0100
1000
0000
,
1000
0010
0001
0000
0001
0010
1000
0000
,
1000
0100
0001
0000
1000
0010
0001
0000
,
0100
0010
1000
0000
0100
0010
0001
0000
,
0100
1000
0100
0000
0100
0001
0100
0000
,
0010
1000
0010
0000
0010
0001
0010
0000
,
0100
1000
0100
0001
0100
0001
0100
1000
,
0100
0001
0100
0001
0100
0010
1000
0001
,
0020
0000
0000
0000
,
0000
0000
0000
0000
0000
0000
0000
0000
0130
0000
0010
0000
0100
0000
0000
1000
,
0000
0000
0100
0000
0010
0000
0001
0000
0100
0000
0010
0000
0100
0000
0000
0001
,
0000
0000
0100
0000
0010
0000
1000
0000
0001
0000
0000
0001
0000
0000
1000
0000
,
0000
1000
0000
0000
0100
0000
0010
0000
0100
0000
0010
0000
0001
0000
0000
0100
,
0000
0010
1000
0000
0001
0100
0001
0000
,
0100
0010
0100
0000
0010
1000
0010
0000
,
1000
0000
0100
0000
1000
0000
0000
0000
0100
0000
0000
0100
0000
0000
0010
0000
,
0000
0010
0000
0000
0100
0000
1000
0000
0001
0000
0010
0000
0100
0000
0000
0000
,
0100
0000
1000
0000
0010
0000
0000
0000
0100
0000
0100
0000
0100
0000
0000
0010
,
0000
0010
0000
0000
0010
0000
0110
0000
0000
0000
0000
0000
0000
0000
0000
0000
;

//---------------dance-single - ----------------
#NOTES:
     dance-single:
     :
     Challenge:
     17:
     0.898,0.864,0.332,0.018,1.000,661.000,37.000,2.000,0.000,0.000,2.000,0.898,0.864,0.332,0.018,1.000,661.000,37.000,2.000,0.000,0.000,2.000: // measure 0
1000
0100
1000
0001
0000
0000
0000
0000
0000
0000
0000
0000
0000
0000
0000
0000
,  // measure 1
0001
0100
0001
1000
0000
0000
0000
0000
0000
0000
0000
0000
0000
0000
0000
0000
,  // measure 2
1000
0010
1000
0001
0000
0000
0000
0000
0001
0010
0001
1000
0000
0000
0000
0000
,  // measure 3
0100
0010
0100
0000
1000
0000
0100
0010
0000
0001
0010
0001
0100
0010
1000
0001
,  // measure 4
1000
0000
1000
0000
0001
0010
0000
0001
1000
0000
0001
0100
0000
0100
0010
0000
,  // measure 5
1000
0000
0001
0000
1000
0010
0000
1000
0001
0000
1000
0100
0000
0100
0010
0000
,  // measure 6
0001
0000
0010
0100
0000
0010
1000
0000
0010
0100
0000
0100
1000
0000
0010
0000
,  // measure 7
0100
0000
0001
0100
0000
0100
0010
0000
1010
0000
0100
0000
0001
0000
0100
0000
,  // measure 8
0001
0000
1000
0000
0001
0010
0000
0001
1000
0000
0001
0100
0000
0100
0010
0000
,  // measure 9
1000
0000
0001
0000
1000
0010
0000
1000
0001
0000
1000
0100
0000
0100
0010
0000
,  // measure 10
0001
0000
0010
0100
0000
0100
0001
0000
1000
0010
0000
0010
0001
0000
0100
0000
,  // measure 11
0010
0000
1000
0001
0000
0001
0010
0000
0100
1000
0100
1000
0001
0010
0001
0010
,  // measure 12
0100
0000
1000
0000
0010
0000
0100
0001
0000
0001
0100
1000
0100
0010
1000
0000
,  // measure 13
0100
0000
0010
0000
0001
0000
1000
0010
0000
0100
0010
1000
0100
0001
0100
0000
,  // measure 14
1100
0000
0000
0101
0000
0000
1100
0000
0000
0000
1010
0000
0000
0011
0000
0000
,  // measure 15
1010
0000
1001
0000
0011
0010
0100
0010
,  // measure 16
0100
0000
1000
0100
0000
0010
0000
0100
1000
0000
0010
0000
0100
0001
0000
0001
,  // measure 17
0010
0000
0100
0010
0000
0001
0000
0010
0100
1000
0010
0100
0001
0010
0100
1000
,  // measure 18
0001
0000
1000
0000
0100
0000
1000
0001
0000
0001
0100
1000
0001
0010
0100
0000
,  // measure 19
0010
0000
1000
0000
0100
0000
0010
0001
0000
1000
0001
0100
1000
0100
0010
0000
,  // measure 20
1010
0000
0000
0011
0000
0000
1010
0000
0000
0000
1100
0000
0000
0101
0000
0000
,  // measure 21
1100
0000
1001
0000
0001
0010
0001
0100
,  // measure 22
0010
0000
1000
0010
0000
0100
0000
0010
1000
0000
0001
0000
0010
0100
0000
0010
,  // measure 23
0001
0000
0100
0010
0000
1000
0000
0010
0100
0001
0100
0001
1000
0010
1000
0010
,  // measure 24
0000
0000
1000
0001
1000
0001
1000
0000
0010
0100
0010
0100
0010
0000
1000
0010
,  // measure 25
1000
0000
0001
1000
0000
0001
0000
0010
0000
0100
1000
0010
0100
0000
0001
0100
,  // measure 26
0010
0100
0010
0100
0010
0000
1000
0001
1000
0001
1000
0000
0100
0010
0001
0100
,  // measure 27
0010
0000
1000
0000
0010
1000
0000
0001
0000
0010
0001
0100
0010
0000
1000
0010
,  // measure 28
1000
0000
0100
0000
0010
0000
0100
1000
0000
1000
0001
0000
0100
0000
0010
1000
,  // measure 29
0001
0000
0010
0000
0100
0000
0010
0001
0000
0001
0100
0000
0010
0000
1000
0000
,  // measure 30
1010
0000
0000
0011
0000
0000
1010
0000
0000
1000
0100
0010
0001
1000
0001
0100
,  // measure 31
0010
1000
0100
0010
0100
1000
0010
0100
0001
0010
0100
0010
0001
0100
0010
1000
,  // measure 32
0000
0000
0001
1000
0001
1000
0001
0000
0010
0100
0010
0100
0010
0000
0100
1000
,  // measure 33
0010
0000
0100
0001
0000
1000
0000
0001
0000
1000
0100
0010
0001
0000
0100
0001
,  // measure 34
0010
0100
0010
0100
0010
0000
0001
1000
0001
1000
0001
0000
1000
0100
1000
0010
,  // measure 35
0100
0000
0001
0000
0100
0010
0000
1000
0000
0010
1000
0001
0010
0000
0100
1000
,  // measure 36
0100
0100
0000
0010
0000
0010
0000
0110
0000
0100
1000
0010
0100
0000
0100
0001
,  // measure 37
0010
0010
0000
0100
0000
0100
0000
0110
0000
1000
0100
0010
0001
0000
0100
0010
,  // measure 38
1000
0001
0000
1001
0000
1010
0000
1001
0000
0011
0000
0010
0100
0000
2200
0000
,  // measure 39
0000
0000
0000
0000
0000
0000
0000
3300
,  // measure 40
0100
0000
0010
0000
0001
0000
1000
0010
0000
0100
0000
0001
1000
0000
0100
0000
,  // measure 41
0010
0000
0001
0000
1000
0000
0010
1000
0000
0001
0000
1000
0010
0000
0100
0000
,  // measure 42
0010
0000
0010
0000
1000
0001
0000
0010
0000
0001
1000
0000
0100
0000
0010
0001
,  // measure 43
0100
0000
0000
0010
0000
0000
1000
0000
0001
0000
0010
0000
0100
0000
0010
0000
,  // measure 44
0110
0000
0100
0000
1000
0000
0001
0100
0000
0010
0000
0100
0010
0000
1000
0000
,  // measure 45
0010
0000
1000
0000
0100
0000
1000
0100
0000
1000
0000
0100
0010
0000
0100
0000
,  // measure 46
0010
0000
0001
0000
0100
1000
0000
0100
0000
0010
1000
0000
0100
0000
0010
0001
,  // measure 47
0100
0000
0000
0100
0000
0000
0010
0000
1000
0000
0100
0000
0010
0000
0001
0000
,  // measure 48
1001
0000
1000
0010
0100
0000
0001
0000
1000
0000
0100
0000
1000
0000
0001
0000
,  // measure 49
0100
0000
0010
1000
0100
0000
0010
0000
0001
0000
0100
0000
0001
0000
1000
0000
,  // measure 50
1100
0000
0100
0010
0001
0000
0100
0000
0010
0000
1000
0000
0001
0000
0010
0000
,  // measure 51
0100
0000
1000
0010
0001
0000
0010
0000
0100
0000
0001
0000
0010
0000
0100
0000
,  // measure 52
1100
0000
0100
0010
0100
0000
1000
0000
0010
0000
0100
0001
0010
0000
0001
0000
,  // measure 53
0011
0000
0001
0010
0100
0000
0010
0000
0001
0000
1000
0010
1000
0000
0010
0000
,  // measure 54
1010
0000
1000
0001
1000
0000
0001
0000
0010
0001
0010
0000
0100
0000
0010
0100
,  // measure 55
0010
0000
0100
0000
1000
0100
1000
0000
1000
0100
0010
0001
0100
0000
0010
0000
,  // measure 56
0440
0000
0000
0000
,  // measure 57
0000
0000
0000
0000
0330
0000
0000
0000
0010
0000
1000
0010
1000
0000
0010
0100
,  // measure 58
0000
0010
0100
0001
0010
0100
1000
0001
0100
0000
0001
0100
0001
0000
0100
0010
,  // measure 59
0000
0010
1000
0001
0010
0100
1000
0010
0100
0010
0100
0001
0000
0001
0100
0010
,  // measure 60
0100
1000
0000
1000
0100
0010
0100
0001
0010
0100
1000
0100
1000
0000
0100
0010
,  // measure 61
0000
0010
0100
1000
0001
0100
0010
1000
0100
0000
0010
0001
1000
0000
0010
0100
,  // measure 62
0000
0100
0010
1000
0001
0010
0001
1000
0010
0000
1000
0010
0100
0000
0100
0001
,  // measure 63
0000
0100
0010
1000
0001
0010
0001
1000
0010
0100
0010
0001
0000
0001
0010
0100
,  // measure 64
0010
1000
0000
1000
0010
0100
0010
0001
0010
1000
0100
0010
0001
0000
1000
0001
,  // measure 65
0000
0001
1000
0010
0100
0010
0100
0001
1000
0000
1100
0000
1100
0000
0100
0010
,  // measure 66
0000
0011
0000
0001
0100
0000
0110
0000
0000
0000
0000
0000
0000
0000
0000
0000
;
