#TITLE:Spin That Record Vinyl Scratch;
#SUBTITLE:;
#ARTIST:KeepOnRockin';
#TITLETRANSLIT:;
#SUBTITLETRANSLIT:;
#ARTISTTRANSLIT:;
#GENRE:Techno;
#CREDIT:;
#BANNER:Spin That Record Vinyl Scratch.png;
#BACKGROUND:Spin That Record Vinyl Scratch-bg.png;
#LYRICSPATH:;
#CDTITLE:;
#MUSIC:Spin That Record Vinyl Scratch.ogg;
#OFFSET:-14.168;
#SAMPLESTART:38.780;
#SAMPLELENGTH:15.000;
#SELECTABLE:YES;
#BPMS:0.000=156.000
;
#STOPS:175.750=1.538
;
#BGCHANGES:;
#KEYSOUNDS:;
#ATTACKS:;

//---------------dance-single - ----------------
#NOTES:
     dance-single:
     :
     Hard:
     10:
     0.410,0.413,0.142,0.117,0.029,313.000,17.000,14.000,0.000,0.000,0.000,0.410,0.413,0.142,0.117,0.029,313.000,17.000,14.000,0.000,0.000,0.000:
1000
0010
0100
0001
,
0100
0010
1000
0001
,
0010
0100
0001
0100
,
1000
0001
0100
1000
,
0100
0010
1000
0100
,
0010
0001
1000
0010
,
0100
1000
0100
0010
,
1000
0001
0010
0100
,
1000
0100
0010
0100
1000
0001
0100
0010
,
1000
0001
0010
0100
0010
0000
0001
0000
,
0100
0010
0100
0001
0010
0100
0001
0100
,
1000
0001
0100
1000
0100
0001
0010
0100
,
1000
0000
0001
0100
0010
0000
0100
0000
,
0001
0010
0100
1000
0000
0001
0000
0100
,
0010
1000
0001
0010
0100
1000
0100
0010
,
0001
1000
0010
0100
0110
0000
1001
0000
,
1000
0010
0100
1000
,
0100
0000
0010
1000
0001
0000
0010
0100
,
0001
0100
0010
0001
,
0010
0000
0000
0000
0100
0000
1000
0000
0100
0001
0100
0000
0010
0000
0001
0000
,
0101
1010
1100
1001
,
0110
0000
1000
0010
0100
0000
0001
0010
,
0100
0010
0001
0100
,
0010
0000
1000
0001
0010
0100
1000
0001
,
0000
0000
0010
0100
0001
0000
0100
0000
,
0010
0001
0100
0010
,
1000
0100
1000
0010
,
0100
0000
1000
0000
0100
0010
1000
0001
,
0010
0100
1000
0100
,
0010
0000
0001
0100
0010
0000
0100
0001
,
0010
0100
1000
0001
,
0100
0000
0010
1000
0001
1000
0010
0100
,
0001
0100
1000
0100
0001
1000
0100
0001
,
0100
1000
0001
0100
0010
0000
1000
0000
,
0001
0010
0100
0001
0100
0000
1000
0000
,
0010
0000
0100
0000
0001
0000
0100
0000
0010
1000
0001
0000
1000
0000
0010
0000
,
0100
0000
0001
0010
0100
0000
1000
0000
,
0001
0010
0100
0020
0000
0032
0000
0103
,
0010
1000
0100
0001
0100
1000
0010
0100
,
0001
0010
1000
0010
0001
0000
1001
0000
,
0220
0000
0000
0000
,
0330
0010
0000
0000
0220
0000
0330
0000
,
0000
1000
0000
0000
0001
0100
0010
0000
,
0000
1000
0000
0000
2002
0000
0000
3003
,
0010
0100
0001
0000
0100
0000
0010
0000
,
0001
0000
0100
0000
0010
0000
0000
0000
0100
0000
0000
1000
0000
0000
0100
0000
,
0001
0010
1000
0000
0010
0000
0001
0000
,
0100
0010
1000
0000
2002
0000
3003
0000
,
1000
0010
0100
0000
0010
0000
1000
0000
,
0001
0000
0010
0000
0100
0000
0000
0000
0010
0000
0000
0001
0000
0000
0010
0000
,
0100
1000
0001
0000
0100
0000
0010
0000
,
0100
0000
0001
0000
0010
0100
0010
0100
0020
0000
0000
0000
0030
0000
0000
0000
,
0002
0000
0000
0000
,
0103
1000
0100
0000
0001
0000
0010
0000
,
0100
1000
0100
0000
0010
0000
0001
0000
,
1000
0010
0100
0000
0101
0000
0110
0000
,
0010
1000
0100
0000
0010
0000
0100
0000
,
1000
0000
0001
0000
0100
0000
0000
0000
0010
0000
0000
1000
0000
0000
0100
0000
,
0001
0100
1000
0000
0010
0000
0100
0000
,
0001
0100
1000
0000
1100
0000
0110
0000
,
2002
0000
0000
0000
,
0000
0000
0000
0000
,
3003
0000
0000
0000
;

//---------------dance-single - ----------------
#NOTES:
     dance-single:
     :
     Beginner:
     2:
     0.113,0.125,0.017,0.050,0.000,87.000,2.000,6.000,0.000,0.000,0.000,0.113,0.125,0.017,0.050,0.000,87.000,2.000,6.000,0.000,0.000,0.000: // measure 0
1000
0000
0000
0000
,  // measure 1
0001
0000
0000
0000
,  // measure 2
0100
0000
0000
0000
,  // measure 3
0010
0000
0000
0000
,  // measure 4
0100
0000
0000
0000
,  // measure 5
0001
0000
0000
0000
,  // measure 6
1000
0000
0000
0000
,  // measure 7
0010
0000
0000
0000
,  // measure 8
0100
0000
0000
0000
,  // measure 9
0010
0000
0000
0000
,  // measure 10
0100
0000
0010
0000
,  // measure 11
0100
0000
0000
0000
,  // measure 12
0001
0000
0000
0000
,  // measure 13
1000
0000
0000
0000
,  // measure 14
0001
0000
1000
0000
,  // measure 15
0001
0000
0000
0000
,  // measure 16
1000
0000
1000
0000
,  // measure 17
1000
0000
0000
0000
,  // measure 18
0010
0000
0010
0000
,  // measure 19
0010
0000
0000
0000
,  // measure 20
0100
0000
0100
0000
,  // measure 21
0100
0000
0000
0000
,  // measure 22
0001
0000
0001
0000
,  // measure 23
0001
0000
0000
0000
,  // measure 24
0000
0010
0010
0000
,  // measure 25
0010
0000
0010
0000
,  // measure 26
0000
0000
0001
0000
,  // measure 27
0001
0000
0001
0000
,  // measure 28
0000
0000
0100
0000
,  // measure 29
0100
0000
0100
0000
,  // measure 30
0000
0000
0010
0000
,  // measure 31
0010
0000
0010
0000
,  // measure 32
0010
0000
0000
0000
,  // measure 33
1000
0000
0000
0000
,  // measure 34
0100
0000
0000
0000
,  // measure 35
0001
0000
0000
0000
,  // measure 36
0100
0000
0000
0000
,  // measure 37
1000
0000
0000
0000
,  // measure 38
0010
0000
0000
0000
,  // measure 39
0100
0000
0000
0000
,  // measure 40
2002
0000
0000
0000
,  // measure 41
3003
0000
1000
0000
,  // measure 42
0000
0000
0000
0000
0000
0001
0000
0000
,  // measure 43
0000
0000
0100
0000
,  // measure 44
0010
0000
0010
0000
,  // measure 45
0010
0000
0010
0000
,  // measure 46
0100
0000
0100
0000
,  // measure 47
0100
0000
0200
0300
,  // measure 48
0001
0000
0001
0000
,  // measure 49
0001
0000
0001
0000
,  // measure 50
1000
0000
1000
0000
,  // measure 51
1000
0000
2000
3000
,  // measure 52
0010
0000
0000
0000
,  // measure 53
0100
0000
0100
0000
,  // measure 54
0001
0000
0001
0000
,  // measure 55
1000
0000
2000
3000
,  // measure 56
0001
0000
0010
0000
,  // measure 57
0100
0000
1000
0000
,  // measure 58
0100
0000
0010
0000
,  // measure 59
0001
0000
2000
3000
,  // measure 60
1001
0000
0000
0000
;

//---------------dance-single - ----------------
#NOTES:
     dance-single:
     :
     Easy:
     5:
     0.245,0.200,0.017,0.067,0.000,196.000,2.000,8.000,0.000,0.000,0.000,0.245,0.200,0.017,0.067,0.000,196.000,2.000,8.000,0.000,0.000,0.000:
1000
0000
1000
0000
,
0010
0000
0010
0000
,
0001
0000
0001
0000
,
0010
0000
0010
0000
,
0100
0000
0100
0000
,
0001
0000
0001
0000
,
0100
0000
0100
0000
,
1000
0000
1000
0000
,
0100
0010
1000
0000
,
0001
0010
0100
0000
,
1000
0010
0100
0000
,
0001
0010
0100
0000
,
1000
0010
0100
0000
,
1000
0100
0001
0000
,
0010
0100
0001
0000
,
0100
1000
0001
0000
,
1000
0001
1000
0001
,
1000
0010
0100
0001
,
0010
0100
0010
0100
,
0010
0001
0100
1000
,
0100
0001
0100
0001
,
1000
0010
0100
0001
,
1000
0010
1000
0010
,
2000
0000
3001
0000
,
0000
0010
0010
0001
,
0100
1000
0100
0001
,
0010
0010
0001
0001
,
1000
0100
1000
0001
,
0100
0100
0010
0010
,
1000
0001
0010
0001
,
1000
1000
0010
0010
,
0100
0001
0010
0100
,
2000
0000
0000
0000
,
3001
0001
0100
0100
,
0010
1000
0100
0100
,
1000
0001
0100
0100
,
0010
1000
0100
1000
,
0010
0100
0001
0100
,
0010
1000
0001
0010
,
0100
1000
0010
0100
,
2002
0000
0000
3003
,
0000
1000
0000
0000
1000
0000
0000
0000
,
0000
0001
0000
0000
0000
0001
0000
0000
,
0000
0100
0000
0000
0100
0000
0000
0000
,
0010
1000
0010
1000
,
0001
0100
0001
0100
,
0001
0010
0001
0010
,
0100
0001
0200
0000
,
1300
0100
1000
0100
,
0010
0001
0010
0001
,
0100
0010
0100
0010
,
1000
0100
2000
0000
,
3002
0000
0000
0000
,
0103
0010
0100
0010
,
1000
0010
1000
0010
,
1000
0001
2000
0000
,
3001
0010
0100
0001
,
0100
1000
0001
0100
,
1000
0100
0010
1000
,
0001
0010
0100
1000
,
1001
0000
0000
0000
;

//---------------dance-single - ----------------
#NOTES:
     dance-single:
     :
     Medium:
     7:
     0.305,0.356,0.075,0.050,0.000,241.000,9.000,6.000,0.000,0.000,0.000,0.305,0.356,0.075,0.050,0.000,241.000,9.000,6.000,0.000,0.000,0.000:
1000
1000
0010
0010
,
0100
0100
0001
0001
,
1000
1000
0100
0100
,
0001
0001
0100
0100
,
1000
1000
0010
0010
,
0100
0100
0001
0001
,
0010
0010
0100
0100
,
1000
1000
0002
0000
,
0103
0001
0100
0001
,
1000
0010
1000
0010
,
1000
0100
1000
0100
,
0010
0001
0010
0001
,
1000
0100
0001
0100
,
1000
0010
0001
0010
,
0100
0001
0010
0100
,
1000
0010
0100
0001
,
0101
0101
1100
1100
,
1000
0000
0010
0100
0001
0000
0100
0010
,
1000
1000
0001
0001
,
0010
0000
0100
1000
0001
0000
0100
0000
,
0010
0010
0100
0100
,
0001
0000
1000
0100
0010
0000
0100
1000
,
0001
0100
0010
1000
,
0001
0000
0010
0000
0100
1000
0001
0000
,
0000
0000
0100
0100
0100
0000
0010
0000
,
0100
0000
0001
0010
0100
0000
1000
0001
,
0100
0010
1000
0001
,
0010
0000
0100
0000
1000
0001
0100
0000
,
0010
0100
0001
0010
,
0100
0000
0001
0100
1000
0000
0001
0100
,
1000
0100
0010
1000
,
0001
0010
0100
1000
,
0010
0010
0100
0100
,
0001
0001
1000
1000
,
0001
0001
0010
0010
,
0100
0000
0100
0000
1000
0001
1000
0000
,
0010
0010
0100
0100
,
0001
0001
1000
1000
,
0100
0010
0100
1000
,
0001
0100
0010
1000
,
0002
0000
0000
0000
,
0003
1000
0000
0000
1000
0000
0000
0000
,
0000
0010
0000
0000
0010
0100
0000
0000
,
0000
0001
0000
0000
0001
0000
0000
0000
,
0010
0001
0100
0010
,
0100
0001
1000
0000
,
0100
1000
0010
0100
,
0001
1000
0001
0000
1001
0000
0000
0000
,
0010
0100
0001
0100
,
0010
1000
0001
0010
,
0100
0001
0100
1000
,
0010
0100
0001
0000
1001
0000
0000
0000
,
0020
0000
0000
0000
,
1030
0100
1000
0001
,
0100
0010
0100
0001
,
0010
0100
0001
0000
0200
0000
0000
0000
,
0310
0001
0100
1000
,
0100
0001
1000
0100
,
0010
0100
1000
0001
,
0100
0010
0100
0000
1001
0000
0110
0000
,
2002
0000
0000
0000
,
3003
0000
0000
0000
;
