#TITLE:Smile Smile Smile!;
#SUBTITLE:;
#ARTIST:♪♪♪♪♪;
#TITLETRANSLIT:;
#SUBTITLETRANSLIT:;
#ARTISTTRANSLIT:;
#GENRE:;
#CREDIT:;
#BANNER:Smile Smile Smile!.png;
#BACKGROUND:Smile Smile Smile!-bg.png;
#LYRICSPATH:;
#CDTITLE:;
#MUSIC:Smile Smile Smile!.mp3;
#OFFSET:-0.079;
#SAMPLESTART:30.500;
#SAMPLELENGTH:15.000;
#SELECTABLE:YES;
#BPMS:0.000=156.038
,1.000=156.030
,94.000=156.038
,95.000=156.030
,96.000=156.021
,97.000=156.038
,98.000=156.030
,130.000=153.863
,131.000=156.208
,132.000=156.199
,136.000=160.000
,148.000=159.002
,152.000=158.993
,153.000=159.002
,156.000=158.993
,157.000=159.002
,164.000=158.993
,165.000=159.002
,168.000=158.993
,169.000=159.002
,173.000=158.993
,174.000=159.002
,178.000=158.993
,179.000=159.002
,183.000=158.993
,184.000=159.002
,188.000=158.993
,189.000=159.002
,192.000=158.993
,193.000=159.002
,197.000=158.993
,198.000=159.002
,202.000=158.993
,203.000=159.002
,207.000=158.993
,208.000=159.002
,212.000=158.993
,213.000=159.002
,216.000=158.993
,217.000=159.002
,221.000=158.993
,222.000=159.002
,226.000=158.993
,227.000=159.002
,230.000=158.993
,231.000=159.002
,235.000=158.993
,236.000=159.002
,240.000=158.993
,241.000=159.002
,245.000=158.993
,246.000=159.002
,249.000=158.993
,250.000=159.002
,254.000=158.993
,255.000=159.002
,259.000=158.993
;
#STOPS:
;
#BGCHANGES:-0.500=Smile Smile Smile!.avi=1.000=0=0=0=StretchNoLoop====,
99999=-nosongbg-=1.000=0=0=0 // don't automatically add -songbackground-
;
#KEYSOUNDS:;
#ATTACKS:;

//---------------dance-single - ----------------
#NOTES:
     dance-single:
     :
     Beginner:
     4:
     0.163,0.163,0.101,0.030,0.000,100.000,10.000,3.000,0.000,0.000,0.000,0.163,0.163,0.101,0.030,0.000,100.000,10.000,3.000,0.000,0.000,0.000:
0000
0000
0000
0000
,
0000
0000
0000
0000
,
0000
0000
0000
0000
,
0000
0000
0000
1000
,
1000
0000
0001
0000
,
0010
0000
0000
0001
,
0001
0000
1000
0000
,
0010
0000
0000
0000
,
0100
0000
0010
0000
,
0100
0000
0000
0000
,
0010
0000
0100
0000
,
0010
0000
0000
1000
,
1000
0000
0001
0000
,
0100
0000
0000
0001
,
0001
0000
1000
0000
,
0100
0000
0000
0000
,
0010
0000
1000
0000
,
0010
0000
0000
0000
,
0100
0000
0001
0000
,
0100
0000
0000
0000
,
1001
0000
0000
0000
,
1000
0000
0000
0001
,
0000
0001
0000
0000
,
1000
0000
0000
0000
,
1001
0000
0000
0000
,
1000
0000
0000
0000
,
0002
0000
0000
0000
,
1003
0000
0000
0000
,
0110
0000
0000
0000
,
0010
0000
0000
0100
,
0000
0100
0000
0000
,
0010
0000
0000
0000
,
0001
0000
0100
0000
,
1000
0000
0010
0000
,
1000
0000
0010
0000
,
0100
0000
0001
0000
,
0100
0000
0001
0000
,
0010
0000
0001
0000
,
0010
0000
0001
0000
,
1000
0000
0100
0000
,
1000
0000
0100
0000
,
1000
0000
0010
0000
,
0100
0000
0001
0000
,
0010
0000
0001
0000
,
1000
0000
0100
0000
,
1000
0000
0001
0000
,
0100
0000
0010
0000
,
1000
0000
0100
0000
,
0010
0000
0001
0000
,
1001
0000
0000
0000
,
0110
0000
0010
0000
,
1010
0000
0000
0000
,
0101
0000
0001
0000
,
1001
0000
0000
0000
,
0110
0000
0010
0000
,
1010
0000
0000
0000
,
1000
0000
0001
0000
,
1000
0000
0001
0000
,
0010
0000
0100
0000
,
0010
0000
0100
0000
,
2000
0000
0000
0000
,
0000
0000
3001
0000
,
0002
0000
0000
0000
,
0000
0000
1003
0000
,
1000
0000
0010
0000
,
0000
0000
0000
0000
;

//---------------dance-single - ----------------
#NOTES:
     dance-single:
     :
     Easy:
     6:
     0.236,0.228,0.091,0.151,0.000,140.000,9.000,15.000,0.000,0.000,0.000,0.236,0.228,0.091,0.151,0.000,140.000,9.000,15.000,0.000,0.000,0.000:
1000
0000
0100
0000
,
1000
0000
0001
0000
,
0001
0000
0100
0000
,
0001
0000
1000
0000
,
0010
0000
0010
0000
,
0010
0000
0000
0000
,
0100
0000
0100
0000
,
0100
0000
0000
0000
,
0001
0000
1000
0000
,
0001
0000
1000
0000
,
0100
0000
0010
0000
,
0100
0000
0000
0000
,
1000
0000
1000
0000
,
1000
0000
0000
0000
,
0001
0000
0001
0000
,
0001
0000
0000
0000
,
0010
0000
0100
0000
,
0010
0000
0100
0000
,
1000
0000
0001
0000
,
1000
0000
0000
1001
,
1001
0000
0000
0000
,
0020
0000
0000
0130
,
0000
0100
0000
0000
,
0010
1000
0001
0000
,
0010
0000
0001
0000
,
0100
0000
0001
1001
,
0000
1001
0000
0010
,
1000
0001
0100
0010
,
1010
0000
1000
0000
,
1100
0000
0001
0000
,
0011
0000
0001
0000
,
0101
0000
1000
0000
,
0010
0200
0000
0000
,
0310
0000
0010
0000
,
1000
1000
1000
0000
,
0100
0000
0100
0000
,
0001
0100
0001
0100
,
0010
0000
0010
0000
,
1000
0001
2000
3001
,
0100
0000
0100
0000
,
0002
0000
1003
0000
,
1000
0000
1000
0000
,
0010
0010
0010
0000
,
0001
0000
0001
0000
,
0100
0001
0100
0001
,
1000
0000
1000
0000
,
0010
0100
0020
0130
,
0001
0000
0001
0000
,
0200
0000
0310
0000
,
1000
0010
0100
0001
,
2000
0000
0000
0000
,
3001
0010
0100
1000
,
0002
0000
0000
0000
,
1003
0100
0010
0100
,
2000
0000
0000
0000
,
3001
0100
0010
0100
,
0002
0000
0000
0000
,
2003
0000
0000
0000
,
3020
0000
0130
0000
,
0200
0000
0310
0000
,
0020
0000
0000
0000
,
0000
1000
1000
1030
,
2000
0000
0000
0000
,
0000
0001
0001
3001
,
1001
0000
0010
0000
,
0000
0000
0000
0000
;

//---------------dance-single - ----------------
#NOTES:
     dance-single:
     :
     Medium:
     9:
     0.402,0.390,0.242,0.272,0.232,228.000,24.000,27.000,0.000,0.000,0.000,0.402,0.390,0.242,0.272,0.232,228.000,24.000,27.000,0.000,0.000,0.000:
1000
0001
0100
0001
,
1000
0000
0000
0010
0000
0000
1000
0000
0010
1000
0000
0000
,
0001
1000
0100
1000
,
0001
0000
0000
0010
0000
0000
0001
0000
0010
0001
0000
0000
,
1000
0000
0000
0000
0000
0100
0000
0000
0010
0000
0000
0001
,
0000
0000
0000
0001
,
0001
0000
0000
0000
0000
0100
0000
0000
0010
0000
0000
1000
,
0000
0000
0000
1001
,
1001
0000
0000
0000
0000
0010
0000
0000
0100
0000
0000
2000
,
0000
0000
0000
3001
0000
0001
0000
0000
0000
0010
0000
0000
,
0001
0010
0100
0010
,
0002
0000
0000
1000
0000
1003
0000
0000
0000
1010
0000
0000
,
0010
0100
0010
1000
,
0100
0000
0000
0011
,
0001
0000
0000
0100
0000
0001
0000
0000
0010
0000
0000
0010
,
0000
0000
0000
1100
,
1000
0000
0000
0010
0000
0100
0000
0000
0001
0000
0000
0020
,
0000
0000
0000
0100
0000
0130
0000
0000
0000
0110
0000
0000
,
1001
0000
0000
0000
0000
0011
0000
0000
1100
0000
0000
0011
,
0000
0000
0000
1001
,
2000
0000
0000
0000
0000
0010
0000
0000
0010
0000
0000
3020
,
0000
0000
0000
0100
0000
0100
0000
0000
0030
0200
0000
0000
,
0000
0000
0000
0310
0000
0000
0000
0000
0010
1000
0000
0001
,
0000
0000
0000
1001
,
0002
0000
0000
0000
0000
0010
0000
0000
0010
0000
0000
0023
,
0000
0000
0100
0000
0000
0100
0000
0000
0130
0000
0000
0110
,
0000
0000
0000
0000
0000
0000
0000
0000
0010
0001
0000
1000
,
0000
0000
0000
0110
,
0020
0000
0000
0000
0000
1000
0000
0000
1000
0000
0000
2030
,
0000
0000
0000
0100
0000
0100
0000
0000
0000
3200
0000
0000
,
0000
0000
0000
0310
0000
0000
0000
0000
0000
0010
0000
0010
,
0100
0000
0000
0000
0000
1000
0000
0000
0001
0000
0000
0200
,
0000
0310
0000
0000
,
0010
1000
0010
1000
0010
0000
0000
0000
,
0200
0301
0001
0000
,
0010
0001
0010
0001
0010
0000
0000
0000
,
1000
0100
1000
0100
,
1000
0010
1000
0010
1000
0000
0000
0000
,
0001
0100
0001
0100
,
0001
0010
0001
0010
0001
0000
0000
0000
,
2000
0000
3001
0000
,
1000
0010
0100
0001
0100
0000
0000
0000
,
0010
0100
1000
0100
,
0010
0001
0100
0001
1000
0000
0000
0000
,
0002
1003
0002
1003
,
0010
1000
0010
1000
0001
0000
0000
0000
,
0020
0031
0002
0103
,
0100
0010
0100
0010
1000
0000
0001
0000
,
2002
3003
0110
0000
,
0001
0010
0100
1000
0100
0000
1000
0000
,
0020
0000
0000
0000
0200
0000
0000
0330
,
0100
0000
0001
0010
0001
0000
0100
0000
,
0010
0000
1000
0100
1000
0000
0010
0000
,
0000
0100
0001
1000
,
1001
1010
1001
0011
,
0020
0000
0000
0130
,
0200
0000
1300
0000
,
2000
0000
3001
0000
,
0002
0000
0013
0000
,
0020
0000
0130
0000
,
0110
0100
1000
0001
,
0101
0001
0010
0100
,
1000
0100
1000
0001
,
1000
0010
0100
0001
,
1001
0000
1001
0000
,
0000
0000
0000
0000
;

//---------------dance-single - ----------------
#NOTES:
     dance-single:
     :
     Hard:
     11:
     0.575,0.553,0.645,0.333,0.423,302.000,64.000,33.000,0.000,0.000,0.000,0.575,0.553,0.645,0.333,0.423,302.000,64.000,33.000,0.000,0.000,0.000: // measure 0
1000
0000
0000
0100
0000
1000
0001
0000
0000
0100
0000
0001
,  // measure 1
1000
0000
1000
0010
0000
0100
0000
0000
0100
0001
0000
0000
,  // measure 2
0011
0000
0000
0010
0000
0010
0100
0000
0000
0100
0000
0100
,  // measure 3
1000
0000
1000
0001
0000
0001
0000
0000
0001
0100
0000
0000
,  // measure 4
0010
0000
0000
1000
0000
1000
0000
0000
0001
0000
0000
0010
,  // measure 5
0000
0000
1000
0001
0000
0000
0011
0000
,  // measure 6
0010
0000
0000
0001
0000
0010
0000
0000
0010
1000
0000
0010
,  // measure 7
0000
0000
0010
1000
0000
0100
0000
0000
0000
0100
0000
0000
,  // measure 8
0100
0000
0000
1000
0000
0010
0000
0000
0100
0001
0000
0010
,  // measure 9
0000
0000
0000
0100
0000
0100
0000
0000
0000
0110
0000
0000
,  // measure 10
0020
0000
0000
0001
0000
0031
0000
0000
0001
0000
0000
0100
,  // measure 11
0000
0000
0010
1000
0000
0010
0000
0000
0000
1010
0000
0000
,  // measure 12
1000
0000
0000
0001
0000
0010
0000
0000
0010
0100
0000
0010
,  // measure 13
0000
0000
0000
0100
0000
1000
0000
0000
0000
1001
0000
0000
,  // measure 14
0001
0000
0000
0100
0000
0001
0000
0000
0010
0100
0000
0010
,  // measure 15
0000
0000
0100
0000
1100
0000
0000
0000
0000
1000
0000
0000
,  // measure 16
0001
0000
0000
1000
0000
0010
0000
0000
1000
0001
0000
0011
,  // measure 17
0000
0000
0000
0010
0000
0010
0000
0000
0000
0110
0000
0000
,  // measure 18
0100
0000
1000
0000
0000
0001
0000
0000
0100
0000
0000
0110
,  // measure 19
0000
0000
0010
1000
0000
0100
0000
0000
0000
0010
0000
0000
,  // measure 20
0011
0000
0001
0100
0000
0101
0000
0000
0001
1000
0000
1100
,  // measure 21
0000
0000
1000
0010
0000
2010
0000
0000
0000
0200
0000
0000
,  // measure 22
3300
0000
0000
1100
0000
0000
0000
0000
1000
0100
0000
0001
,  // measure 23
0000
0000
0000
0100
0000
0100
0000
0000
0100
0010
0000
0000
,  // measure 24
0110
0000
0000
0100
0000
1100
0000
0000
1001
0000
0000
0101
,  // measure 25
0000
0000
0001
0000
0000
0010
0000
0000
0100
0000
0000
1000
,  // measure 26
0002
0000
0000
0000
0000
0000
0000
0000
1003
0001
0000
0100
,  // measure 27
0000
0000
0000
0000
0000
0000
0000
0000
0010
1000
0100
0010
,  // measure 28
0001
0000
0000
1000
0000
1100
0000
0000
0100
0010
0000
0110
,  // measure 29
0000
0000
0000
0010
0000
0011
0000
0000
0000
0021
0000
0000
,  // measure 30
0000
0000
0030
0011
0000
0000
0000
0000
0000
1001
0000
1000
,  // measure 31
0010
0000
0010
0000
0000
1000
0000
0000
0001
0000
0000
2001
,  // measure 32
0000
0000
0000
3010
0000
0000
0000
0000
0010
0100
0010
0100
,  // measure 33
0001
0001
1000
0100
1000
0000
1100
0000
,  // measure 34
0201
1000
0302
0013
,  // measure 35
0010
0001
0100
1000
0001
0000
1000
0000
,  // measure 36
1001
0110
1001
0110
,  // measure 37
0010
0010
1000
0100
1000
0000
0101
0000
,  // measure 38
0021
1000
0032
0103
,  // measure 39
0010
1000
0100
0001
0100
0000
0010
0000
,  // measure 40
2020
3030
0101
0000
,  // measure 41
0001
0010
0001
0100
0010
0000
1010
0000
,  // measure 42
1200
0001
2300
3010
,  // measure 43
0010
1000
0100
0001
0100
0000
0101
0000
,  // measure 44
0110
1001
0110
1001
,  // measure 45
1000
0010
0100
0001
0100
0000
0001
0000
,  // measure 46
0021
1000
0032
0103
,  // measure 47
0010
1000
0100
0001
0100
0000
1000
0000
,  // measure 48
2200
0000
0000
3300
0000
0000
0011
0000
0000
0001
0100
0010
,  // measure 49
1000
0100
0010
0100
1000
0000
1001
0000
,  // measure 50
0201
0310
2010
3100
,  // measure 51
1000
0100
0001
0100
1000
0000
1010
0000
,  // measure 52
0210
0301
0021
0130
,  // measure 53
1000
0100
0010
0001
1000
0000
1001
0000
,  // measure 54
2010
3001
1002
0103
,  // measure 55
0001
0100
0010
1000
0100
0000
0110
0000
,  // measure 56
1200
0000
1300
0000
,  // measure 57
0201
0000
0301
0000
,  // measure 58
0021
0000
0031
0000
,  // measure 59
1020
0000
0000
0000
1030
0000
1000
0100
,  // measure 60
0010
0010
0001
0100
0001
0000
1001
0000
,  // measure 61
2000
3020
0230
0301
,  // measure 62
0102
0000
1003
0100
0010
0000
0011
0000
,  // measure 63
2001
0000
0000
3010
0000
0000
1000
0000
0000
0010
1000
0100
,  // measure 64
0010
0000
0011
0000
;
