#TITLE:Smile Like You Mean It;
#SUBTITLE:;
#ARTIST:The Killers;
#TITLETRANSLIT:;
#SUBTITLETRANSLIT:;
#ARTISTTRANSLIT:;
#GENRE:Rock;
#CREDIT:;
#BANNER:Smile Like You Mean It.png;
#BACKGROUND:Smile Like You Mean It-bg.png;
#LYRICSPATH:;
#CDTITLE:;
#MUSIC:Smile Like You Mean It.mp3;
#OFFSET:-0.059;
#SAMPLESTART:46.100;
#SAMPLELENGTH:15.000;
#SELECTABLE:YES;
#BPMS:0.000=125.000
;
#STOPS:
;
#BGCHANGES:-0.500=Smile Like You Mean It.avi=1.000=0=0=0=StretchNoLoop====,
99999=-nosongbg-=1.000=0=0=0 // don't automatically add -songbackground-
;
#KEYSOUNDS:;
#ATTACKS:;

//---------------dance-single - Blank----------------
#NOTES:
     dance-single:
     :
     Easy:
     5:
     0.244,0.243,0.093,0.393,0.000,118.000,9.000,38.000,0.000,0.000,0.000,0.244,0.243,0.093,0.393,0.000,118.000,9.000,38.000,0.000,0.000,0.000:
0010
0000
0010
0000
,
0010
0002
0023
0230
,
0000
2300
3200
0320
,
0030
0200
0000
0000
0000
0000
0000
0000
,
1300
0000
1000
0000
,
1000
0002
0023
0230
,
0000
2300
3020
0230
,
0000
0320
0000
0000
0000
0000
0000
0000
,
0130
0000
0100
0000
,
0100
0000
0100
0000
,
0002
0000
0000
0000
,
2003
0000
0000
0000
,
3010
0000
0010
0000
,
0010
0000
0010
0000
,
2000
0000
0000
0000
,
3002
0000
0000
0000
,
0013
0000
0000
0000
,
0000
0010
0100
1000
,
0001
0000
0001
0000
,
0002
0000
2003
0000
,
3010
0000
0100
0000
,
0010
0100
0001
1000
,
0100
0000
0010
0000
,
0220
0000
0000
0330
,
1001
0000
1000
0000
,
0010
0200
0302
0023
,
0000
0230
2300
3020
,
0000
0230
0000
0000
0000
0000
0000
0000
,
0301
0000
0001
0100
,
0010
2000
3002
2003
,
0000
3002
2003
3002
,
0000
0023
0000
0000
0000
0000
0000
0000
,
0130
0010
0000
0010
,
0001
0010
0100
1000
,
0010
1000
0100
0010
,
0001
0010
0001
0100
,
0010
0100
0000
0100
,
0000
0100
0001
0010
,
0100
1000
0001
0100
,
0010
1000
0001
0010
,
0100
0110
0000
0100
,
0110
0010
0000
0010
,
0011
0001
0000
0001
,
1001
1000
0000
1000
,
1010
0010
0000
0010
,
0110
0100
0000
0100
,
2002
0000
0000
0000
,
3003
0000
0000
0000
;

//---------------dance-single - Blank----------------
#NOTES:
     dance-single:
     :
     Medium:
     7:
     0.361,0.309,0.072,0.362,0.000,202.000,7.000,35.000,0.000,0.000,0.000,0.361,0.309,0.072,0.362,0.000,202.000,7.000,35.000,0.000,0.000,0.000:
1000
0000
0010
0000
1000
0010
1000
0001
,
0000
0001
0020
0000
0230
0000
2300
0000
,
3000
0001
2000
0000
3020
0000
0230
0000
,
0000
0302
0000
0000
0000
0000
0000
0000
,
1003
0000
0001
0000
0010
0001
0010
0100
,
0000
1000
0020
0000
0230
0000
0302
0000
,
0003
0100
0002
0000
0023
0000
0230
0000
,
0000
2300
0000
0000
0000
0001
0000
3001
,
1000
0100
0020
0130
,
0110
0000
0100
0000
1000
0001
1000
0000
,
0010
1000
0000
0100
0000
0010
0000
0100
,
0000
0110
0000
0000
0010
0001
0010
0000
,
0001
1000
0020
1030
,
0010
0000
1000
0000
0100
0010
0100
0010
,
0000
0001
0010
0100
,
1000
0000
0010
0000
0100
0010
0000
0010
,
2000
0001
0000
0001
,
3001
1000
0100
0000
0010
0000
0001
0000
,
1000
0010
0000
1020
0000
0000
0000
0000
,
0230
0000
0302
0000
,
2003
0000
3001
0000
,
1000
0100
0001
0100
,
1000
0010
0001
0011
,
0010
1000
0010
1000
0010
1000
0100
0010
,
0001
0000
1000
0000
0001
1000
0001
0100
,
0000
0100
0020
0000
2030
0000
3200
0000
,
0300
0010
0002
0000
0203
0000
0320
0000
,
0000
2030
0000
0000
0001
0000
3001
1000
,
0100
0000
0010
0000
0100
0000
1000
0001
,
0000
0001
0200
0000
0320
0000
2030
0000
,
0000
3100
2000
0000
3020
0000
0230
0000
,
0000
0302
0000
0000
1000
0000
1003
0000
,
1001
1000
0100
0010
,
0001
0000
1000
0000
0010
1000
0010
0000
,
1000
0000
0001
0000
0010
0001
0010
0000
,
0001
0000
0000
1001
0000
1001
0000
1000
,
0100
0010
0001
1000
,
0010
0000
0100
0000
0010
0100
0010
0000
,
1000
0000
0100
0000
0010
0100
0010
0000
,
0001
0000
0001
0000
0001
1000
0001
0000
,
1000
1000
1000
0000
0000
1000
0010
0000
,
0010
0010
0010
0000
0000
0010
0100
0000
,
0100
0100
0100
0000
0000
0100
0001
0000
,
0001
0001
0001
0000
0000
0001
1000
0000
,
0001
1000
0001
0000
0000
1000
0010
0000
,
0010
0100
0010
0000
0000
0100
0010
0100
,
0010
0000
0000
0000
;

//---------------dance-single - Blank----------------
#NOTES:
     dance-single:
     :
     Hard:
     11:
     0.510,0.452,0.424,0.145,0.036,290.000,41.000,14.000,0.000,0.000,0.000,0.510,0.452,0.424,0.145,0.036,290.000,41.000,14.000,0.000,0.000,0.000:
1010
0000
0110
0000
0100
0001
0010
0001
,
0000
0010
0100
0100
1000
1000
0010
0010
,
0000
0010
0100
0100
0001
0001
0010
0010
,
0000
0000
0100
0000
1000
0000
0001
0000
1000
0000
0001
0000
0100
0000
0010
1000
,
0010
0000
1010
0000
1000
0100
0010
0100
,
0000
0010
0001
0001
0100
0100
0010
0010
,
0000
0010
1000
1000
0100
0100
0010
0010
,
0000
0001
1000
0010
1000
1100
1100
0100
,
0010
0000
0001
0000
1000
0010
1000
0001
,
0000
1000
0001
0000
0001
0010
0001
0010
,
0100
1000
0000
1010
0010
0100
0000
0110
,
0000
1001
1000
0000
0100
0010
0100
0010
,
0001
0000
1000
0000
1010
0010
0100
0010
,
0000
0100
0001
0000
0010
0001
0100
0001
,
0000
1000
0001
0000
1000
0100
1000
0100
,
0000
0010
0100
0000
1000
1001
0000
1001
,
0002
0000
0100
0000
0010
0100
0010
0000
,
2003
0000
0010
0000
0100
0010
0100
0000
,
3002
0000
0100
0000
1000
0100
1000
0000
,
2003
0000
0000
0000
0100
0000
0000
0000
0001
0000
0100
0000
3001
0000
1000
0001
,
2000
0000
0010
0000
0001
0010
0001
0000
,
3002
0000
0010
0000
1000
0010
1000
0000
,
2003
0000
0010
0000
0100
0001
3100
0000
,
1000
0000
0001
0000
0100
0000
0010
0000
1000
0000
0100
0010
0100
0010
0100
0010
,
0001
0000
1000
0000
0010
1000
0010
0100
,
0000
0001
0010
0010
0100
0100
1000
1000
,
0000
1000
0010
0010
0100
0100
0001
0001
,
0000
0000
2000
0000
0001
0000
0001
0000
0100
0000
0100
0000
3010
0000
1000
0010
,
1000
0000
1100
0000
0100
0010
0100
1000
,
0000
0010
0100
0100
0001
0001
0010
0010
,
0000
0010
0100
0100
1000
1000
0010
0010
,
0000
0100
0001
1000
0001
0100
0010
0100
,
0010
0010
0100
0100
0001
0001
1000
1000
,
0000
1000
0100
0100
2000
0000
3001
0000
,
1001
0000
0100
0100
0002
0000
1003
0000
,
1001
0000
1000
0000
0100
0000
0110
0000
0000
0000
0110
0000
0000
0000
0001
1000
,
0001
0010
0110
0000
0010
0001
0100
0010
,
0000
1000
0010
1000
0100
0100
0010
0000
,
1001
0000
0001
0000
0100
0100
0010
0000
,
2002
3003
2002
3003
0100
0110
0110
0000
,
1010
1010
1010
0000
0000
1000
0001
0010
,
0011
0011
0011
0000
0000
0001
1000
0100
,
1100
1100
1100
0000
0000
1000
0001
0100
,
0101
0101
0101
0000
0000
0001
1000
0100
,
0110
1001
0110
0000
0000
0100
1000
0010
,
0110
1001
0110
0000
0000
0010
1000
0100
,
0110
0000
0000
0000
;

//---------------dance-single - Blank----------------
#NOTES:
     dance-single:
     :
     Beginner:
     2:
     0.092,0.097,0.072,0.062,0.000,49.000,7.000,6.000,0.000,0.000,0.000,0.092,0.097,0.072,0.062,0.000,49.000,7.000,6.000,0.000,0.000,0.000:
1000
0000
0000
0000
,
0000
0000
0001
0000
,
0000
0000
0001
0000
,
0000
0000
0001
0000
,
0100
0000
0000
0000
,
0000
0000
0010
0000
,
0000
0000
0010
0000
,
0000
0000
0010
0000
,
1000
0000
0000
0000
,
0001
0000
0000
0000
,
1000
0000
0000
0000
,
0000
0000
0000
0000
,
0100
0000
0000
0000
,
0010
0000
0000
0000
,
0100
0000
0000
0000
,
0000
0000
0000
0000
,
0220
0000
0000
0000
,
0000
0000
0000
0030
,
0000
0000
0000
0000
,
0000
0000
1300
0000
,
2002
0000
0000
0000
,
0000
0000
0000
3000
,
0000
0000
0000
0000
,
0103
0000
0000
0000
,
1001
0000
0000
0000
,
0000
0000
1000
0000
,
0000
0000
1000
0000
,
0000
0000
1000
0000
,
0110
0000
0000
0000
,
0000
0000
0010
0000
,
0000
0000
0010
0000
,
0000
0000
0010
0000
,
0110
0000
0000
0000
,
0000
0000
0100
0000
,
0100
0000
0100
0000
,
0100
0000
0000
0000
,
1001
0000
0000
0000
,
0000
0000
0001
0000
,
0001
0000
0001
0000
,
0001
0000
0000
0000
,
1000
1000
0000
0000
,
1000
1000
0000
0000
,
1000
1000
0000
0000
,
1000
1000
0000
0000
,
0001
0001
0000
0000
,
0001
0001
0000
0000
,
2002
0000
0000
0000
,
3003
0000
0000
0000
;
