#VERSION:0.81;
#TITLE:Scoot's Race (Scootaloo's Theme);
#SUBTITLE:;
#ARTIST:Derpy Hooves;
#TITLETRANSLIT:;
#SUBTITLETRANSLIT:;
#ARTISTTRANSLIT:;
#GENRE:Chiptune;
#ORIGIN:;
#CREDIT:;
#BANNER:Scoot's Race (Scootaloo's Theme).png;
#BACKGROUND:Scoot's Race (Scootaloo's Theme)-bg.png;
#PREVIEWVID:;
#JACKET:Scoot's Race (Scootaloo's Theme)-jacket.png;
#CDIMAGE:;
#DISCIMAGE:Scoot's Race (Scootaloo's Theme).png;
#LYRICSPATH:;
#CDTITLE:;
#MUSIC:Scoot's Race (Scootaloo's Theme).mp3;
#OFFSET:-7.361;
#SAMPLESTART:29.400;
#SAMPLELENGTH:15.000;
#SELECTABLE:YES;
#BPMS:0.000=131.000;
#STOPS:;
#DELAYS:;
#WARPS:;
#TIMESIGNATURES:0.000=4=4;
#TICKCOUNTS:0.000=4;
#COMBOS:0.000=1;
#SPEEDS:0.000=1.000=0.000=0;
#SCROLLS:0.000=1.000;
#FAKES:;
#LABELS:0.000=Song Start;
#BGCHANGES:;
#KEYSOUNDS:;
#ATTACKS:
;

//---------------dance-single - ----------------
#NOTEDATA:;
#CHARTNAME:;
#STEPSTYPE:dance-single;
#DESCRIPTION:;
#CHARTSTYLE:;
#DIFFICULTY:Beginner;
#METER:2;
#RADARVALUES:0.123,0.131,0.061,0.045,0.000,50.000,4.000,3.000,0.000,0.000,0.000,0.000,0.000,0.123,0.131,0.061,0.045,0.000,50.000,4.000,3.000,0.000,0.000,0.000,0.000,0.000;
#CREDIT:;
#NOTES:
0010
0000
0000
0000
,
1000
0000
0000
0000
,
0100
0000
0000
0000
,
0001
0000
0000
0000
,
0100
0000
0100
0000
,
0100
0000
0000
0000
,
0010
0000
0010
0000
,
0010
0000
0000
0000
,
1000
0000
1000
0000
,
1000
0000
0000
0000
,
0001
0000
0001
0000
,
0001
0000
0000
0000
,
1001
0000
0010
0010
,
0010
0000
0000
0000
,
0110
0000
1000
1000
,
1000
0000
0001
0000
,
0010
0000
0100
0000
,
2000
0000
3000
0000
,
1001
0000
1000
1000
,
1000
0000
0010
0000
,
0100
0000
0100
0000
,
0001
0000
0001
0000
,
0100
0000
0100
0000
,
1000
0000
1000
0000
,
0010
0000
0010
0000
,
0100
0000
0100
0000
,
0001
0000
0001
0000
,
1000
0000
1000
0000
,
2002
0000
0000
0000
0000
0000
0000
0000
0000
0000
0000
0000
0000
0000
0000
0000
0000
0000
0000
0000
0000
0000
0000
0000
0000
0000
0000
0000
0000
0000
0000
0000
0000
0000
0000
0000
0000
0000
0000
0000
0000
0000
0000
0000
0000
0000
0000
0000
0000
0000
0000
0000
0000
0000
0000
0000
0000
0000
0000
0000
0000
0000
0000
0000
0000
0000
0000
0000
0000
0000
0000
0000
0000
0000
0000
0000
0000
0000
0000
0000
0000
0000
0000
0000
0000
0000
0000
0000
0000
0000
0000
0000
0000
0000
0000
0000
0000
0000
0000
0000
0000
0000
0000
0000
0000
0000
0000
0000
0000
0000
0000
0000
0000
0000
0000
0000
0000
0000
0000
0000
0000
0000
0000
0000
0000
0000
0000
0000
0000
0000
0000
0000
0000
0000
0000
0000
0000
0000
0000
0000
0000
0000
0000
0000
0000
3003
0000
0000
0000
0000
0000
0000
0000
0000
0000
0000
0000
0000
0000
0000
0000
0000
0000
0000
0000
0000
0000
0000
0000
0000
0000
0000
0000
0000
0000
0000
0000
0000
0000
0000
0000
0000
0000
0000
0000
0000
0000
0000
0000
0000
0000
0000
;

//---------------dance-single - ----------------
#NOTEDATA:;
#CHARTNAME:;
#STEPSTYPE:dance-single;
#DESCRIPTION:;
#CHARTSTYLE:;
#DIFFICULTY:Easy;
#METER:5;
#RADARVALUES:0.240,0.218,0.045,0.106,0.000,101.000,3.000,7.000,0.000,0.000,0.000,0.000,0.000,0.240,0.218,0.045,0.106,0.000,101.000,3.000,7.000,0.000,0.000,0.000,0.000,0.000;
#CREDIT:;
#NOTES:
1000
0000
0010
0000
,
0100
0000
0001
0000
,
1000
0000
0100
0000
,
0010
0000
0001
0000
,
0100
0100
0010
0010
,
1000
1000
0001
0001
,
0010
0100
0010
0001
,
1000
0010
0100
0000
,
0010
0010
1000
1000
,
0001
0001
0010
0010
,
0100
0010
0001
1000
,
0010
0100
0001
1000
,
2002
3003
1000
0010
,
0100
0100
0010
1000
,
2002
3003
1000
0010
,
0100
0100
0001
0010
,
0100
0100
0010
0010
,
0001
0100
0010
1000
,
2200
3300
0010
0001
,
0100
0010
1000
0001
,
0010
0010
0001
0001
,
0100
0100
1000
1000
,
0100
0100
0001
0001
,
0010
0010
1000
1000
,
0010
0010
0100
0100
,
0001
0001
0010
0010
,
0100
0100
1000
1000
,
0010
0010
0100
0100
,
0002
0000
0000
0003
;

//---------------dance-single - ----------------
#NOTEDATA:;
#CHARTNAME:;
#STEPSTYPE:dance-single;
#DESCRIPTION:;
#CHARTSTYLE:;
#DIFFICULTY:Medium;
#METER:7;
#RADARVALUES:0.314,0.283,0.061,0.136,0.000,132.000,4.000,9.000,0.000,0.000,0.000,0.000,0.000,0.314,0.283,0.061,0.136,0.000,132.000,4.000,9.000,0.000,0.000,0.000,0.000,0.000;
#CREDIT:;
#NOTES:
2010
0000
3010
0000
,
0102
0000
0103
0000
,
0012
0000
0013
0000
,
2100
0000
3100
0000
,
1000
0001
0100
0010
,
0100
0001
0010
0100
,
1000
0001
0100
0010
,
1000
0001
0010
0100
,
1000
0001
0100
0010
,
1000
1000
1000
0000
0001
0001
0001
0000
,
1000
0010
0100
0001
,
0010
0010
0010
0000
0100
0100
0100
0000
,
0020
0000
0031
0000
0100
0010
0100
0000
,
0001
0000
0010
0100
0000
0100
0010
0000
,
0002
0000
0103
0000
0010
1000
0100
0000
,
1000
0010
0100
0001
,
0100
0000
0100
0000
0010
1000
0010
0000
,
2000
0000
0000
0000
,
3002
0000
0013
0000
0100
0010
0001
0000
,
0100
0010
1000
0001
,
1000
0100
0010
0000
0010
0001
0100
0000
,
0010
1000
0001
0000
0010
0100
1000
1000
,
0001
0100
0010
0000
0100
0001
0010
0000
,
0100
0001
0100
0000
0010
0001
0100
0100
,
0010
1000
0001
0000
0010
0100
0010
0000
,
0001
0100
0010
0000
1000
0100
0010
0010
,
0100
1000
0010
0000
0100
0001
0010
0000
,
0100
1000
0010
0000
1000
0100
0001
0001
,
0002
0000
0000
1000
0000
0000
0003
0000
;

//---------------dance-single - ----------------
#NOTEDATA:;
#CHARTNAME:;
#STEPSTYPE:dance-single;
#DESCRIPTION:;
#CHARTSTYLE:;
#DIFFICULTY:Hard;
#METER:9;
#RADARVALUES:0.405,0.349,0.136,0.106,0.015,171.000,9.000,7.000,0.000,0.000,0.000,0.000,0.000,0.405,0.349,0.136,0.106,0.015,171.000,9.000,7.000,0.000,0.000,0.000,0.000,0.000;
#CREDIT:;
#NOTES:
1100
1000
1000
1000
,
1010
0010
0010
0010
,
0110
0100
0100
0100
,
0101
0001
0001
0001
,
0011
0010
0001
0100
,
0010
0000
1000
0000
0100
0000
1000
0001
,
0100
0010
0100
0001
,
1000
0000
0100
0000
0010
0000
0100
1000
,
0001
0000
0100
0000
0010
1000
0001
0000
,
0010
0000
0100
0000
1000
0001
0100
0000
,
0010
0000
0100
0001
1000
0100
0010
0000
,
0100
0000
1000
0001
0100
0010
1000
0000
,
2001
0000
3001
0000
0001
0100
0010
0100
,
0001
0000
1000
0100
0000
0100
1000
0010
,
0120
0000
0130
0000
0010
1000
0100
0010
,
0100
0000
0000
0000
0100
0000
1000
0000
0001
0000
0000
0100
0000
0000
0001
0000
,
1000
0000
0000
0010
0000
0000
0100
0000
1000
0000
0100
0000
0001
0000
1000
0000
,
0010
0000
0100
0001
0000
0010
0100
0001
,
0201
0000
0310
0000
0001
0100
1000
0100
,
0001
0010
0100
1000
0002
0000
0203
0000
,
0310
1000
0100
0010
0100
1000
0001
0100
,
0010
1000
0100
0001
0100
1000
0010
0100
,
0001
0010
0100
0001
0100
0010
0001
0100
,
1000
0100
0001
1000
0010
0100
1000
0100
,
0010
1000
0100
0010
0001
0100
0010
0100
,
0001
0010
0100
1000
0100
0010
0001
0100
,
0010
0100
0001
0010
0100
1000
0010
0100
,
0010
1000
0001
0010
0100
1000
0010
0100
,
0102
0000
0000
2000
0000
0000
3003
0000
;

//---------------dance-double - Copied from----------------
#NOTEDATA:;
#CHARTNAME:Copied from;
#STEPSTYPE:dance-double;
#DESCRIPTION:Copied from;
#CHARTSTYLE:;
#DIFFICULTY:Easy;
#METER:4;
#RADARVALUES:0.208,0.174,0.061,0.030,0.000,90.000,4.000,2.000,0.000,0.000,0.000,0.000,0.000,0.208,0.174,0.061,0.030,0.000,90.000,4.000,2.000,0.000,0.000,0.000,0.000,0.000;
#CREDIT:Copied from;
#NOTES:
10000000
00000000
00100000
00000000
,
01000000
00000000
00010000
00000000
,
00100000
00000000
01000000
00000000
,
10000000
00000000
00100000
00000000
,
01000000
00010000
01000000
00000000
,
00001000
00010000
00001000
00000000
,
00010000
00000010
00001000
00000100
,
00000010
00000100
00001000
00000000
,
00000010
00000100
00000001
00000000
,
00000010
00000100
00001000
00000000
,
00000010
00000100
00000001
00000000
,
00000100
00000010
00001000
00000000
,
00001100
00000000
00001000
00010000
,
00001000
00010000
00000010
00000000
,
00001010
00000000
00000010
00000100
,
00000001
00000000
00000010
00000100
,
00010000
00001000
00100000
00010000
,
01000000
00000000
00000000
00000000
,
01100000
00000000
00100000
10000000
,
01000000
00100000
00010000
00100000
,
01000000
01000000
10000000
10000000
,
00100000
00100000
00001000
00001000
,
00010000
00010000
00000100
00000100
,
00010000
00010000
00001000
00001000
,
00010000
00010000
00000100
00000100
,
00001000
00001000
00000010
00000010
,
00000100
00000001
00000010
00000100
,
00001000
00000001
00000100
00000010
,
00002002
00000000
00000000
00003003
;

//---------------dance-double - ----------------
#NOTEDATA:;
#CHARTNAME:;
#STEPSTYPE:dance-double;
#DESCRIPTION:;
#CHARTSTYLE:;
#DIFFICULTY:Medium;
#METER:6;
#RADARVALUES:0.264,0.218,0.076,0.076,0.000,112.000,5.000,5.000,0.000,0.000,0.000,0.000,0.000,0.264,0.218,0.076,0.076,0.000,112.000,5.000,5.000,0.000,0.000,0.000,0.000,0.000;
#CREDIT:;
#NOTES:
11000000
00000000
10000000
00000000
,
10100000
00000000
00100000
00000000
,
01100000
00000000
01000000
00000000
,
01010000
00000000
00010000
00000000
,
00010000
00010000
00001000
00001000
,
00100000
00010000
01000000
00001000
,
00010000
00100000
01000000
00100000
,
00010000
00001000
01000000
00010000
,
00010000
00000000
00000100
00000000
00100000
00100000
00100000
00000000
,
00001000
00000000
00010000
00000000
00000100
00000100
00000100
00000000
,
00010000
00000000
00100000
00000000
00010000
00010000
00010000
00000000
,
00001000
00000000
00000100
00000000
00001000
00001000
00001000
00000000
,
00000020
00000000
00000000
00000000
00000130
00000010
00000100
00000000
,
00001000
00010000
00000100
00001000
,
00000020
00000000
00000000
00000000
00001030
00000100
00010000
00000000
,
00001000
00000100
00001000
00010000
,
00000010
00000000
00000010
00000000
00000100
00000001
00000100
00000010
,
00002000
00000000
00000000
00000000
,
00003002
00000000
00000000
00000000
00000013
00000100
00000010
00000000
,
00000001
00000100
00000010
00001000
,
00000010
00000000
00000100
00001000
00000000
00000100
00001000
00000000
,
00000100
00000010
00001000
00000100
,
00010000
00000000
00000010
00000100
00000000
00000010
00000100
00000000
,
00001000
00010000
00000010
00001000
,
00001000
00000000
00100000
00010000
00000000
00100000
00000100
00000000
,
00010000
00001000
00100000
00000100
,
00001000
00001000
00010000
00010000
,
00100000
00000100
00010000
00001000
,
00210000
00000000
00000000
00010000
00000000
00000000
00300000
00000000
;

//---------------dance-double - ----------------
#NOTEDATA:;
#CHARTNAME:;
#STEPSTYPE:dance-double;
#DESCRIPTION:;
#CHARTSTYLE:;
#DIFFICULTY:Hard;
#METER:8;
#RADARVALUES:0.364,0.283,0.121,0.167,0.000,149.000,8.000,11.000,0.000,0.000,0.000,0.000,0.000,0.364,0.283,0.121,0.167,0.000,149.000,8.000,11.000,0.000,0.000,0.000,0.000,0.000;
#CREDIT:;
#NOTES:
20100000
00100000
00100000
30100000
,
00210000
00000000
00010000
00000000
00010000
00000000
00010000
00300000
,
02010000
00010000
00010000
03010000
,
21000000
01000000
01000000
31000000
,
01000000
00000000
00010000
00000000
00100000
00001000
00100000
00000000
,
00010000
00000000
01000000
00000000
00100000
00010000
00100000
01000000
,
00001000
00000000
00100000
00000000
00010000
01000000
00001000
00000000
,
00010000
00000000
00100000
00000000
00010000
00001000
01000000
00010000
,
00010000
00000000
00000100
00000000
00010000
00001000
00100000
00000000
,
00000100
00000000
00001000
00010000
00100000
00000000
00000100
00010000
,
00001000
00000000
00010000
00000000
00000100
00001000
00010000
00000000
,
00100000
00000000
00000100
00010000
00001000
00000000
00100000
00000000
,
00020010
00000000
00000000
00000000
00030100
00001000
00000010
00001000
,
00000100
00000000
00010000
00001000
00000000
00001000
00010000
00000100
,
00001200
00000000
00001300
00000000
00000010
00000100
00001000
00010000
,
00001000
00000100
00000010
00001000
,
00000010
00000000
00000100
00000000
00000001
00000010
00000100
00001000
,
00000002
00001000
00000000
00001003
,
00002002
00000000
00003003
00000000
00000010
00000100
00000001
00000100
,
00000010
00001000
00000100
00000001
,
00001000
00010000
00000100
00000000
00001000
00000010
00000100
00000000
,
00001000
00000100
00000010
00001000
00000100
00001000
00000010
00000000
,
00000100
00001000
00010000
00000000
00000010
00001000
00000100
00000000
,
00001000
00000010
00010000
00001000
00000100
00001000
00010000
00000000
,
00000100
00010000
00001000
00000000
00100000
00000100
00001000
00000000
,
00010000
00001000
00000100
00100000
00001000
00010000
00000100
00000000
,
00100000
00000000
00000100
00000000
00010000
00001000
00100000
00000000
,
00000100
00001000
00010000
00000000
00100000
00001000
00010000
00000000
,
02002000
00000000
00000000
00003000
00000000
00000000
03000000
00000000
;

//---------------dance-single - ----------------
#NOTEDATA:;
#CHARTNAME:;
#STEPSTYPE:dance-single;
#DESCRIPTION:;
#CHARTSTYLE:;
#DIFFICULTY:Challenge;
#METER:5;
#RADARVALUES:0.240,0.218,0.121,0.197,0.000,90.000,8.000,13.000,40.000,0.000,0.000,0.000,0.000,0.240,0.218,0.121,0.197,0.000,90.000,8.000,13.000,40.000,0.000,0.000,0.000,0.000;
#CREDIT:;
#NOTES:
2010
0000
3010
0000
,
0102
0000
0103
0000
,
2100
0000
3100
0000
,
0012
0000
0013
0000
,
0010
0001
0100
0100
,
0010
1000
0001
MMMM
,
0010
0001
0100
0100
,
0010
1000
0001
MMMM
,
0001
1000
0010
0100
,
0001
0100
0010
MMMM
,
0010
1000
0100
0001
,
0100
1000
0010
MMMM
,
2002
3003
0010
0100
,
0001
1000
0100
MMMM
,
2200
3300
0001
0100
,
0010
0100
0001
0001
,
0010
0010
0100
1000
,
0020
0000
0030
MMMM
,
0220
0330
0010
1000
,
0001
0001
0010
MMMM
,
0010
0001
0100
0100
,
0010
1000
0001
MMMM
,
1000
0010
0100
0100
,
0010
1000
0001
MMMM
,
0010
0100
0001
0001
,
0100
0010
0001
MMMM
,
1000
0010
0100
0001
,
0010
0100
1000
0001
,
2002
0000
0000
3003
;

//---------------dance-double - ----------------
#NOTEDATA:;
#CHARTNAME:;
#STEPSTYPE:dance-double;
#DESCRIPTION:;
#CHARTSTYLE:;
#DIFFICULTY:Challenge;
#METER:5;
#RADARVALUES:0.212,0.174,0.030,0.091,0.000,90.000,2.000,6.000,40.000,0.000,0.000,0.000,0.000,0.212,0.174,0.030,0.091,0.000,90.000,2.000,6.000,40.000,0.000,0.000,0.000,0.000;
#CREDIT:;
#NOTES:
10010000
00000000
10000000
00000000
,
00100000
00000000
01000000
00000000
,
00010000
00000000
00100000
00000000
,
01000000
00000000
10000000
00000000
,
00001000
00001000
00001000
0MMMM000
,
00100000
00100000
00100000
0MMMM000
,
00010000
00010000
00010000
0MMMM000
,
01000000
01000000
01000000
0MMMM000
,
00000100
00010000
00001000
00100000
,
00000100
00010000
00001000
00MMMM00
,
00001000
00010000
00000100
00001000
,
00010000
00100000
00001000
00MMMM00
,
00020000
00030000
00000010
00001000
,
00000100
00001000
00000010
000MMMM0
,
00000200
00000300
00001000
00000100
,
00000010
00010000
00000100
00001000
,
00000001
00000001
00001000
00001000
,
00000200
00000000
00000300
0000MMMM
,
00000020
00000030
00000100
00000001
,
00000010
00000100
00001000
0000MMMM
,
00000010
00001000
00010000
00001000
,
00000010
00000100
00010000
00000100
,
00000010
00001000
00000100
00001000
,
00000010
00000100
00001000
00000010
,
00010000
00100000
00001000
00010000
,
00100000
00010000
00001000
00100000
,
00000100
00000100
00001000
00001000
,
00010000
00010000
00100000
00MMMM00
,
02002000
00000000
00000000
03003000
;

//---------------dance-solo - Blank----------------
#NOTEDATA:;
#CHARTNAME:;
#STEPSTYPE:dance-solo;
#DESCRIPTION:Blank;
#CHARTSTYLE:;
#DIFFICULTY:Hard;
#METER:11;
#RADARVALUES:0.461,0.446,0.152,0.076,0.242,198.000,10.000,5.000,0.000,0.000,0.000,0.000,0.000,0.461,0.446,0.152,0.076,0.242,198.000,10.000,5.000,0.000,0.000,0.000,0.000,0.000;
#CREDIT:;
#NOTES:
100000
000000
000000
000000
000100
000000
100000
000001
100000
000000
000010
100000
000010
000000
010000
000000
,
000001
000000
000000
000000
000100
000000
000001
100000
000001
000000
010000
000001
010000
000000
000010
000000
,
100000
000000
000000
000000
001000
000000
100000
000001
100000
000000
000010
100000
000010
000000
010000
000000
,
000001
000000
000000
000000
001000
000000
000001
100000
000001
000000
010000
000001
010000
000000
000010
000000
,
001000
000000
000000
000100
000000
000000
100000
000000
000000
001000
000000
000000
000100
000000
000001
000010
,
000001
000000
000000
001000
000000
000000
000100
000000
000000
100000
000000
000000
001000
000000
100000
000100
,
100000
000000
000000
000100
000000
000000
001000
000000
000000
000010
000000
000000
010000
000000
001000
000100
,
001000
000000
000000
100000
000000
000000
001000
000000
000000
000010
000000
000000
001000
000000
000100
001000
,
100000
000000
000010
100000
000000
000010
100000
000010
,
001000
000000
000001
001000
000000
000001
001000
000001
,
000100
000000
000001
000100
000000
000001
000100
001000
,
100000
000000
000100
100000
000000
100000
000100
001000
,
000020
000000
000000
000000
010030
000000
000000
000000
000010
001000
000010
001000
000001
000000
100000
000000
,
001000
000000
000100
001000
000000
000100
001000
000100
,
002000
000000
000000
000000
013000
000000
000000
000000
001000
000100
000010
100000
010000
000000
001000
000000
,
000100
000000
000000
000000
100000
000000
000100
000000
100000
000000
000000
000001
000000
000000
100000
000000
,
000010
000000
000000
001000
000000
000000
000100
000000
010000
000000
000001
000000
000010
000000
001000
000000
,
100000
000000
000001
100000
000000
000010
100010
100010
,
200000
000000
000000
000000
301000
000000
000000
000000
100000
001000
100000
001000
100000
000000
000100
000000
,
100000
001000
000100
000001
001000
000001
001000
000001
002000
000000
000000
000000
003200
000000
000000
000000
,
100300
000100
001000
000100
000000
000100
001000
000100
,
001000
000001
000100
000001
000000
000001
000100
000001
,
000100
000010
010000
000010
000000
010000
000010
010000
,
000001
100000
001000
100000
000000
100000
001000
100000
,
000100
001000
000001
001000
000000
001000
000001
001000
,
000100
010000
000010
010000
000000
000010
010000
000010
,
001000
001010
010010
011000
,
101000
100001
001001
001100
,
010010
000000
000000
000000
;

//---------------dance-solo - Blank----------------
#NOTEDATA:;
#CHARTNAME:;
#STEPSTYPE:dance-solo;
#DESCRIPTION:Blank;
#CHARTSTYLE:;
#DIFFICULTY:Medium;
#METER:6;
#RADARVALUES:0.305,0.255,0.136,0.106,0.000,125.000,9.000,7.000,0.000,0.000,0.000,0.000,0.000,0.305,0.255,0.136,0.106,0.000,125.000,9.000,7.000,0.000,0.000,0.000,0.000,0.000;
#CREDIT:;
#NOTES:
100000
000000
000010
000000
100000
000010
100000
000010
,
010000
000000
000001
000000
010000
000001
010000
000001
,
100000
000000
010000
000000
100000
010000
100000
010000
,
001000
000000
000001
000000
000010
000001
000010
000001
,
000010
000000
000010
000000
000010
000000
000010
001000
,
010000
000000
010000
000000
010000
000000
010000
000010
,
001000
000000
001000
000000
001000
000000
001000
000100
,
100000
000000
100000
000000
100000
000000
100000
000001
,
000100
000000
000100
000000
000100
000000
000100
000010
,
001000
000000
001000
000000
001000
000000
001000
000100
,
010000
000000
010000
000000
010000
000000
010000
000001
,
100000
000000
100000
000000
000001
100000
000001
100000
,
000020
000000
100030
000000
000010
100000
000010
000000
,
020000
000000
000000
031000
,
020000
000000
030001
000000
010000
000001
010000
000000
,
000020
000000
000000
000000
010000
000000
000000
010030
,
000010
000000
000000
000010
001000
000100
010000
000000
,
200002
000000
000000
300003
,
200000
000000
300100
000000
100000
000100
100000
000000
,
100000
000010
010000
000001
001000
000000
000100
000000
,
001100
000100
000000
000100
,
010100
010000
000000
010000
,
010010
000010
000000
000010
,
001010
001000
001001
000001
,
100001
100000
000000
100000
,
101000
001000
000000
000100
,
001000
010000
000010
001000
,
000100
010000
000010
001000
,
001100
000000
000000
000000
;

//---------------dance-solo - Blank----------------
#NOTEDATA:;
#CHARTNAME:;
#STEPSTYPE:dance-solo;
#DESCRIPTION:Blank;
#CHARTSTYLE:;
#DIFFICULTY:Easy;
#METER:3;
#RADARVALUES:0.076,0.085,0.030,0.076,0.000,28.000,2.000,5.000,0.000,0.000,0.000,0.000,0.000,0.076,0.085,0.030,0.076,0.000,28.000,2.000,5.000,0.000,0.000,0.000,0.000,0.000;
#CREDIT:;
#NOTES:
// measure 0
000100
000000
000000
000000
,  // measure 1
000100
000000
000000
000000
,  // measure 2
010000
000000
000000
000000
,  // measure 3
010000
000000
000000
000000
,  // measure 4
020020
000000
000000
000000
,  // measure 5
000000
000000
000000
000000
,  // measure 6
030030
000000
000000
000000
,  // measure 7
000000
000000
000000
000000
,  // measure 8
010000
000000
000000
000000
,  // measure 9
010000
000000
000000
000000
,  // measure 10
001000
000000
000000
000000
,  // measure 11
001000
000000
000000
000000
,  // measure 12
000020
000000
000000
000000
,  // measure 13
001030
000000
000000
000000
,  // measure 14
000020
000000
000000
000000
,  // measure 15
001030
000000
001000
000000
,  // measure 16
001000
000000
000000
000000
,  // measure 17
100000
000000
000000
000000
,  // measure 18
000002
000000
000000
000000
,  // measure 19
001003
000000
000001
000000
,  // measure 20
001000
000000
000000
000000
,  // measure 21
000100
000000
000000
000000
,  // measure 22
001000
000000
000000
000000
,  // measure 23
000001
000000
000000
000000
,  // measure 24
000010
000000
000000
000000
,  // measure 25
001000
000000
000000
000000
,  // measure 26
010000
000000
000000
000000
,  // measure 27
000010
000000
000000
000000
,  // measure 28
010010
000000
000000
000000
;
