#VERSION:0.81;
#TITLE:SUPER TWILIGHT 安っぽいJ-ポップのボスアタック GO GO!;
#SUBTITLE:;
#ARTIST:Derpy Hooves;
#TITLETRANSLIT:SUPER TWILIGHT ATTACK OF THE J-POP SLEAZY BOSS GO GO!;
#SUBTITLETRANSLIT:;
#ARTISTTRANSLIT:;
#GENRE:Techno;
#ORIGIN:;
#CREDIT:;
#BANNER:SUPER TWILIGHT ATTACK OF THE J-POP SLEAZY BOSS GO GO!.png;
#BACKGROUND:SUPER TWILIGHT ATTACK OF THE J-POP SLEAZY BOSS GO GO!-bg.png;
#PREVIEWVID:;
#JACKET:SUPER TWILIGHT ATTACK OF THE J-POP SLEAZY BOSS GO GO!-jacket.png;
#CDIMAGE:SUPER TWILIGHT ATTACK OF THE J-POP SLEAZY BOSS GO GO!-jacket (old).png;
#DISCIMAGE:SUPER TWILIGHT ATTACK OF THE J-POP SLEAZY BOSS GO GO! (old).png;
#LYRICSPATH:;
#CDTITLE:;
#MUSIC:SUPER TWILIGHT ATTACK OF THE J-POP SLEAZY BOSS GO GO!.ogg;
#OFFSET:-9.367;
#SAMPLESTART:39.340;
#SAMPLELENGTH:15.000;
#SELECTABLE:YES;
#BPMS:0.000=200.000,
32.000=100.000,
48.000=200.000,
244.000=66.001;
#STOPS:;
#DELAYS:;
#WARPS:;
#TIMESIGNATURES:0.000=4=4;
#TICKCOUNTS:0.000=4;
#COMBOS:0.000=1;
#SPEEDS:0.000=1.000=0.000=0;
#SCROLLS:0.000=1.000;
#FAKES:;
#LABELS:0.000=Song Start;
#BGCHANGES:;
#KEYSOUNDS:;
#ATTACKS:
;

//---------------dance-single - ----------------
#NOTEDATA:;
#CHARTNAME:;
#STEPSTYPE:dance-single;
#DESCRIPTION:;
#CHARTSTYLE:;
#DIFFICULTY:Hard;
#METER:14;
#RADARVALUES:0.736,0.650,0.194,0.163,0.179,470.000,19.000,16.000,0.000,0.000,0.000,0.000,0.000,0.736,0.650,0.194,0.163,0.179,470.000,19.000,16.000,0.000,0.000,0.000,0.000,0.000;
#CREDIT:;
#NOTES:
0010
1000
0100
1000
0010
0100
0001
0100
,
0010
1000
0001
1000
0100
0010
0100
1000
,
0001
0100
0010
1000
0001
0010
0100
0001
,
0100
1000
0001
0100
0010
0100
0001
0010
,
0100
1000
0001
0100
0010
0100
0001
0010
,
0100
1000
0010
0100
1000
0100
0010
1000
,
0001
0010
0100
0010
0001
0100
0010
1000
,
0001
0010
0100
1000
0010
0100
0001
1000
,
0010
0000
0100
0001
0100
0000
0010
0000
1000
0000
0001
0010
0001
0000
0010
0000
,
0100
0000
1000
0010
1000
0000
0010
0000
0100
0000
0001
1000
0100
0000
1000
0000
,
0010
0000
0100
0001
0010
0000
0100
0000
1000
0000
0001
0100
0010
0000
0100
0000
,
0001
0000
0010
0100
1000
0000
0001
0100
0010
0000
1000
0000
0001
0000
0010
0000
,
0220
0000
0000
0330
,
0001
0100
0010
0000
0100
0001
0010
0000
,
0100
1000
0001
0000
0100
1000
0100
0000
,
0001
1000
0100
0000
0010
0100
1000
0000
,
0001
0100
0010
0000
1000
0001
0010
0100
,
1000
0100
0010
0000
0001
0100
0010
0000
,
0100
0001
0010
0000
0100
1000
0001
0000
,
0100
0010
1000
0000
0001
0010
0100
0000
,
1000
0010
0100
0000
0001
0100
0010
1000
,
0001
0010
0100
1000
0100
0010
0001
1000
,
0010
0100
0001
0010
0100
1000
0010
0100
,
0001
0010
0001
0000
0001
1000
0001
0000
,
1000
0100
1000
0000
1000
0010
0100
0001
,
0100
0010
1000
0001
0010
0100
1000
0000
,
0100
0010
0001
1000
0010
0100
0001
0000
,
1000
0010
0100
0000
0001
0010
0100
0000
,
1000
0100
0010
0001
1000
0010
0100
0001
,
1000
0100
0010
0001
1000
0100
0001
0100
,
0010
0001
0100
0010
0100
0001
0010
0100
,
1000
0010
1010
0000
0100
0001
0101
0000
,
0001
0000
0010
0000
0011
0000
0000
0000
1000
0000
0100
0000
1000
0010
0100
0001
,
0010
0001
0100
1000
0100
0001
0010
0100
,
1000
0100
0010
0001
1000
0010
0100
0001
,
0010
0100
0100
1000
0001
0001
0100
0010
,
0010
1000
0001
0001
0010
0100
1000
0001
,
0100
0000
0000
0010
0000
0000
0110
0000
0010
0000
1000
0100
0001
0000
0100
0000
,
1000
0000
0000
0010
0000
0000
0110
0000
1000
0000
0100
0001
0100
0000
0010
0000
,
1000
0000
0000
0001
0000
0000
1001
0000
0001
0010
0000
0010
0001
0000
0100
0000
,
0010
0000
0000
1000
0000
0000
1100
0000
0001
0100
1000
0100
0001
0000
0100
0000
,
0010
0000
0000
0001
0000
0000
1001
0000
1000
0000
0010
0100
0001
0000
0100
0000
,
0010
0000
0000
1000
0000
0000
1001
0000
0001
0000
0010
0100
0010
0000
0001
0000
,
0100
0000
0000
0010
0000
0000
1010
0000
1000
0000
0001
0100
0010
0000
0100
0000
,
0001
0000
0000
0000
0000
0000
0000
0000
0000
0010
0000
0000
0000
0000
0000
0000
0000
0000
0110
0000
0000
0000
0000
0000
0001
0000
0000
0000
0100
0000
0000
0000
1000
0000
0000
0000
0001
0000
0000
0000
0100
0000
0000
0000
1000
0000
0000
0000
,
0100
0010
1000
0100
0010
0100
1000
0001
,
0100
0010
0100
0001
0010
0100
1000
0010
,
0100
0001
0010
0000
0010
0001
0100
0000
,
0100
0010
1000
0000
1000
0001
0010
0100
,
1000
0100
0010
0001
1000
0010
0100
0001
,
0100
0010
1000
0001
0010
0100
1000
0100
,
0010
0001
1000
0000
1000
0010
0100
0000
,
0100
0001
0010
0000
0010
0001
0100
0010
,
1000
0001
0010
0100
1000
0100
0010
0001
,
1000
0010
0100
0001
0100
0010
0100
0001
,
0010
0100
1000
0100
0010
0001
0100
1000
,
0100
0001
0010
0100
0001
0100
0010
0001
,
0100
0010
0100
0001
0010
0100
1000
0001
,
0100
0010
0100
0001
0010
0100
0001
0100
,
0010
0001
0100
0010
1000
0010
1000
0100
,
0010
0100
1000
0001
0100
0010
1000
0001
,
2002
0000
3003
0000
2200
0000
3300
0000
0202
0000
0303
0000
,
0022
0000
0033
0000
2200
0000
3300
0000
0220
0000
0330
0000
,
2002
0000
0000
0000
0000
0000
0000
0000
3003
0000
0000
0000
;

//---------------dance-single - ----------------
#NOTEDATA:;
#CHARTNAME:;
#STEPSTYPE:dance-single;
#DESCRIPTION:;
#CHARTSTYLE:;
#DIFFICULTY:Medium;
#METER:11;
#RADARVALUES:0.526,0.520,0.051,0.020,0.071,354.000,5.000,2.000,0.000,0.000,0.000,0.000,0.000,0.526,0.520,0.051,0.020,0.071,354.000,5.000,2.000,0.000,0.000,0.000,0.000,0.000;
#CREDIT:;
#NOTES:
0010
1000
0100
0000
1000
0001
0100
0000
,
0010
0100
0001
0000
0010
0100
1000
0000
,
0100
0010
0001
0000
1000
0010
0100
0000
,
0001
0100
0010
0000
1000
0000
1000
0000
,
0001
0010
0100
0000
0010
0001
0100
0000
,
0010
1000
0001
0000
0010
0100
0001
0000
,
0100
0010
0001
0000
0100
0010
1000
0000
,
0001
0010
0100
0000
1000
0000
0010
0000
,
0100
0000
0001
0000
0100
0010
0110
0000
,
0010
0000
1000
0000
0001
0010
0011
0000
,
0001
0100
0101
0000
1000
0100
1100
0000
,
0100
0010
1000
0100
0010
0100
1000
0001
,
0200
0010
0010
0310
,
1000
0100
0010
0001
,
0100
0010
0100
0001
,
0010
0100
1000
0000
0001
0100
0010
0000
,
0100
0001
0010
0000
0100
1000
0001
0100
,
0010
1000
0001
0010
,
0100
1000
0100
0010
,
0001
1000
0010
0000
0100
0001
0100
0000
,
0010
1000
0001
0000
0010
0100
1000
0100
,
0010
0000
0001
0000
0100
0010
0100
0000
,
0001
0000
0010
0000
0100
1000
0001
0000
,
0100
0000
0010
0000
1000
0001
0010
0000
,
0100
0000
1000
0100
0010
0001
1000
0000
,
0010
0000
0100
0000
0001
0100
0010
0000
,
1000
0000
0001
0000
0010
0100
1000
0000
,
0100
0000
0010
0000
0001
1000
0010
0000
,
0100
0000
0001
0010
0100
0010
0001
0100
,
0010
1000
0100
0000
1000
0010
0100
0000
,
0001
0010
0100
0000
1000
0010
0100
0000
,
0001
0010
0100
1000
,
0100
0010
0001
0000
1000
0010
0100
0000
,
0001
0100
0010
0000
1000
0001
0010
0000
,
0100
1000
0100
0000
0010
0001
1000
0000
,
0010
0100
0001
0100
,
0010
1000
0010
0000
0100
0001
0100
0000
,
0010
0000
0000
0010
0000
0000
0010
0000
1000
0000
0001
0000
0100
0000
0000
0000
,
1000
0000
0000
1000
0000
0000
1000
0000
0100
0000
0010
0000
1000
0000
0000
0000
,
0001
0000
0000
0001
0000
0000
0001
0000
0100
0000
0010
0000
1000
0000
0000
0000
,
0100
0000
0000
0100
0000
0000
0100
0000
1000
0000
0010
0000
0100
0000
0000
0000
,
0001
0000
0000
0001
0000
0000
0001
0000
0010
0000
0100
0000
0001
0000
0000
0000
,
1000
0000
0000
1000
0000
0000
1000
0000
0001
0000
0100
0000
1000
0000
0000
0000
,
0010
0000
0000
0010
0000
0000
0010
0000
1000
0000
0100
0000
0001
0000
0000
0000
,
0100
0000
0000
0000
0000
0000
0000
0000
0000
0100
0000
0000
0000
0000
0000
0000
0000
0000
0100
0000
0000
0000
0000
0000
0010
0000
0000
0000
0000
0000
0000
0000
0010
0000
0000
0000
0001
0000
0000
0000
0000
0000
0000
0000
0001
0000
0000
0000
,
1000
0010
0100
0001
,
0100
0010
1000
0001
,
0010
0100
0010
0000
0001
0100
0010
0000
,
0100
0001
0010
0000
0100
1000
0001
0100
,
0010
0100
0001
0010
,
0100
1000
0001
0100
,
0010
1000
0001
0000
1000
0010
0100
0000
,
0001
0100
0010
0000
1000
0100
0010
0100
,
0001
0100
1000
0001
0100
0010
0100
0000
,
0001
0010
0100
0010
0001
0100
0010
0000
,
0100
0001
0010
0100
1000
0001
0100
0000
,
0010
1000
0001
0000
1000
0010
0100
0000
,
0001
0100
0010
1000
0001
0010
0100
0000
,
0010
0001
0100
0010
1000
0001
0010
0000
,
0100
1000
0100
0000
0010
0001
1000
0000
,
0010
0100
0001
0000
0100
0010
1000
0000
,
1001
0000
0000
0000
0100
0000
0000
0000
0010
0000
0000
0000
,
0001
0000
0000
0000
0100
0000
0000
0000
0010
0000
0000
0000
,
2000
0000
0000
0000
0000
0000
0000
0000
3000
0000
0000
0000
;

//---------------dance-single - ----------------
#NOTEDATA:;
#CHARTNAME:;
#STEPSTYPE:dance-single;
#DESCRIPTION:;
#CHARTSTYLE:;
#DIFFICULTY:Easy;
#METER:8;
#RADARVALUES:0.369,0.325,0.184,0.071,0.020,228.000,18.000,7.000,0.000,0.000,0.000,0.000,0.000,0.369,0.325,0.184,0.071,0.020,228.000,18.000,7.000,0.000,0.000,0.000,0.000,0.000;
#CREDIT:;
#NOTES:
0010
1000
0100
1000
,
0001
0100
0010
0100
,
0001
0010
0100
1000
,
0001
0100
0010
0100
,
0001
0010
0100
0001
,
0100
0010
0001
1000
,
0010
0100
1000
0100
,
0010
1000
0001
0010
,
0100
0000
0010
0000
0001
0100
0010
0000
,
0100
0000
0001
0000
0010
0100
1000
0000
,
0001
0000
0100
0000
0010
1000
0001
0000
,
1000
0000
0010
0000
0100
0001
1000
0000
,
2002
0000
3003
0000
,
1000
0010
0100
0100
,
0010
1000
0001
0001
,
0010
0000
0100
0000
,
0001
0000
0100
0000
,
1000
0001
0100
0100
,
0010
0010
1000
1000
,
0001
0001
0010
0010
,
0100
0100
1000
1000
,
0001
0100
0010
0100
,
0001
1000
0100
0010
,
0100
0100
1000
1000
,
0010
0010
0100
0100
,
0001
0010
0100
0010
,
0001
1000
0010
0100
,
0001
0001
0010
0010
,
0100
0100
1000
1000
,
0001
0100
1000
0100
,
0001
0010
1000
0010
,
0100
1000
0010
0100
,
0001
0010
0100
0010
,
0001
1000
0010
0010
,
1000
0100
0010
0010
,
0001
1000
0100
0100
,
1000
0001
0100
0010
,
1001
0000
1001
0000
,
0110
0000
0110
0000
,
1010
0000
1010
0000
,
0101
0000
0101
0000
,
1100
0000
1100
0000
,
0011
0000
0011
0000
,
0101
0000
1010
0000
,
0110
0000
1001
0000
,
1000
0100
0010
0010
,
0100
1000
0001
0001
,
0100
0010
0100
0100
,
0001
0010
1000
1000
,
0010
0001
0100
0010
,
1000
0001
0010
0001
,
0100
0010
1000
0100
,
0010
0100
0001
0100
,
0010
0001
0100
0100
,
0010
1000
0200
0000
,
1300
0001
0100
0100
,
0001
0010
0200
0000
,
0310
0001
0100
1000
,
0100
0001
0020
0000
,
0031
1000
0020
0000
,
1030
0100
0010
0001
,
1001
0000
0000
0000
0010
0000
0000
0000
0100
0000
0000
0000
,
0001
0000
0000
0000
0010
0000
0000
0000
0100
0000
0000
0000
,
2000
0000
0000
0000
0000
0000
0000
0000
3000
0000
0000
0000
;

//---------------dance-single - ----------------
#NOTEDATA:;
#CHARTNAME:;
#STEPSTYPE:dance-single;
#DESCRIPTION:;
#CHARTSTYLE:;
#DIFFICULTY:Beginner;
#METER:4;
#RADARVALUES:0.131,0.161,0.102,0.041,0.000,76.000,10.000,4.000,0.000,0.000,0.000,0.000,0.000,0.131,0.161,0.102,0.041,0.000,76.000,10.000,4.000,0.000,0.000,0.000,0.000,0.000;
#CREDIT:;
#NOTES:
1000
0000
0000
0000
,
0100
0000
0000
0000
,
0010
0000
0000
0000
,
0001
0000
0000
0000
,
1000
0000
0000
0000
,
0010
0000
0000
0000
,
0100
0000
0000
0000
,
0001
0000
0000
0000
,
2002
0000
0000
0000
,
0000
0000
3003
0000
,
0010
0000
0010
0000
,
0100
0000
0100
0000
,
0100
0000
0000
0000
,
0010
0000
0000
0000
,
0010
0000
0000
0000
,
0100
0000
0100
0000
,
0100
0000
0000
0000
,
0001
0000
0000
0000
,
0001
0000
0000
0000
,
1000
0000
1000
0000
,
1000
0000
0000
0000
,
0010
0000
0000
0000
,
0100
0000
0000
0000
,
0001
0000
0000
0000
,
1000
0000
0000
0000
,
0100
0000
0000
0000
,
0010
0000
0000
0000
,
0001
0000
0000
0000
,
1000
0000
0000
0000
,
0001
0000
0001
0000
,
0001
0000
0000
0000
,
0100
0000
0100
0000
,
0100
0000
0000
0000
,
0010
0000
0010
0000
,
0010
0000
0000
0000
,
1000
0000
1000
0000
,
1000
0000
0000
0000
,
1001
0000
0000
0000
,
1001
0000
0000
0000
,
0110
0000
0000
0000
,
0110
0000
0000
0000
,
1001
0000
0000
0000
,
0110
0000
0000
0000
,
0110
0000
0000
0000
,
1001
0000
0000
0000
,
0001
0000
0001
0000
,
0100
0000
0100
0000
,
0001
0000
0000
0000
,
0100
0000
0000
0000
,
0010
0000
0010
0000
,
1000
0000
1000
0000
,
0010
0000
0000
0000
,
1000
0000
0000
0000
,
0001
0000
0010
0000
,
0100
0000
1000
0000
,
0100
0000
0010
0000
,
0001
0000
0000
0000
,
1000
0000
0000
0000
,
0010
0000
0000
0000
,
0100
0000
0000
0000
,
0001
0000
0000
0000
,
2002
0000
0000
0000
,
0000
0000
0000
0000
,
3003
0000
0000
0000
;

//---------------dance-single - Blank----------------
#NOTEDATA:;
#CHARTNAME:Blank;
#STEPSTYPE:dance-single;
#DESCRIPTION:Blank;
#CHARTSTYLE:;
#DIFFICULTY:Challenge;
#METER:17;
#RADARVALUES:0.882,0.942,0.286,0.112,0.653,566.000,28.000,11.000,0.000,0.000,0.000,0.000,0.000,0.882,0.942,0.286,0.112,0.653,566.000,28.000,11.000,0.000,0.000,0.000,0.000,0.000;
#CREDIT:Blank;
#NOTES:
// measure 0
0010
1000
0100
0001
0100
1000
0010
0100
,  // measure 1
0001
0100
0010
1000
0001
0010
0100
0010
,  // measure 2
0001
0100
0010
1000
0001
0010
0100
1000
,  // measure 3
0100
0010
0001
0100
0010
0100
0001
0010
,  // measure 4
0100
0001
0100
1000
0010
0100
1000
0100
,  // measure 5
0010
1000
0001
0010
0100
1000
0100
0010
,  // measure 6
0001
1000
0010
0100
0001
0010
0001
0100
,  // measure 7
0010
1000
0001
0010
0100
1000
0010
0100
,  // measure 8
0101
0000
0001
0010
0100
0010
0001
0100
0010
0000
0100
0001
0010
0100
1000
0010
,  // measure 9
0100
0000
0001
0100
0010
1000
0001
0010
0100
0000
1000
0100
0010
0100
1000
0010
,  // measure 10
0100
0000
0001
0100
1000
0100
0010
1000
0001
0000
0010
0100
0010
0001
0100
0010
,  // measure 11
1000
0000
0001
0010
0100
1000
0100
0010
0001
0000
1000
0010
0100
0000
0001
0000
,  // measure 12
0020
0100
0100
0130
,  // measure 13
0001
0100
1000
0010
0100
1000
0100
0001
,  // measure 14
0010
0100
0001
0100
1000
0010
0100
0001
,  // measure 15
1000
0000
0010
0000
0100
0000
0001
0000
0010
0000
0100
0000
1000
0000
0100
0010
,  // measure 16
0100
0000
1000
0000
0010
0000
0100
0000
0001
0000
0010
0000
0100
1000
0001
1000
,  // measure 17
0100
0010
0001
0100
1000
0100
0001
0010
,  // measure 18
0100
1000
0010
0100
0001
0010
0100
1000
,  // measure 19
0010
0000
0100
0000
0001
0000
0100
0000
0010
0000
1000
0000
0001
1000
0010
0100
,  // measure 20
0001
0010
0100
1000
0100
0010
0001
0100
,  // measure 21
0010
0000
0000
1000
0100
0000
0000
1000
0001
0000
0000
0100
0010
0000
0000
1000
,  // measure 22
0100
0000
0000
0010
0001
0000
0000
0100
0010
0000
0000
0100
0001
0000
0000
0010
,  // measure 23
0100
0000
1000
0000
0010
0000
0100
0000
0001
0000
0100
0000
0010
0000
1000
0001
,  // measure 24
0010
0000
0100
0000
1000
0000
0010
0000
0100
0000
0001
0000
0100
0010
1000
0001
,  // measure 25
0010
0100
1000
0100
0010
0001
0100
0010
,  // measure 26
1000
0100
0001
0100
0010
0001
0100
0010
,  // measure 27
1000
0000
0001
0100
0010
0000
1000
0000
0100
0000
1000
0000
0010
0000
0100
0001
,  // measure 28
1000
0100
0010
0001
1000
0010
0100
0001
,  // measure 29
0100
0000
0010
1000
0000
0100
1000
0000
0010
0000
0100
0001
0000
0010
0001
0000
,  // measure 30
0100
0000
0010
1000
0000
0001
0010
0000
0100
0000
0001
0100
0000
1000
0100
0000
,  // measure 31
0010
0000
0001
0100
0000
0010
1000
0000
0001
0000
0010
0100
0000
0001
0100
0000
,  // measure 32
1000
0000
0100
1000
0000
0010
0100
0000
0001
0000
0010
0100
0000
1000
0010
0100
,  // measure 33
0001
0000
0010
0100
0000
0010
0001
0000
1000
0000
0010
0100
0000
0010
1000
0000
,  // measure 34
0001
0000
0010
0100
0000
0010
0001
0000
1000
0000
0010
0100
0000
0001
1000
0000
,  // measure 35
0001
0010
0100
1000
0010
0100
0001
0100
,  // measure 36
0010
0000
1000
0000
0100
0000
0001
0000
0100
0000
1000
0010
1000
0000
0001
0000
,  // measure 37
0101
0000
0000
1001
0000
0000
1100
0000
1000
0010
0100
0001
1000
0000
0100
0000
,  // measure 38
1100
0000
0000
0011
0000
0000
0101
0000
0010
1000
0100
0001
0100
0000
0010
0000
,  // measure 39
0011
0000
0000
0101
0000
0000
1100
0000
1000
0010
0000
0100
0001
0000
0100
0000
,  // measure 40
0110
0000
0000
1010
0000
0000
1001
0000
0001
0010
0100
1000
0000
0100
0001
0000
,  // measure 41
0101
0000
0000
0110
0000
0000
1001
0000
0001
0100
0010
1000
0001
0000
0010
0000
,  // measure 42
0110
0000
0000
1100
0000
0000
0101
0000
1000
0010
1000
0010
1000
0000
0001
0000
,  // measure 43
0011
0000
0000
1001
0000
0000
1100
0000
1000
0010
0000
0100
0001
0000
0100
0000
,  // measure 44
0110
0000
0000
0000
0000
0000
0000
0000
0000
1001
0000
0000
0000
0000
0000
0000
0000
0000
0110
0000
0000
0000
0000
0000
0001
0000
0000
0000
0100
0000
0000
0000
1000
0000
0000
0000
0100
0000
0000
0000
0010
0000
0000
0000
1000
0000
0000
0000
,  // measure 45
0001
0010
0100
1000
0100
0010
0001
0100
,  // measure 46
0010
0100
0001
0010
0100
0001
0100
1000
,  // measure 47
0001
0000
0100
0000
0010
0000
0100
0000
0001
0000
0010
0000
0100
0000
1000
0001
,  // measure 48
1000
0000
0010
0000
0100
0000
0001
0000
0010
0000
0100
0000
1000
0010
1000
0010
,  // measure 49
1000
0001
0100
0010
1000
0001
0010
0100
,  // measure 50
1000
0100
0010
0001
1000
0010
0100
0001
,  // measure 51
0010
0000
0100
0000
1000
0000
0100
0000
0010
0000
0001
0000
1000
0000
0010
0001
,  // measure 52
0010
0000
0100
0000
0001
0000
0010
0000
0100
0000
1000
0000
0001
0100
0001
0000
,  // measure 53
1000
0000
0010
0100
0000
0001
0100
0010
1000
0000
0001
0010
0000
0100
0010
0001
,  // measure 54
1000
0000
0010
0100
0000
0001
0100
0010
1000
0000
0001
0010
0000
0100
0001
0100
,  // measure 55
0010
0000
0001
0100
0000
0010
1000
0100
0010
0000
0100
1000
0000
0010
0100
0001
,  // measure 56
0010
0000
0001
0100
0000
0100
0001
0010
0100
0000
1000
0010
0000
0010
1000
0100
,  // measure 57
0010
0001
0100
1000
0100
0010
1000
0100
,  // measure 58
0001
0100
0010
0001
0100
0010
1000
0100
,  // measure 59
0001
0100
0010
0001
0100
1000
0100
0010
,  // measure 60
1000
0000
0100
0000
0010
0000
0001
0000
1000
0000
0010
0000
1000
0001
1000
0001
,  // measure 61
2000
0000
0000
0000
3020
0000
0000
0000
0230
0000
0000
0000
,  // measure 62
0302
0000
0003
0000
2002
0000
3003
0000
0220
0000
0330
0000
,  // measure 63
2002
0000
0000
0000
0000
0000
0000
0000
3003
0000
0000
0000
;
