#VERSION:0.81;
#TITLE:Radio Song;
#SUBTITLE:;
#ARTIST:Superbus;
#TITLETRANSLIT:;
#SUBTITLETRANSLIT:;
#ARTISTTRANSLIT:;
#GENRE:Pop-Rock;
#ORIGIN:;
#CREDIT:;
#BANNER:Radio Song.png;
#BACKGROUND:Radio Song-bg.png;
#PREVIEWVID:Video Preview.avi;
#JACKET:Radio Song-jacket.png;
#CDIMAGE:;
#DISCIMAGE:;
#LYRICSPATH:;
#CDTITLE:;
#MUSIC:Radio Song.mp3;
#OFFSET:-0.055;
#SAMPLESTART:24.280;
#SAMPLELENGTH:15.000;
#SELECTABLE:YES;
#BPMS:0.000=158.000;
#STOPS:;
#DELAYS:;
#WARPS:;
#TIMESIGNATURES:0.000=4=4;
#TICKCOUNTS:0.000=4;
#COMBOS:0.000=1;
#SPEEDS:0.000=1.000=0.000=0;
#SCROLLS:0.000=1.000;
#FAKES:;
#LABELS:0.000=Song Start;
#BGCHANGES:-0.500=Radio Song.avi=1.000=0=0=0=StretchNoLoop====,
99999=-nosongbg-=1.000=0=0=0 // don't automatically add -songbackground-
;
#KEYSOUNDS:;
#ATTACKS:
;

//---------------dance-single - ----------------
#NOTEDATA:;
#CHARTNAME:;
#STEPSTYPE:dance-single;
#DESCRIPTION:;
#CHARTSTYLE:;
#DIFFICULTY:Hard;
#METER:12;
#RADARVALUES:0.689,0.622,0.551,0.070,0.070,542.000,71.000,9.000,0.000,0.000,0.000,0.000,0.000,0.689,0.622,0.551,0.070,0.070,542.000,71.000,9.000,0.000,0.000,0.000,0.000,0.000;
#CREDIT:;
#NOTES:
1000
0001
0001
0001
0001
0010
0010
0010
,
0100
1000
1000
1000
0010
0100
0010
0100
,
0001
0010
0010
0010
0010
0100
0100
0100
,
0020
0000
0032
0000
0103
0001
0100
0000
,
0010
1000
1000
1000
1000
0001
0001
0001
,
0010
0100
0100
0100
1000
0010
1000
0010
,
0100
0001
0001
0001
0001
1000
1000
1000
,
0200
0000
0000
0000
0310
0000
0100
1000
0001
0000
0100
0000
0110
0000
0000
0000
,
0010
1000
0010
1000
0001
0000
0011
0000
,
0001
0010
0001
0010
0100
0000
0110
0000
,
0100
1000
0010
0001
1000
0100
0001
0000
,
0100
0010
1000
0001
0010
0100
1000
0000
,
0010
1000
0010
1000
0001
0000
0011
0000
,
0010
0100
0010
0100
1000
0000
1010
0000
,
1000
0010
0001
1000
0100
0001
1000
0000
,
0001
0010
1000
0001
0100
1000
0001
0000
,
1010
0000
1001
0000
0011
0000
0010
0100
,
0010
0000
0100
1000
0000
1000
0001
0001
,
0100
0010
0100
0000
0110
0000
0010
1000
,
0001
0010
0100
0000
0110
0000
1001
0000
,
0011
0000
1100
0000
0101
0000
0100
1000
,
0100
0000
0010
0100
0000
1000
0100
0100
,
0010
0001
0100
0000
0110
0000
0010
1000
,
0100
0000
0001
0000
0100
0000
1000
0000
0100
0000
0010
0100
0010
0000
0100
0000
,
1000
0010
0010
0010
0010
0100
0100
0100
,
0001
0010
0010
0010
0100
0010
0100
0010
,
0100
1000
1000
1000
1000
0001
0001
0001
,
0100
0000
0000
0100
0010
0000
0100
0000
0010
0000
0100
0010
0100
0000
0010
1000
,
0010
1000
0010
1000
0001
0000
0011
0000
,
0001
0100
0001
0100
0010
0000
0110
0000
,
0010
1000
0100
0001
1000
0010
0100
0000
,
1000
0010
0001
1000
0100
0001
0010
0000
,
0100
0010
0100
0010
0001
0000
1001
0000
,
1000
0010
1000
0010
0100
0000
0110
0000
,
0010
1000
0001
0010
1000
0001
0100
0000
,
1000
0100
1000
0100
1000
0000
0100
0000
1000
0100
0010
0001
0100
0000
0010
0000
,
0110
0000
1010
0000
1001
0000
0001
0010
,
0001
0000
0010
0100
0000
0010
0100
0100
,
1000
0001
0100
0000
0101
0000
0001
1000
,
0100
0010
0100
0000
0110
0000
1001
0000
,
0011
0000
1010
0000
0101
0000
0100
1000
,
0100
0000
0010
0100
0000
1000
0100
0100
,
0010
0001
0100
0000
0101
0000
0001
1000
,
0100
0010
0001
0000
0101
0000
1001
0000
,
1010
0000
0110
0000
0011
0000
0010
1000
,
0100
0000
0010
0100
0000
0010
0001
0001
,
0100
0010
0100
0000
0110
0000
0010
1000
,
0001
0010
0100
0000
0110
0000
0100
0100
,
1100
0000
0011
0000
0101
0000
0001
1000
,
0001
0000
1000
0010
0000
0010
0100
0100
,
0001
0010
0001
0000
0011
0000
0010
0100
,
1000
0000
0001
0000
1000
0000
0000
0000
1001
0000
0001
1000
0001
0000
1000
0000
,
0100
0100
0100
0100
0010
0100
0010
0000
,
0100
0100
0100
0100
1000
0100
1000
0000
,
0001
0001
0001
0001
1000
0001
1000
0000
,
0002
0000
0023
0000
0130
0010
0100
0000
,
1000
1000
1000
1000
0001
1000
0001
0000
,
1000
1000
1000
1000
0100
1000
0100
0000
,
0010
0010
0010
0010
0100
0010
0100
0000
,
2000
0000
3200
0000
0310
0110
0000
0000
,
0010
0001
0010
0001
0100
0000
0110
0000
,
0010
1000
0010
1000
0100
0000
0110
0000
,
0010
0001
0100
1000
0001
0010
1000
0000
,
0001
1000
0010
1000
0010
0100
0001
0000
,
0010
0100
0010
0100
1000
0000
1001
0000
,
0001
0100
0001
0100
0010
0000
0110
0000
,
0010
1000
0010
1000
0010
0000
1000
0000
0010
1000
0010
1000
0010
0000
0100
0000
,
0220
0000
0000
0000
0000
0000
0000
0330
,
1001
0000
1100
0000
0101
0000
0100
0010
,
0100
0000
1000
0100
0000
0010
0001
0001
,
0100
0010
0100
0000
0110
0000
0010
1000
,
0001
0010
0001
0000
0011
0000
1100
0000
,
1010
0000
0110
0000
0011
0000
0010
1000
,
0001
0000
0010
0001
0000
0001
0100
0100
,
0010
1000
0001
0000
1001
0000
1000
0100
,
0010
0000
0001
0010
0001
0010
0001
0000
0010
0000
0100
0010
0100
0010
0100
0000
,
1000
1001
0110
1001
,
0001
0000
0010
0100
0000
0100
1000
1000
,
0010
0100
0010
0000
0110
0000
0100
0001
,
0010
0100
0010
0000
0110
0000
1001
0000
,
0110
1010
0101
0011
,
0010
0000
0100
1000
0000
1000
0001
0001
,
0100
0010
0100
0000
0110
0000
0010
1000
,
0001
0010
0100
0000
0110
0000
0011
0000
,
0001
0001
0001
0101
0000
0000
0000
0000
;

//---------------dance-single - ----------------
#NOTEDATA:;
#CHARTNAME:;
#STEPSTYPE:dance-single;
#DESCRIPTION:;
#CHARTSTYLE:;
#DIFFICULTY:Medium;
#METER:10;
#RADARVALUES:0.484,0.491,0.171,0.054,0.000,408.000,22.000,7.000,0.000,0.000,0.000,0.000,0.000,0.484,0.491,0.171,0.054,0.000,408.000,22.000,7.000,0.000,0.000,0.000,0.000,0.000;
#CREDIT:;
#NOTES:
1000
0000
0001
0000
1000
0001
1000
0000
,
0001
0000
0010
0000
0100
1000
0100
1000
,
0001
0000
1000
0000
0001
1000
0001
0000
,
0020
0230
2300
3001
,
1000
0000
0010
0000
0100
0010
0100
0000
,
0001
0000
0010
0000
0100
0010
0100
1000
,
0010
0000
0100
0000
0010
0100
0001
0000
,
0020
0000
0230
0000
1300
0100
1000
0000
,
0010
0010
1000
0001
,
0010
0010
0001
1000
,
0100
1000
0001
1000
0010
0100
0010
0000
,
0100
0001
1000
0001
0100
0010
0100
0000
,
0100
0100
0001
1000
,
0100
0100
1000
0001
,
0010
0001
1000
0001
0100
0010
0100
0000
,
0010
1000
0001
1000
0010
0100
0010
0000
,
0100
0001
0010
0100
,
1000
0000
0000
1100
0000
0000
0010
0000
,
0010
1000
0010
0000
0100
0000
0100
0000
,
0010
0100
0001
0000
0010
0000
0100
0000
,
0110
0010
0001
0100
,
0010
0000
0000
1010
0000
0000
1000
0000
,
0001
0100
0001
0000
1000
0000
1000
0000
,
0001
0100
0010
0000
1000
0000
1010
0000
,
1000
0000
1000
0000
0001
0010
0001
0000
,
1000
0000
1000
0000
0010
0100
0010
0100
,
0001
0000
0001
0000
1000
0010
1000
0000
,
0001
0010
0100
1000
0010
0100
0001
0000
,
0010
0010
0001
1000
,
0010
0010
1000
0001
,
0010
0001
1000
0001
0100
0010
0100
0000
,
0010
1000
0001
1000
0010
0100
0010
0000
,
0100
0100
0001
1000
,
0100
0100
1000
0001
,
0100
0001
1000
0001
0010
0100
0010
0000
,
0100
1000
0001
1000
0100
0010
0100
0010
,
0001
0100
0001
1000
,
0010
0000
0000
0110
0000
0000
0100
0000
,
0001
0010
0001
0000
0100
0000
0100
0000
,
0010
1000
0010
0000
0100
0000
0001
0000
,
0011
0010
0100
1000
,
0010
0000
0000
0110
0000
0000
0100
0000
,
0001
0100
0001
0000
0010
0000
0010
0000
,
0100
1000
0100
0000
0010
0000
0011
0000
,
0101
0100
0010
1000
,
0001
0000
0000
0011
0000
0000
0010
0000
,
0100
0010
0100
0000
0010
0000
0001
0000
,
0100
0010
0100
0000
0010
0000
1000
0001
,
1000
0001
0010
0001
,
1000
0000
0000
1010
0000
0000
0010
0000
,
0100
0001
1000
0000
0100
0000
0100
0000
,
0001
1000
0001
0000
0100
0000
0010
0000
,
0100
0100
0100
0100
0000
0000
0010
0000
,
0001
0001
0001
0001
0000
0000
0100
0000
,
0010
0010
0010
0010
0000
0000
1000
0000
,
0001
0000
0010
0000
0100
1000
0100
0000
,
1000
1000
1000
1000
0000
0000
0010
0000
,
0100
0100
0100
0100
0000
0000
0010
0000
,
0001
0001
0001
0001
0000
0000
0010
0000
,
1000
0000
0001
0000
1000
0001
0000
0000
,
0010
0010
0001
1000
,
0010
0010
1000
0001
,
0010
0001
1000
0001
0100
0010
0100
0000
,
0010
1000
0001
1000
0100
0010
0100
0000
,
0100
0100
1000
0001
,
0100
0100
0001
1000
,
0100
1000
0001
1000
0010
0100
0010
0000
,
0220
0000
0000
0330
,
1001
0001
0010
0001
,
0100
0000
0000
0110
0000
0000
0010
0000
,
1000
0010
1000
0000
0100
0000
0100
0000
,
0010
0001
0010
0000
0100
0000
0010
0000
,
1001
1000
0010
0100
,
0001
0000
0000
0011
0000
0000
0010
0000
,
0100
1000
0001
0000
0100
0000
0100
0000
,
1000
0001
1000
0001
0010
0100
0010
0100
,
0001
0010
0001
0100
,
0010
0000
0000
0110
0000
0000
0100
0000
,
0010
1000
0100
0000
1000
0000
0001
0000
,
0100
0001
0010
0000
0001
0000
1001
0000
,
0110
0010
1000
0001
,
0010
0000
0000
0011
0000
0000
0001
0000
,
0100
0010
1000
0000
0001
0000
0001
0000
,
1000
0010
0100
0000
0101
0000
0101
0000
,
0001
0001
0001
0001
0000
0000
0000
0000
;

//---------------dance-single - ----------------
#NOTEDATA:;
#CHARTNAME:;
#STEPSTYPE:dance-single;
#DESCRIPTION:;
#CHARTSTYLE:;
#DIFFICULTY:Easy;
#METER:6;
#RADARVALUES:0.356,0.458,0.427,0.016,0.000,264.000,55.000,2.000,0.000,0.000,0.000,0.000,0.000,0.356,0.458,0.427,0.016,0.000,264.000,55.000,2.000,0.000,0.000,0.000,0.000,0.000;
#CREDIT:;
#NOTES:
1000
0000
1000
0000
,
0001
0010
0001
0010
,
1000
0000
1000
0000
,
0010
0001
0010
0001
,
1000
0000
1000
0000
,
0001
0100
0001
0100
,
1000
0000
1000
0000
,
0100
0001
0100
0001
,
1000
1000
1000
0000
,
1000
1000
1000
0000
,
0001
0001
0001
0000
,
0001
0001
0001
0000
,
0100
0100
0100
0000
,
0100
0100
0100
0000
,
0010
0010
0010
0000
,
0110
0000
0000
0000
,
0010
1000
0001
0010
,
0100
0000
0110
0000
,
0010
0001
1000
0010
,
0100
0000
0110
0000
,
0100
0001
1000
0010
,
0100
0000
0110
0000
,
0100
0001
0010
0100
,
0110
0000
0110
0000
,
0001
0001
0001
0000
,
1000
0010
1000
0010
,
0001
0001
0001
0000
,
0010
1000
0010
1000
,
0001
0001
0001
0000
,
0001
0001
0001
0000
,
1000
1000
1000
0000
,
1000
1000
1000
0000
,
0010
0010
0010
0000
,
0010
0010
0010
0000
,
0100
0100
0100
0000
,
0100
0001
1000
0010
,
0100
0001
0010
0100
,
1000
0000
1001
0000
,
0001
0100
0010
1000
,
0001
0000
0011
0000
,
0010
0100
1000
0010
,
0100
0000
0110
0000
,
0010
0100
0001
0010
,
0100
0000
0110
0000
,
0100
1000
0010
0100
,
0001
0000
1001
0000
,
1000
0010
0100
0001
,
0010
0000
0110
0000
,
0100
1000
0010
0100
,
0110
0000
0110
0000
,
0100
0001
0010
0100
,
0110
0000
0110
0000
,
0100
0100
1000
1000
,
0100
0100
1000
1000
,
0010
0010
1000
1000
,
0010
1000
0001
0010
,
0001
0001
0010
0010
,
0001
0001
0010
0010
,
0001
0001
0100
0100
,
0001
0001
0101
0000
,
0001
0000
1010
0000
,
1000
0000
0011
0001
,
1000
0000
0101
0000
,
0001
0000
1100
1000
,
0001
0000
1010
0000
,
1000
0000
0011
0001
,
1000
0000
0101
0000
,
2002
0000
0000
3003
,
0110
0010
1000
0100
,
0010
0000
0110
0000
,
0010
0001
0100
0010
,
0100
0000
0110
0000
,
0100
0001
1000
0001
,
0100
0000
0110
0000
,
0010
1000
0001
1000
,
0100
0000
0110
0000
,
0010
0011
0011
0011
,
0001
0101
0101
0101
,
0100
0110
0110
0110
,
0010
1010
1010
1010
,
1000
1001
1001
1001
,
0001
0011
0011
0011
,
0010
0110
0110
0110
,
0100
1100
1100
1100
,
1000
0000
0000
1001
0000
0000
0000
0000
;

//---------------dance-single - ----------------
#NOTEDATA:;
#CHARTNAME:;
#STEPSTYPE:dance-single;
#DESCRIPTION:;
#CHARTSTYLE:;
#DIFFICULTY:Beginner;
#METER:4;
#RADARVALUES:0.151,0.196,0.163,0.016,0.000,113.000,21.000,2.000,0.000,0.000,0.000,0.000,0.000,0.151,0.196,0.163,0.016,0.000,113.000,21.000,2.000,0.000,0.000,0.000,0.000,0.000;
#CREDIT:;
#NOTES:
// measure 0
1000
0000
0000
0000
,  // measure 1
1000
0000
0000
0000
,  // measure 2
0100
0000
0000
0000
,  // measure 3
0100
0000
0000
0000
,  // measure 4
0001
0000
0000
0000
,  // measure 5
0001
0000
0000
0000
,  // measure 6
0100
0000
0000
0000
,  // measure 7
0100
0000
0000
0000
,  // measure 8
1000
0000
1000
0000
,  // measure 9
1000
0000
1000
0000
,  // measure 10
0001
0000
0000
0000
,  // measure 11
0001
0000
0000
0000
,  // measure 12
0010
0000
0010
0000
,  // measure 13
0010
0000
0010
0000
,  // measure 14
0100
0000
0000
0000
,  // measure 15
0100
0000
0000
0000
,  // measure 16
1001
0000
0000
0000
,  // measure 17
0100
0000
0000
0000
,  // measure 18
0010
0000
0000
0000
,  // measure 19
0100
0000
0000
0000
,  // measure 20
1001
0000
0000
0000
,  // measure 21
0010
0000
0000
0000
,  // measure 22
0100
0000
0000
0000
,  // measure 23
0010
0000
0000
0000
,  // measure 24
0001
0000
0000
0000
,  // measure 25
0001
0000
0000
0000
,  // measure 26
1000
0000
0000
0000
,  // measure 27
1000
0000
0000
0000
,  // measure 28
0001
0000
0001
0000
,  // measure 29
0001
0000
0001
0000
,  // measure 30
1000
0000
0000
0000
,  // measure 31
1000
0000
0000
0000
,  // measure 32
0100
0000
0100
0000
,  // measure 33
0100
0000
0100
0000
,  // measure 34
0010
0000
0010
0000
,  // measure 35
0010
0000
0010
0000
,  // measure 36
0110
0000
0000
0000
,  // measure 37
0001
0000
0000
0000
,  // measure 38
1000
0000
0000
0000
,  // measure 39
0001
0000
0000
0000
,  // measure 40
0110
0000
0000
0000
,  // measure 41
1000
0000
0000
0000
,  // measure 42
0001
0000
0000
0000
,  // measure 43
1000
0000
0000
0010
,  // measure 44
1001
0000
0000
0000
,  // measure 45
0010
0000
0000
0000
,  // measure 46
0100
0000
0000
0000
,  // measure 47
0010
0000
0000
0000
,  // measure 48
1001
0000
0000
0000
,  // measure 49
0100
0000
0000
0000
,  // measure 50
0010
0000
0000
0000
,  // measure 51
0100
0000
0000
0100
,  // measure 52
0001
0000
0001
0000
,  // measure 53
1000
0000
1000
0000
,  // measure 54
0010
0000
0010
0000
,  // measure 55
0100
0000
0100
0000
,  // measure 56
0010
0000
0010
0000
,  // measure 57
1000
0000
1000
0000
,  // measure 58
0001
0000
0001
0000
,  // measure 59
0100
0000
0100
0000
,  // measure 60
0000
0000
0110
0000
,  // measure 61
0000
0000
1010
0000
,  // measure 62
0000
0000
0011
0000
,  // measure 63
0000
0000
0110
0000
,  // measure 64
0000
0000
1001
0000
,  // measure 65
0000
0000
1100
0000
,  // measure 66
0000
0000
0101
0000
,  // measure 67
2002
0000
0000
3003
,  // measure 68
0110
0000
0000
0000
,  // measure 69
1000
0000
0000
0000
,  // measure 70
0001
0000
0000
0000
,  // measure 71
1000
0000
0000
0000
,  // measure 72
0110
0000
0000
0000
,  // measure 73
0001
0000
0000
0000
,  // measure 74
1000
0000
0000
0000
,  // measure 75
0001
0000
0000
0000
,  // measure 76
1001
0000
0010
0000
,  // measure 77
0100
0000
0010
0000
,  // measure 78
1001
0000
0100
0000
,  // measure 79
0010
0000
0100
0000
,  // measure 80
0110
0000
1000
0000
,  // measure 81
0001
0000
1000
0000
,  // measure 82
0110
0000
0001
0000
,  // measure 83
1000
0000
0001
0000
,  // measure 84
1001
0000
0000
0000
;
