#TITLE:Race Against Time;
#SUBTITLE:;
#ARTIST:Jeff Steinman;
#TITLETRANSLIT:;
#SUBTITLETRANSLIT:;
#ARTISTTRANSLIT:;
#GENRE:Orchestral;
#CREDIT:;
#BANNER:Race Against Time.png;
#BACKGROUND:Race Against Time-bg.png;
#LYRICSPATH:;
#CDTITLE:./CDTITLES/Dance Dance Revolution ULTRAMIX4.png;
#MUSIC:Race Against Time.mp3;
#OFFSET:-0.526;
#SAMPLESTART:12.500;
#SAMPLELENGTH:15.000;
#SELECTABLE:YES;
#DISPLAYBPM:160.000;
#BPMS:0.000=159.970
;
#STOPS:
;
#BGCHANGES:;
#KEYSOUNDS:;
#ATTACKS:;

//---------------dance-single - ----------------
#NOTES:
     dance-single:
     :
     Beginner:
     3:
     0.123,0.158,0.047,0.019,0.000,85.000,5.000,2.000,0.000,0.000,0.000,0.123,0.158,0.047,0.019,0.000,85.000,5.000,2.000,0.000,0.000,0.000:
0000
0000
0000
0000
,
0000
0000
0000
0000
,
1000
0000
0000
0000
,
0001
0000
0000
0000
,
0100
0000
0100
0000
,
0100
0000
0000
0000
,
0010
0000
0010
0000
,
0010
0000
0000
0000
,
1001
0000
0000
0000
,
0100
0000
0000
0000
,
0001
0000
0000
0000
,
1000
0000
0000
0000
,
1001
0000
0000
0000
,
0100
0000
0000
0000
,
0001
0000
0000
0000
,
1000
0000
0000
0000
,
0100
0000
0000
0000
,
0010
0000
0000
0000
,
0100
0000
0000
0000
,
0010
0000
0000
0000
,
1001
0000
0000
0000
,
0001
0000
0000
0000
,
1000
0000
1000
0000
,
1000
0000
0000
0000
,
0001
0000
0001
0000
,
0100
0000
0100
0000
,
0010
0000
0010
0000
,
2000
0000
0000
3000
,
1000
0000
1000
0000
,
0100
0000
0100
0000
,
0010
0000
0010
0000
,
0002
0000
0000
0003
,
0001
0001
0001
0000
,
0000
0000
0000
0000
,
0100
0100
0100
0000
,
0000
0000
0000
0000
,
1000
1000
1000
0000
,
0000
0000
0000
0000
,
0010
0010
0010
0000
,
0000
0000
0000
0000
,
0100
0000
0000
0000
,
0010
0000
0000
0000
,
1000
0000
0001
0000
,
1000
0000
0000
0000
,
0100
0000
0000
0000
,
0010
0000
0000
0000
,
0001
0000
1000
0000
,
0001
0000
0000
0000
,
0100
0000
0000
0000
,
0010
0000
0000
0000
,
0100
0000
0000
0000
,
0010
0000
0000
0000
,
1000
0000
0001
0000
,
1000
0000
0000
0000
,
1000
0000
0001
0000
,
1000
0000
0000
0000
,
0001
0000
0000
0000
,
0100
0000
0000
0000
,
0010
0000
0000
0000
,
1000
0000
0000
0000
,
0100
0000
0100
0000
,
0100
0000
0000
0000
,
0010
0000
0010
0000
,
0010
0000
0000
0000
,
0000
0000
0000
0000
,
1000
0000
0000
0000
,
0001
0000
0000
0000
,
1001
0000
1001
0000
;

//---------------dance-single - ----------------
#NOTES:
     dance-single:
     :
     Easy:
     6:
     0.222,0.190,0.028,0.094,0.000,153.000,3.000,10.000,0.000,0.000,0.000,0.222,0.190,0.028,0.094,0.000,153.000,3.000,10.000,0.000,0.000,0.000:
0000
0000
0000
0000
,
0000
0000
0000
0000
,
0001
0000
1000
0000
,
0002
0000
0000
0003
,
1000
0000
0100
0000
,
0010
0000
0100
0000
,
0001
0000
0100
0000
,
0010
0000
0001
0000
,
1000
1000
0001
0001
,
0100
0000
0100
0000
,
1001
0000
0000
0100
,
0010
0000
0000
0000
,
1000
1000
0001
0001
,
0100
0000
0100
0000
,
1001
0000
0000
0100
,
0010
0000
0000
1000
,
0002
0000
0003
1000
,
0200
0000
0300
1000
,
0002
0000
0003
1000
,
0020
0000
0030
1000
,
0001
0000
0100
0000
,
0010
0000
1000
0000
,
0001
0000
0100
0000
,
0010
0000
1000
0000
,
0001
0000
0100
0100
,
0100
0000
0010
0000
,
1000
0000
0001
0100
,
0010
1000
0100
0000
,
1001
0000
0010
0000
,
0100
0100
0100
0000
,
2000
0000
0000
3000
,
0000
1000
0100
0010
,
0001
0000
0100
0000
,
0001
0000
1000
0000
,
0001
0000
0100
0000
,
0001
0000
1000
0000
,
0100
0100
0010
0000
,
0100
0100
1000
0000
,
0100
0100
0010
0000
,
0100
0100
1000
0000
,
0001
0000
0100
0000
,
1000
0000
0001
0000
,
0100
0000
0010
0000
,
1000
0000
0000
0000
,
0001
0100
0100
0000
,
0001
1000
1000
0000
,
0001
0100
0100
0000
,
0001
1000
1000
0000
,
1000
0000
0100
0000
,
0001
0000
0100
0000
,
1000
0000
0100
0000
,
0001
0000
0100
0000
,
1000
0001
1000
0000
,
0001
0100
0001
0000
,
1000
0001
1000
0000
,
0001
0100
0001
0000
,
0002
0000
0003
1000
,
0200
0000
0300
1000
,
0002
0000
0003
1000
,
0020
0000
0030
1000
,
0001
0000
0100
0000
,
0010
0000
1000
0000
,
0001
0000
0100
0000
,
0010
0000
1000
0000
,
0100
0010
0010
0000
,
0010
0001
0001
0000
,
0001
0100
0100
0000
,
0100
0010
1000
0000
;

//---------------dance-single - ----------------
#NOTES:
     dance-single:
     :
     Medium:
     8:
     0.371,0.381,0.141,0.131,0.000,248.000,15.000,14.000,0.000,0.000,0.000,0.371,0.381,0.141,0.131,0.000,248.000,15.000,14.000,0.000,0.000,0.000:
0000
0000
0000
0000
,
0000
0000
0000
0000
,
0002
0003
1001
0000
,
2000
3000
1001
0000
,
1000
0010
0100
0000
0100
0000
0000
0000
,
0001
1000
0001
0000
,
0001
0100
0010
0000
0010
0000
0000
0000
,
1000
0001
1000
0000
,
0101
0000
0000
1000
0010
0100
0000
0010
,
2000
0000
3000
0100
,
0010
0000
0001
1000
0100
0000
0000
0000
,
0100
0000
1000
0001
0010
0000
0000
0000
,
1100
0000
0000
0001
0100
0010
0000
0100
,
0002
0000
0003
0100
,
0010
0000
0010
1000
0001
0000
0000
0000
,
0100
0000
0100
0001
0010
0000
0000
0000
,
1000
0100
0010
0000
0000
0000
0001
0000
,
0010
0000
0100
0010
,
0001
0010
0100
0000
0000
0000
1000
0000
,
0100
0000
0100
0010
,
0001
0100
0001
0000
0100
0000
0100
0000
,
0010
1000
0100
1000
,
0001
0100
0001
0000
0010
0000
0010
0000
,
0100
1000
0010
1000
,
1001
0000
0000
0000
0100
1000
0100
1000
,
0020
0000
0000
0230
0000
0000
0300
0000
,
0101
0000
1100
0000
1000
0100
1000
0000
,
0001
0000
0001
0000
0100
0010
0100
0000
,
0010
1000
0100
0010
,
0001
0100
0010
1000
0000
0000
0100
0000
,
2002
0000
0000
3003
,
0000
1000
0010
0100
0001
0000
0100
0000
,
0010
0010
1001
0000
,
1000
0010
0100
0000
0001
0000
0000
0000
,
0100
0100
0110
0000
,
0010
0100
0001
0000
1000
0000
0000
0000
,
0001
1001
1000
0000
,
0010
0100
0010
0000
0110
0000
0000
0000
,
0010
0110
0100
0000
,
0001
1000
0001
0000
1001
0000
0000
0000
,
0100
0100
0001
0001
,
0100
0100
0001
0001
,
1100
0000
0000
0010
0200
0000
0310
2000
,
0000
3000
0100
0000
0010
0000
0001
0000
,
1000
0010
0100
0000
0100
0000
0000
0000
,
0001
1000
0001
0000
,
0001
0100
0010
0000
0010
0000
0000
0000
,
1000
0001
1000
0000
,
0001
0100
0010
1000
,
0100
0010
0100
0010
,
0001
0100
0010
1000
,
0100
0010
0100
0010
,
0100
1000
0010
0000
0100
0000
0100
0000
,
0001
0001
0010
0010
,
0100
1000
0010
0000
0100
0000
0100
0000
,
0001
0001
0010
0010
,
0001
0010
0100
0000
0000
0000
1000
0000
,
0100
0000
0010
0100
,
1000
0100
0010
0000
0000
0000
0001
0000
,
0010
0000
0100
0010
,
0001
1000
0001
0000
0100
0000
0010
0000
,
1000
1000
0001
0001
,
0100
0010
0100
0000
0010
0000
0010
0000
,
1000
1000
0100
0010
,
0002
0003
2000
3000
,
0020
0030
0200
0300
,
0001
0010
0100
1000
,
0100
0000
0010
0000
0001
1000
0000
0000
;

//---------------dance-single - ----------------
#NOTES:
     dance-single:
     :
     Hard:
     11:
     0.575,0.508,0.263,0.178,0.272,382.000,28.000,19.000,0.000,0.000,0.000,0.575,0.508,0.263,0.178,0.272,382.000,28.000,19.000,0.000,0.000,0.000:
0000
0000
0000
0000
,
0000
0000
0000
0000
,
0002
0000
0000
0000
0100
0000
0000
0000
0103
0000
0000
0010
0000
0000
0000
0000
,
2000
0000
0000
0000
0001
0000
0000
0000
3001
0000
0000
0010
0000
0000
0000
0000
,
0100
0000
0010
0000
0001
0000
0000
0000
0010
0000
0000
1001
0000
0000
0001
0000
,
0100
0000
0010
0000
1000
0000
0000
0000
0100
0000
0000
0110
0000
0000
0000
0000
,
0100
0000
0010
0000
0001
0000
0000
0000
0010
0000
0000
1001
0000
0000
0001
0000
,
0100
0000
0010
0000
1000
0000
0000
0000
0100
0000
0000
0110
0000
0000
0000
0000
,
0001
0010
0001
0100
0001
0010
0001
0100
,
0010
1000
0100
1000
0010
1000
0100
1000
,
0010
0000
0000
0000
1000
0010
1000
0010
1000
0000
0000
0100
0000
0000
0000
0000
,
0001
0000
0000
0000
0001
0100
0001
0100
0001
0000
0000
0010
0000
0000
0000
0000
,
1000
0010
1000
0100
1000
0010
1000
0100
,
0010
0001
0100
0001
0010
0001
0100
0001
,
0010
0000
0000
0000
0001
0010
0001
0010
0001
0000
0000
0100
0000
0000
0000
0000
,
0010
0000
0000
0000
1000
0100
1000
0100
1000
0000
0000
0010
0000
0000
0000
0000
,
0100
0000
0001
0000
0100
0000
1000
0000
0100
0000
0000
0110
0000
0000
0000
0000
,
0010
0000
1000
0000
0010
0000
0001
0000
0010
0000
0000
0110
0000
0000
0000
0000
,
1000
0000
0100
0000
0001
0000
0100
0000
1000
0000
0000
1100
0000
0000
0000
0000
,
0001
0000
0010
0000
1000
0000
0010
0000
0001
0000
0000
0011
0000
0000
0000
0000
,
1000
0000
0010
0000
0100
0000
0000
0000
0002
0000
0000
0023
0000
0000
0031
0000
,
0100
0000
0010
0000
1000
0000
0000
0000
0200
0000
0000
0320
0000
0000
0030
0000
,
0010
0000
0100
0000
0001
0000
0000
0000
0200
0000
0000
2300
0000
0000
3010
0000
,
0100
0000
0001
0000
1000
0000
0000
0000
0020
0000
0000
0230
0000
0000
0301
0000
,
0100
0100
0010
0010
,
1000
0000
0000
0000
0100
0000
0000
0000
0010
0000
0000
0000
0001
0000
0000
1000
,
0100
0100
0010
0010
,
0001
0000
0000
0000
0010
0000
0000
0000
0100
0000
0000
1000
0100
0000
0010
0000
,
0001
0001
1000
1000
,
0001
0000
0000
0000
1000
0000
0000
0000
0010
0000
0000
0000
0100
0000
0000
0010
,
1000
1000
0001
0001
,
0100
0000
0000
0000
0010
0000
0000
0000
1000
0000
0000
0001
0100
0000
0010
0000
,
0001
0000
0010
0000
0100
0000
0000
0000
0010
0000
0000
0110
0000
0000
1000
0000
,
0001
0000
0100
0000
0010
0000
0000
0000
1000
0000
0000
1010
0000
0000
0000
0000
,
0001
0000
0010
0000
0100
0000
0000
0000
0010
0000
0000
0110
0000
0000
1000
0000
,
0001
0000
0100
0000
0010
0000
0000
0000
1000
0000
0000
1010
0000
0000
0000
0000
,
0100
0000
0010
0000
0100
0000
0010
0000
0100
0000
0000
1001
0000
0000
0001
0000
,
0010
0000
0100
0000
1000
0000
0100
0000
0010
0000
0000
0110
0000
0000
0000
0000
,
0100
0000
0010
0000
0100
0000
0010
0000
0100
0000
0000
1001
0000
0000
0001
0000
,
0010
0000
0100
0000
1000
0000
0100
0000
0010
0000
0000
0110
0000
0000
0000
0000
,
0010
1000
0100
0000
0010
0001
0100
0000
,
0010
0100
0001
0000
0010
0100
1000
0000
,
0010
1000
0001
0000
0010
0001
1000
0000
,
0100
0000
0010
0000
0001
0000
0000
0000
0100
0010
0000
1000
0000
0000
0000
0000
,
0100
0000
0100
0000
0100
0000
0000
0000
0001
0000
0000
0110
0000
0000
0010
0000
,
1000
0000
0100
0000
1000
0000
0000
0000
0010
0000
0000
0101
0000
0000
0000
0000
,
1000
0000
1000
0000
1000
0000
0000
0000
0001
0000
0000
1001
0000
0000
0100
0000
,
0010
0000
0001
0000
0010
0000
0000
0000
0100
0000
0000
1010
0000
0000
0000
0000
,
0002
0100
1000
0103
,
2000
0000
0000
0000
0100
0000
0000
0000
0001
0000
0000
0000
3100
0000
0000
0001
,
0200
1000
0010
0301
,
0020
0000
0000
0000
1000
0000
0000
0000
0130
0000
0000
0001
0100
0000
0010
0000
,
1000
0100
1000
0001
1000
0100
1000
0010
,
0100
0001
0010
0100
1000
0010
0100
0000
,
0001
0010
0001
0100
0001
1000
0001
0100
,
0001
0010
0100
1000
0010
0100
0001
0000
,
0020
0000
0000
0000
1000
0000
0000
0000
0001
0000
0000
1030
0000
0000
0000
0000
,
0100
0000
0010
0000
0100
0000
0000
0000
0011
0000
0000
1100
0000
0000
0000
0000
,
0200
0000
0000
0000
0001
0000
0000
0000
1000
0000
0000
0301
0000
0000
0000
0000
,
0010
0000
0100
0000
0010
0000
0000
0000
1010
0000
0000
0101
0000
0000
0000
0000
,
1000
0000
0100
0000
0010
0000
0000
0000
0100
0000
0000
0110
0000
0000
0010
0000
,
0001
0100
0001
0000
1000
0000
0100
0000
1000
0000
0000
1001
0000
0000
0000
0000
,
0001
0000
0010
0000
0100
0000
0000
0000
0010
0000
0000
0110
0000
0000
0010
0000
,
1000
0100
1000
0000
0001
0000
0100
0000
0001
0000
0000
1001
0000
0000
0000
0000
,
2000
0010
0010
3010
,
0200
0001
0001
0301
,
2000
0010
0001
3010
,
0001
0000
0100
0000
0010
0000
1000
0000
0001
0100
1000
0100
0000
0000
0000
0000
;

//---------------dance-double - ----------------
#NOTES:
     dance-double:
     :
     Easy:
     5:
     0.193,0.190,0.019,0.019,0.000,140.000,2.000,2.000,0.000,0.000,0.000,0.193,0.190,0.019,0.019,0.000,140.000,2.000,2.000,0.000,0.000,0.000:
00000000
00000000
00000000
00000000
,
00000000
00000000
00000000
00000000
,
00000001
00000000
00000000
00000000
,
00000100
00000000
00000000
00000000
,
00001000
00000000
00010000
00000000
,
01000000
00000000
00010000
00000000
,
00001000
00000000
00000100
00000000
,
00001000
00000000
00010000
00000000
,
01000000
00000000
10000000
00000000
,
00100000
00000000
00010000
00000000
,
00001000
00000000
00000000
00001000
,
00000100
00000000
00000000
00000001
,
00000100
00000000
00001000
00000000
,
00010000
00000000
01000000
00000000
,
10000000
00000000
00000000
01000000
,
00100000
00000000
00000000
01000000
,
00010000
00000000
00000000
00001000
,
00010000
00000000
00001000
00000000
,
00000100
00000000
00000000
00000001
,
00000010
00000000
00000001
00000000
,
00000100
00000000
00001000
00000000
,
00010000
00000000
00001000
00000000
,
00010000
00000000
01000000
00000000
,
10000000
00000000
00100000
00000000
,
01000000
00000000
00010000
10000000
,
01000000
00000000
00010000
00000000
,
00001000
00000000
00000100
00000001
,
00001000
00000000
00000100
00000000
,
00000010
00000000
00000001
00000100
,
00001000
00000000
00010000
00000000
,
00001000
00000000
00000100
00000001
,
00000010
00000000
00000001
00000000
,
00000100
00001000
00010000
00000000
,
00001000
00000100
00001000
00000000
,
00010000
01000000
10000000
00000000
,
00100000
10000000
00100000
00000000
,
10000000
01000000
00100000
00000000
,
00100000
00010000
00100000
00000000
,
00010000
10000000
01000000
00000000
,
00010000
00001000
00010000
00000000
,
00001000
00000000
00000100
00000000
,
00000002
00000000
00000000
00000003
,
00000001
00000000
00000100
00000000
,
00002000
00000000
00000000
00003000
,
00010000
00000000
01000000
00000000
,
10000000
00000000
00100000
00000000
,
10000000
00000000
01000000
00000000
,
00010000
00000000
00001000
00000000
,
00000100
00000000
00000000
00000100
,
00001000
00000000
00000000
00000100
,
00000001
00000000
00000100
00000000
,
00001000
00000000
00000000
00000000
,
00000100
00000010
00000001
00000000
,
00000100
00000000
00001000
00000000
,
00010000
01000000
10000000
00000000
,
01000000
00000000
00010000
00000000
,
00001000
00000000
00000000
00001000
,
00000100
00000000
00001000
00000000
,
00010000
00000000
00000000
01000000
,
10000000
00000000
01000000
00000000
,
00010000
00000000
00001000
00000000
,
00000100
00000000
00000001
00000000
,
00000010
00000000
00000001
00000000
,
00000100
00000000
00001000
00000000
,
00011000
00000000
00000000
00000000
,
01100000
00000000
00000000
00000000
,
10000000
00000000
01000000
00000000
,
00010000
00001000
00000100
00000000
;

//---------------dance-double - ----------------
#NOTES:
     dance-double:
     :
     Medium:
     7:
     0.366,0.317,0.075,0.216,0.000,242.000,8.000,23.000,0.000,0.000,0.000,0.366,0.317,0.075,0.216,0.000,242.000,8.000,23.000,0.000,0.000,0.000:
00000000
00000000
00000000
00000000
,
00000000
00000000
00000000
00000000
,
00200000
00000000
00000000
00300000
20000000
00000000
00000000
30000000
,
02000000
00000000
00000000
03000000
00020000
00000000
00000000
00030000
,
00001000
00001000
00000100
00000010
,
00001000
00001000
00000100
00000010
,
00000001
00000001
00000100
00001000
,
00010000
00010000
01000000
10000000
,
10010000
00000000
00000000
01000000
00100000
00000000
00000000
01000000
,
00010000
00000000
00000000
00010000
00001000
00000000
00001000
00000000
,
00100000
00000000
00001000
00010000
,
00001000
00000000
00000100
00000001
,
00001001
00000000
00000000
00000100
00000010
00000000
00000000
00000100
,
00001000
00000000
00000000
00001000
00010000
00000000
00010000
00000000
,
00000100
00000000
00010000
00001000
,
00010000
00000000
00010000
01000000
,
10000000
01000000
20000000
00000000
00000000
00000000
31000000
00000000
,
00100000
00010000
00200000
00000000
00000000
00000000
01300000
00000000
,
10000000
01000000
20000000
00000000
00000000
00000000
31000000
00000000
,
00100000
00010000
00200000
00000000
00000000
00000000
00301000
00000000
,
00001000
00000100
00000001
00000100
,
00001000
00010000
00001000
00010000
,
01000000
10000000
01000000
00010000
,
00001000
00010000
00001000
00000100
,
00001001
00000000
00000000
00000000
00000001
00000100
00001000
00000000
,
00002000
00000000
00000000
00000000
00013000
01000000
10000000
00000000
,
20000000
00000000
00000000
00000000
30100000
10000000
01000000
00000000
,
02000000
03000000
00020000
00030000
,
00002000
00000000
00003000
00000000
00001000
00000100
00000001
00000000
,
00000002
00000000
00000000
00000000
00000013
00000100
00001000
00000000
,
00002000
00003000
00000200
00000300
,
00010000
00001000
00010000
00000000
,
01000000
10000000
01000000
00000000
01000000
00000000
00100000
00000000
,
00010000
00010000
10000000
01000000
,
00010000
00001000
00001000
00000100
,
00000001
00001000
00000100
00000000
,
00000010
00000001
00000010
00000000
00000010
00000000
00000100
00000000
,
00001000
00001000
00000001
00000100
,
00001000
00010000
00010000
01000000
,
10000000
00100000
01000000
00000000
,
10010000
00000000
00000000
10000000
00100000
00000000
01000000
00000000
,
00010000
00000000
00000000
01000000
00010000
00000000
00100000
00000000
,
00001000
00000000
00000000
00100000
00001000
00000000
00010000
00000000
,
00000100
00000000
00000000
00010000
00000100
00000000
00001000
00000000
,
00000001
00000001
00001000
00001000
,
00000010
00000100
00000001
00000100
,
00001000
00001000
00010000
00010000
,
01000000
00100000
10000000
00000000
,
01000000
01000000
01100000
00000000
,
00010000
00010000
00011000
00000000
,
00000100
00000100
00000110
00000000
,
00000001
00000001
00001001
00000000
,
00000001
00000100
00000010
00001000
,
00000001
00000100
00000010
00001000
,
00000100
00010000
00001000
00010000
,
00000100
00010000
00001000
00000000
,
00100000
00010000
00200000
00000000
00000000
00000000
00301000
00000000
,
00001000
00010000
00002000
00000000
00000000
00000000
00103000
00000000
,
00100000
00010000
00200000
00000000
00000000
00000000
00301000
00000000
,
00001000
00010000
00002000
00000000
00000000
00000000
00103000
00000000
,
01000000
00100000
00010000
10000000
,
10000000
01000000
00010000
00001000
,
00001000
00000100
00000001
00000010
,
00000010
00000001
00000100
00001000
,
00020000
00030000
02000000
03000000
,
10000000
00100000
02000000
03000000
,
00010000
01000000
00001000
00010000
,
00001000
00000000
00000100
00000000
00000001
00000100
00000000
00000000
;

//---------------dance-double - ----------------
#NOTES:
     dance-double:
     :
     Hard:
     10:
     0.551,0.508,0.225,0.075,0.028,379.000,24.000,8.000,0.000,0.000,0.000,0.551,0.508,0.225,0.075,0.028,379.000,24.000,8.000,0.000,0.000,0.000:
00000000
00000000
00000000
00000000
,
00000000
00000000
00000000
00000000
,
00010000
00011000
00010000
00000000
,
00000100
00000110
00000100
00000000
,
00000010
00000001
00000100
00000001
00000100
00000000
00000101
00000000
,
00000100
00001000
00010000
00001000
00010000
00000000
00011000
00000000
,
00010000
01000000
10000000
01000000
10000000
00000000
11000000
00000000
,
01000000
00010000
00001000
00010000
00001000
00000000
00011000
00000000
,
01000000
00000000
00000000
00100000
10000000
00010000
00000000
00010000
,
00100000
00000000
00000000
00100000
00001000
00100000
00010000
10000000
,
01000000
00000000
01000000
10000000
00010000
00000000
00010000
00000000
,
00100000
00000000
00100000
00001000
00010000
00000000
00010000
00000000
,
00000100
00000000
00000000
00000010
00000001
00001000
00000000
00001000
,
00000010
00000000
00000000
00000010
00010000
00000010
00001000
00000001
,
00000100
00000000
00000100
00000001
00001000
00000000
00001000
00000000
,
00000010
00000000
00000010
00010000
00001000
00000000
00001000
00000000
,
01000000
00100000
10000000
01000000
00100000
00010000
00000000
00000000
,
00100000
00010000
10000000
00100000
00010000
00001000
00000000
00000000
,
00000100
00000010
00001000
00000100
00000010
00000001
00000000
00000000
,
00001000
00000100
00010000
00001000
00000100
00000001
00000000
00000000
,
00000001
00000100
00001000
00000100
00001000
00000000
00001100
00000000
,
00000100
00001000
00010000
00001000
00010000
00000000
00011000
00000000
,
00010000
01000000
10000000
01000000
10000000
00000000
11000000
00000000
,
01000000
00010000
00001000
00010000
00001000
00000000
00011000
00000000
,
00000100
00000000
00000000
00000000
00000010
00000001
00000010
00000100
,
00000010
00001000
00000000
00001001
00000000
00000000
00000000
00000000
,
00000000
00000000
00000000
00000100
00010000
00000100
00001000
00000100
,
00000010
00000000
00000001
00000000
00000100
00001000
00010000
00000000
,
00100000
00000000
10000000
00000000
10000000
00000000
00100000
10000000
,
00100000
01000000
00100000
00010000
00000000
00000000
10000000
00000000
,
01000000
00000000
00010000
00000000
00001000
00010000
00001000
00000000
,
00000100
00000001
00000010
00000100
00000010
00000001
00000100
00001000
,
00010000
00001000
00000100
00001000
00010000
00000000
00001000
00000000
,
00000100
00001000
00010000
00100000
00010000
00000000
00001000
00000000
,
00010000
01000000
10000000
00100000
10000000
00000000
01000000
00000000
,
01000000
00010000
00001000
00000010
00001000
00000000
00010000
00000000
,
00000100
00000010
00000100
00000010
00000001
00000000
00001001
00000000
,
00000100
00001000
00010000
00001000
00010000
00000000
00101000
00000000
,
01000000
00100000
01000000
00100000
00010000
00000000
10010000
00000000
,
01000000
10000000
01000000
10000000
00010000
00000000
01100000
00000000
,
00100000
10000000
01000000
00000000
00100000
00010000
01000000
00000000
,
00100000
10000000
01000000
00010000
00001000
00000100
00000001
00000000
,
00000010
00000001
00000100
00000000
00000010
00001000
00000100
00000000
,
00000010
00000001
00000100
00001000
00010000
01000000
10000000
00000000
,
01000000
00010000
00001000
00010000
01000000
00000000
01010000
00000000
,
00001000
00010000
01000000
00010000
00001000
00000000
00011000
00000000
,
00000100
00001000
00010000
00001000
00000100
00000000
00001100
00000000
,
00010000
00001000
00000100
00001000
00010000
00000000
00011000
00000000
,
00001000
00000000
00000100
00000000
00000010
00000000
00000001
00000000
00000020
00000000
00000000
00002030
00000000
00000000
00003000
00000000
,
00000001
00000000
00000100
00000000
00001000
00000000
00010000
00000000
00002000
00000000
00000000
00023000
00000000
00000000
00030000
00000000
,
00010000
00000000
01000000
00000000
00100000
00000000
10000000
00000000
00200000
00000000
00000000
00320000
00000000
00000000
00030000
00000000
,
10000000
00000000
01000000
00000000
00010000
00000000
00001000
00000000
00020000
00000000
00000000
00032000
00000000
00000000
00003000
00000000
,
00000100
00000010
00001000
00000010
00000100
00000001
00000100
00000010
,
00001000
00000010
00010000
00001000
00010000
00000000
10010000
00000000
,
01000000
00100000
00010000
00100000
01000000
10000000
01000000
00100000
,
00010000
00100000
00001000
00010000
00001000
00000000
00001000
00000000
,
01000000
00100000
10000000
01000000
00100000
00010000
00000000
00000000
,
00100000
00010000
10000000
00100000
00010000
00001000
00000000
00000000
,
00000100
00000010
00001000
00000100
00000010
00000001
00000000
00000000
,
00001000
00000100
00010000
00001000
00000100
00000001
00000000
00000000
,
00000001
00000100
00001000
00000100
00001000
00000000
00001100
00000000
,
00000100
00001000
00010000
00001000
00010000
00000000
00011000
00000000
,
00010000
01000000
10000000
01000000
10000000
00000000
11000000
00000000
,
01000000
00010000
00001000
00010000
00001000
00000000
00011000
00000000
,
00001000
00000010
00000001
00000010
,
00001000
00010000
00100000
10000000
,
00100000
00010000
00001000
00001000
,
00000100
00000000
00000001
00000000
00000100
00000000
00000001
00000000
00001000
00000100
00000010
00000100
00000000
00000000
00000000
00000000
;

//---------------dance-single - Blank----------------
#NOTES:
     dance-single:
     :
     Challenge:
     16:
     0.843,0.794,0.150,0.038,0.915,609.000,16.000,4.000,0.000,0.000,0.000,0.843,0.794,0.150,0.038,0.915,609.000,16.000,4.000,0.000,0.000,0.000: // measure 0
1000
0000
0010
0000
1000
0000
0010
0000
0100
0000
0001
1000
0000
0000
0000
0000
,  // measure 1
0001
0000
0010
0000
0001
0000
0010
0000
0100
0000
1000
0001
0000
0000
0000
0000
,  // measure 2
0100
0000
0001
0000
0100
0000
0001
0000
0010
0000
0100
1000
0000
0000
0000
0000
,  // measure 3
0100
0000
1000
0000
0100
0000
1000
0000
0010
0000
0100
0001
1000
0100
0010
0001
,  // measure 4
1000
0000
0010
0000
1000
0000
0010
0000
0100
0000
0001
0010
0000
0100
1000
0100
,  // measure 5
0001
0000
0100
0000
0001
0000
0100
0000
0010
0000
0001
0100
0000
0010
1000
0010
,  // measure 6
0001
0000
0010
0000
0001
0000
0010
0000
1000
0000
0100
0010
0000
0001
0100
1000
,  // measure 7
0100
0000
0010
0000
0100
0000
0010
0000
1000
0000
0100
0010
0001
1000
0010
0100
,  // measure 8
0020
0000
0000
0000
1030
0000
0010
1000
0100
0000
0010
0100
0000
0010
0100
0000
,  // measure 9
0010
0000
0000
0000
0001
0000
0100
0000
0010
0000
0000
1000
0000
0000
0100
0010
,  // measure 10
0100
0000
0000
0000
1000
0010
0100
0001
0010
0000
0010
0100
0000
0000
0000
0000
,  // measure 11
1000
0000
0000
0000
0001
1000
0010
0100
0001
0000
0010
0001
0000
0000
0000
0000
,  // measure 12
0020
0000
0000
0000
0130
0000
0010
0001
0010
0000
0001
0100
0000
0100
0010
0000
,  // measure 13
1000
0000
0000
0000
0001
0000
1000
0001
0010
0000
0100
1000
0000
1000
0001
0000
,  // measure 14
0100
0000
0000
0000
0001
0100
0001
0100
0010
0000
1000
0100
0001
0100
1000
0010
,  // measure 15
0200
0000
0000
0000
0000
0000
0301
0000
0100
0000
0000
0110
0000
0000
0010
0000
,  // measure 16
1000
0000
0100
0000
0010
0000
0001
0000
1000
0000
1010
0000
0000
0010
0100
0001
,  // measure 17
1000
0000
0100
0000
1000
0000
0100
0000
0010
0000
0000
1001
0000
0000
0000
0000
,  // measure 18
0001
0000
0100
0000
0010
0000
1000
0000
0001
0000
0011
0000
0000
0010
0100
1000
,  // measure 19
0001
0000
0100
0000
0001
0000
0100
0000
0010
0000
0000
1001
0000
0000
0000
0000
,  // measure 20
1000
0100
0000
0000
0010
0001
0010
0001
0100
0000
0010
0100
0000
0000
0000
0000
,  // measure 21
0010
1000
0000
0000
0100
0010
0100
0010
0100
0000
0010
0001
0000
0000
0000
0000
,  // measure 22
0100
0001
0000
0000
1000
0001
1000
0001
1000
0000
0100
0010
0000
0000
0000
0000
,  // measure 23
0001
0010
0000
0000
0001
0010
0100
1000
0010
0000
1000
0010
0000
0000
0100
0000
,  // measure 24
0110
0000
0000
0000
0010
0000
1000
0000
0100
0000
0000
0010
0000
0000
0001
0000
,  // measure 25
0100
0001
0100
0110
0000
0010
1000
0000
,  // measure 26
0100
0010
0000
0001
0010
0001
0100
0010
,  // measure 27
1000
0010
0000
0000
0000
0000
0000
0000
1000
0010
0000
0000
0000
0000
0000
0000
0100
0000
0000
0000
0001
0000
0000
0000
0100
0000
0000
0000
0001
0000
0010
0000
,  // measure 28
0001
0000
0000
0000
0010
0000
0100
0000
1000
0000
0001
1000
0000
0000
0100
0010
,  // measure 29
0001
0000
1000
0000
0010
0000
1000
0000
0001
1000
0001
1000
0000
0000
0000
0000
,  // measure 30
1000
0000
0001
0000
0010
0000
0001
0000
1000
0001
1000
0001
0000
0000
1000
0000
,  // measure 31
0100
0000
0010
0000
0001
0000
1000
0000
0010
0100
0000
0000
0000
0000
0000
0000
,  // measure 32
0010
0000
1000
0000
0010
0000
1000
0000
0100
0010
0001
0100
0000
0001
0100
0010
,  // measure 33
1000
0000
0100
0000
1000
0000
0100
0000
0010
0001
0100
0010
0000
1000
0010
0100
,  // measure 34
0001
0000
0010
0000
0001
0000
0010
0000
0001
0100
1000
0100
0000
0010
1000
0100
,  // measure 35
0010
0000
0001
0000
0010
0000
0001
0000
0100
0001
0010
0100
0000
1000
0010
0100
,  // measure 36
0001
0000
1000
0000
0001
0000
1000
0000
0100
0010
0100
0010
0000
0001
0100
0001
,  // measure 37
1000
0000
0001
0000
1000
0000
0001
0000
0100
0010
0100
0010
0000
1000
0010
0100
,  // measure 38
0001
0000
1000
0000
0100
0000
0001
0000
0100
0010
0001
0100
0000
0010
1000
0100
,  // measure 39
0010
0000
0001
0000
0100
0000
0010
0000
1000
0001
1000
0001
0010
0100
0010
0100
,  // measure 40
1000
0000
0000
0000
0001
0000
1000
0000
0001
0000
0000
0010
0000
0000
0000
0100
,  // measure 41
0000
0000
0000
0000
1000
0000
0001
0000
1000
0001
0000
1001
0000
0000
0000
0000
,  // measure 42
1000
0000
0000
0000
0100
0000
0010
0000
0001
0000
0000
0101
0000
0000
0000
1010
,  // measure 43
0000
0000
0000
0000
1000
0000
0001
0000
0100
0010
0000
0110
0000
0000
0000
0000
,  // measure 44
0010
0000
1000
0000
0100
0000
0010
0000
0001
1000
0001
1000
0000
0010
1000
0010
,  // measure 45
0100
0000
0001
0000
0010
0000
0100
0000
1000
0001
1000
0001
0000
0010
0001
0010
,  // measure 46
0100
0000
1000
0000
0010
0000
0100
0000
0001
0100
0001
0100
0000
0010
1000
0100
,  // measure 47
0010
0000
0001
0000
1000
0000
0010
0000
0100
0001
1000
0200
0000
0000
0000
0000
,  // measure 48
0310
0000
0100
0000
0010
0000
0100
0000
0010
0001
0100
0010
0000
0000
0000
0000
,  // measure 49
0100
0000
0010
0000
0100
0000
0010
0000
0100
0010
1000
0100
0000
0000
0000
0000
,  // measure 50
0010
0000
0100
0000
0010
0000
0100
0000
0010
0100
1000
0010
0000
0000
0000
0000
,  // measure 51
0100
0000
0010
0000
0100
0000
0010
0000
0100
0001
0010
0100
1000
0001
1000
0001
,  // measure 52
1000
0000
0100
0000
0010
0000
0001
0000
1000
0010
1000
0010
0000
0100
0001
0010
,  // measure 53
0100
0000
1000
0000
0100
0000
1000
0000
0001
0010
0001
0010
0000
0100
1000
0010
,  // measure 54
0100
0000
0001
0000
0100
0000
0001
0000
0010
0100
1000
0010
0000
0100
0001
0100
,  // measure 55
0001
0000
0010
0000
0100
0000
1000
0000
0001
1000
0001
1000
0000
1000
0010
0100
,  // measure 56
0001
1000
0001
1000
0001
1010
0000
0000
,  // measure 57
1000
0000
0001
0000
1000
0000
0001
0000
1000
0000
0000
0011
0000
0000
0000
0000
,  // measure 58
0010
0100
0010
0100
0010
1100
0000
0000
,  // measure 59
0100
0000
0010
0000
0100
0000
0010
0000
0100
0000
0000
0011
0000
0000
0000
0000
,  // measure 60
0001
1000
0000
0000
0001
1000
0010
0100
0001
0000
0010
0001
0000
0000
0000
0000
,  // measure 61
0010
0100
0000
0000
0010
0100
1000
0010
0100
0000
0001
0100
0000
0000
0000
0000
,  // measure 62
0010
1000
0000
0000
0010
1000
0100
0010
0001
0000
1000
0001
0000
0000
0000
0000
,  // measure 63
1000
0010
0000
0000
0100
0001
0010
0100
1000
0000
0001
1000
0000
0100
0010
0001
,  // measure 64
0100
0000
0010
0000
1000
0000
0100
0000
0010
0001
0010
0001
0100
0001
0100
0001
,  // measure 65
1000
0000
0100
0010
0100
0000
1000
0001
1000
0100
0010
0001
0000
0100
0010
0100
,  // measure 66
0010
0000
1000
0010
0100
0001
0010
0100
1000
0100
0010
0001
0000
1000
0001
1000
,  // measure 67
0001
0000
1000
0010
1000
0001
1000
0001
1000
0000
0000
1001
0000
0000
0000
0000
;
