#VERSION:0.81;
#TITLE:Ponyville;
#SUBTITLE:;
#ARTIST:Hirosashii;
#TITLETRANSLIT:;
#SUBTITLETRANSLIT:;
#ARTISTTRANSLIT:;
#GENRE:Chiptune;
#ORIGIN:;
#CREDIT:;
#BANNER:Ponyville.png;
#BACKGROUND:Ponyville-bg.png;
#PREVIEWVID:;
#JACKET:Ponyville-jacket.png;
#CDIMAGE:;
#DISCIMAGE:;
#LYRICSPATH:;
#CDTITLE:;
#MUSIC:Ponyville.ogg;
#OFFSET:-0.591;
#SAMPLESTART:26.740;
#SAMPLELENGTH:15.000;
#SELECTABLE:YES;
#BPMS:0.000=128.540,
55.000=129.750,
56.000=128.540,
64.000=124.664,
65.000=128.540,
127.000=127.746,
128.000=123.547,
129.000=124.290,
130.000=128.540,
143.000=125.041,
144.000=128.540;
#STOPS:;
#DELAYS:;
#WARPS:;
#TIMESIGNATURES:0.000=4=4;
#TICKCOUNTS:0.000=4;
#COMBOS:0.000=1;
#SPEEDS:0.000=1.000=0.000=0;
#SCROLLS:0.000=1.000;
#FAKES:;
#LABELS:0.000=Song Start;
#BGCHANGES:;
#KEYSOUNDS:;
#ATTACKS:
;

//---------------dance-single - ----------------
#NOTEDATA:;
#CHARTNAME:;
#STEPSTYPE:dance-single;
#DESCRIPTION:;
#CHARTSTYLE:;
#DIFFICULTY:Hard;
#METER:11;
#RADARVALUES:0.431,0.450,0.000,0.000,0.145,250.000,0.000,0.000,0.000,0.000,0.000,0.000,0.000,0.431,0.450,0.000,0.000,0.145,250.000,0.000,0.000,0.000,0.000,0.000,0.000,0.000;
#CREDIT:;
#NOTES:
0000
0000
0000
0000
,
0000
0000
0000
0000
,
0000
0000
0000
0000
,
0000
0000
0000
0000
,
0010
0000
1000
0000
0100
1000
0001
0000
,
0100
0000
0010
0000
1000
0001
0010
0000
,
0100
0000
0010
0000
0001
1000
0010
0000
,
0100
0000
0000
0000
,
0010
0000
1000
0000
0001
0010
0100
0010
,
0001
0000
0100
0000
0010
1000
0001
1000
,
0010
0000
0100
0000
0001
1000
0100
0010
,
0100
0000
1000
0000
0001
0100
0010
1000
,
0001
0010
0100
1000
,
0010
0100
0001
1000
,
0010
1000
0100
0001
0100
1000
0010
0100
,
0001
0100
0000
0010
0000
1000
0000
0001
0000
0010
0000
0100
1000
0000
0100
0000
,
0010
0001
0100
0000
0010
1000
0100
0100
,
1000
0000
0001
0000
0100
0010
0000
0100
0000
0000
0001
0000
1000
0000
0100
0000
,
0010
0000
0001
0000
0100
0010
0100
0001
,
1000
0000
0100
0000
0000
0000
0100
0000
1000
0000
0010
0000
0100
0001
0000
0000
,
0001
0100
0010
1000
0100
1000
0001
0100
,
0010
0000
0100
0000
0001
0000
1000
0000
0100
0000
0010
0000
0100
1000
0000
1000
,
0001
0100
0010
0100
0001
1000
0100
0010
,
0100
0000
1000
0000
0000
0001
0000
0100
0010
0000
0100
0000
0001
1000
0000
0000
,
0001
0010
0100
1000
0100
0010
0001
0100
,
0010
0000
0100
0000
0001
0000
0010
0000
0100
0000
1000
0000
0001
0100
0000
0001
,
0010
0100
1000
0100
0010
0001
1000
0000
,
1000
0000
0010
0000
0100
0000
0001
0000
1000
0000
0100
0000
0010
0001
0000
0000
,
0010
0000
0100
0000
1000
0000
0001
0000
0100
0000
0010
0000
1000
0000
0000
1000
,
0001
0000
0010
0000
0100
0000
1000
0000
0100
0000
0010
0000
0001
0100
0000
0001
,
0010
0100
1000
0001
0100
0010
1000
0001
,
0010
0000
0100
1000
0000
1000
0001
0000
0100
0000
0010
0000
0100
0001
0000
0000
,
0001
1000
1000
1000
,
1000
0001
0001
0001
,
0001
0100
0100
0100
,
0100
0010
0010
0010
,
0010
0000
1000
0000
0100
1000
0001
0000
,
0100
0000
0010
0000
1000
0001
0010
0000
,
0100
0000
0010
0000
0001
0100
0010
0000
,
1000
0000
0100
0000
1000
0001
0100
0010
,
0100
0000
0001
0000
0010
0100
1000
0000
,
0001
0000
0100
0000
0010
1000
0001
0000
,
0010
0000
0100
0000
1000
0010
0100
0000
,
0010
0000
0000
0000
1000
0000
0000
0000
0001
0000
0100
0010
0000
0000
1000
0000
;

//---------------dance-single - ----------------
#NOTEDATA:;
#CHARTNAME:;
#STEPSTYPE:dance-single;
#DESCRIPTION:;
#CHARTSTYLE:;
#DIFFICULTY:Medium;
#METER:6;
#RADARVALUES:0.295,0.264,0.000,0.060,0.000,166.000,0.000,5.000,0.000,0.000,0.000,0.000,0.000,0.295,0.264,0.000,0.060,0.000,166.000,0.000,5.000,0.000,0.000,0.000,0.000,0.000;
#CREDIT:;
#NOTES:
0000
0000
0000
0000
,
0000
0000
0000
0000
,
0000
0000
0000
0000
,
0000
0000
0000
0000
,
0010
1000
0100
0001
,
0100
1000
0010
0000
,
0010
0001
0100
1000
,
0020
0000
0000
0000
,
1030
0100
0010
0001
,
0100
0000
0010
0000
1000
1000
1000
0000
,
0010
0100
0001
0010
,
0100
0000
1000
0000
0001
0001
0001
0000
,
0100
0010
1000
1000
,
0001
0000
0010
0000
0100
0100
0100
0000
,
0010
0001
0100
0010
,
1000
0000
0100
0000
1000
1000
1000
0000
,
0001
0100
0010
1000
,
0001
0000
0010
0000
0001
0001
0001
0000
,
0100
0010
1000
0001
,
0010
0000
0100
0000
0010
0010
0010
0000
,
0001
0100
0010
1000
,
0001
0000
1000
0000
0100
0100
0100
0000
,
1000
0010
0100
0001
,
0100
0000
0010
0000
1000
0001
1000
0000
,
0010
0100
0001
0010
,
0100
0000
1000
0000
0010
0100
0001
0000
,
0100
0010
1000
0001
,
0010
0000
0100
0000
0010
0001
1000
0000
,
0010
0100
0001
0010
,
0001
0000
0100
0000
0010
1000
0010
0000
,
0100
0000
0001
0000
0100
0010
1000
0000
,
0001
0000
0010
0000
0100
1000
0001
0000
,
0200
0000
0010
0000
,
0320
0000
1000
0000
,
2030
0000
0001
0000
,
3002
0000
1000
0000
,
1003
0100
0010
0001
,
0100
0000
0010
0000
1000
1000
1000
0000
,
0010
1000
0100
0001
,
0100
0000
1000
0000
0010
0010
0010
0010
,
0010
0100
0001
0010
,
0100
0000
0010
0000
0001
0001
0001
0000
,
0100
0010
1000
0001
,
0010
0000
1000
0000
0100
0100
0100
0000
;

//---------------dance-single - ----------------
#NOTEDATA:;
#CHARTNAME:;
#STEPSTYPE:dance-single;
#DESCRIPTION:;
#CHARTSTYLE:;
#DIFFICULTY:Easy;
#METER:2;
#RADARVALUES:0.133,0.106,0.000,0.145,0.000,65.000,0.000,12.000,0.000,0.000,0.000,0.000,0.000,0.133,0.106,0.000,0.145,0.000,65.000,0.000,12.000,0.000,0.000,0.000,0.000,0.000;
#CREDIT:;
#NOTES:
0000
0000
0000
0000
,
0000
0000
0000
0000
,
0000
0000
0000
0000
,
0000
0000
0000
0000
,
0010
0000
1000
0000
,
0100
0000
0010
0000
,
0001
0000
0100
0000
,
0010
0000
1000
0000
,
0001
0000
0100
0000
,
0001
0000
0000
0000
,
1000
0000
0010
0000
,
1000
0000
0000
0000
,
0010
0000
0100
0000
,
0010
0000
0000
0000
,
1000
0000
0001
0000
,
1000
0000
0001
0000
,
1000
0000
0100
0000
,
1000
0000
0100
0000
,
0010
0000
0001
0000
,
0010
0000
0001
0000
,
0100
0000
0010
0000
,
0100
0000
0010
0000
,
1000
0000
0001
0000
,
1000
0000
0001
0000
,
0010
0000
0100
0000
,
0010
0000
0100
0000
,
1000
0000
0001
0000
,
0100
0000
0010
0000
,
1000
0000
0100
0000
,
0010
0000
0001
0000
,
1000
0000
0010
0000
,
0100
0000
0001
0000
,
2000
0000
0000
0000
,
3002
0000
0000
0000
,
0203
0000
0000
0000
,
0320
0000
0000
0000
,
2030
0000
0000
0000
,
3200
0000
0000
0000
,
0320
0000
0000
0000
,
0032
0000
0000
0000
,
0203
0000
0000
0000
,
0320
0000
0000
0000
,
2030
0000
0000
0000
,
3002
0000
0000
0003
;

//---------------dance-single - ----------------
#NOTEDATA:;
#CHARTNAME:;
#STEPSTYPE:dance-single;
#DESCRIPTION:;
#CHARTSTYLE:;
#DIFFICULTY:Beginner;
#METER:1;
#RADARVALUES:0.093,0.104,0.000,0.048,0.000,50.000,0.000,4.000,0.000,0.000,0.000,0.000,0.000,0.093,0.104,0.000,0.048,0.000,50.000,0.000,4.000,0.000,0.000,0.000,0.000,0.000;
#CREDIT:;
#NOTES:
0000
0000
0000
0000
,
0000
0000
0000
0000
,
0000
0000
0000
0000
,
0000
0000
0000
0000
,
1000
0000
0000
0000
,
0010
0000
0000
0000
,
0100
0000
0000
0000
,
0001
0000
0000
0000
,
0001
0000
0000
0000
,
0100
0000
0000
0000
,
0010
0000
0000
0000
,
1000
0000
0000
0000
,
0010
0000
0000
0000
,
0100
0000
0000
0000
,
0001
0000
0001
0000
,
0001
0000
0000
0000
,
1000
0000
1000
0000
,
1000
0000
0000
0000
,
0010
0000
0010
0000
,
0010
0000
0000
0000
,
0100
0000
0100
0000
,
0100
0000
0000
0000
,
0001
0000
0001
0000
,
0001
0000
0000
0000
,
0010
0000
0010
0000
,
0010
0000
0000
0000
,
0100
0000
0100
0000
,
0100
0000
0000
0000
,
1000
0000
1000
0000
,
1000
0000
0000
0000
,
0001
0000
1000
0000
,
0001
0000
1000
0000
,
0002
0000
0003
0000
,
0200
0000
0300
0000
,
0020
0000
0030
0000
,
2000
0000
3000
0000
,
0010
0000
0000
0000
,
1000
0000
0000
0000
,
0100
0000
0000
0000
,
0001
0000
0000
0000
,
0100
0000
0000
0000
,
1000
0000
0000
0000
,
0010
0000
0000
0000
,
0001
0000
0000
0000
;

//---------------dance-single - Blank----------------
#NOTEDATA:;
#CHARTNAME:;
#STEPSTYPE:dance-single;
#DESCRIPTION:Blank;
#CHARTSTYLE:;
#DIFFICULTY:Challenge;
#METER:13;
#RADARVALUES:0.676,0.609,0.000,0.266,0.718,370.000,0.000,22.000,0.000,0.000,0.000,0.000,0.000,0.676,0.609,0.000,0.266,0.718,370.000,0.000,22.000,0.000,0.000,0.000,0.000,0.000;
#CREDIT:;
#NOTES:
// measure 0
0000
0000
0000
0000
,  // measure 1
0000
0000
0000
0000
,  // measure 2
0000
0000
0000
0000
,  // measure 3
0000
0000
0000
0000
,  // measure 4
0010
0000
1000
0001
0000
1000
0001
0000
0100
0000
0010
0000
0100
0001
1000
0000
,  // measure 5
0100
0000
1000
0001
0000
1000
0001
0000
0100
0000
0100
0000
0001
0010
0001
0000
,  // measure 6
1000
0000
0100
1000
0000
0100
1000
0000
0001
0000
0100
0000
0010
1000
0000
0020
,  // measure 7
0000
0000
0000
0000
,  // measure 8
0031
0000
0010
1000
0000
0100
0000
0002
0000
0000
0000
0000
0103
0010
0100
0010
,  // measure 9
0002
0000
0000
1003
0000
0010
0100
0000
0001
0000
0010
0000
0100
1000
0100
0000
,  // measure 10
0010
0000
0010
0001
0000
0100
0000
1000
0200
0000
0310
0000
1000
0100
1000
0000
,  // measure 11
0002
0000
0203
0000
0320
0000
2030
0000
0000
0000
3001
0000
0000
0100
0010
0000
,  // measure 12
1000
0000
0010
0000
0100
0001
0100
0000
0010
0000
1000
0100
0000
1000
0100
0000
,  // measure 13
0010
0020
0000
0031
0002
0000
2003
0000
,  // measure 14
3001
0000
1000
0000
0100
0000
0010
0100
0000
0100
1000
0000
0010
0000
0100
0000
,  // measure 15
0001
0100
0000
0010
0000
1000
0000
0001
0000
0010
0100
1000
0010
0100
0010
0000
,  // measure 16
0100
0000
0001
0000
0010
0000
0001
1000
0000
1000
0010
0000
0100
0001
0010
0100
,  // measure 17
0010
0000
0100
0000
1000
0000
0001
1000
0000
1000
0010
0100
0001
0100
1000
0000
,  // measure 18
0100
0000
0010
0000
1000
0000
0010
0100
0000
0100
0001
0010
0100
0000
1000
0000
,  // measure 19
0001
0000
0100
0000
0001
0000
0010
0100
0000
0010
0100
0010
0001
0000
1000
0001
,  // measure 20
0100
0000
0010
0000
1000
0000
0010
0100
0000
0001
0010
0000
0100
1000
0010
0100
,  // measure 21
0001
0000
1000
0000
0001
1000
0000
0100
0000
0010
0001
0000
1000
0010
0100
0001
,  // measure 22
1000
0000
0100
0000
0010
0000
0100
1000
0000
0001
0100
0000
0010
1000
0001
0010
,  // measure 23
0100
0000
1000
0000
0010
0000
1000
0010
0000
0100
0001
0000
0010
0100
0001
1000
,  // measure 24
0010
0000
0100
0000
1000
0000
0010
0000
0100
0000
0001
0000
1000
0100
0010
0001
,  // measure 25
0100
0000
0010
0000
1000
0001
0000
0010
0000
0100
1000
0000
0001
0100
0001
0000
,  // measure 26
1000
0000
0100
0000
1000
0000
0100
0010
0000
0010
0001
0000
0100
0001
0100
0001
,  // measure 27
0100
0000
0010
0000
1000
0001
1000
0001
0000
0010
0100
0000
1000
0100
0010
0001
,  // measure 28
0100
0000
0010
0000
1000
0000
0001
0010
0000
0100
1000
0000
0010
1000
0100
0010
,  // measure 29
0100
0000
0010
0000
0001
0100
0000
0010
0000
1000
0001
1000
0100
0010
0100
0000
,  // measure 30
0010
0000
0002
0000
1000
0000
1000
0100
0000
0100
1003
0000
0001
0000
2000
0000
,  // measure 31
0001
0000
0100
0000
0001
0000
0100
0001
0000
0001
0100
0000
3001
0000
0000
0000
,  // measure 32
0010
0000
1000
0000
0010
0000
0100
0000
0001
0000
0100
0010
0000
2000
0000
0000
,  // measure 33
3100
0000
0010
0100
0000
0000
1000
0001
0000
0000
0100
0000
0020
0000
0000
0030
,  // measure 34
0100
0000
0001
0000
1000
0100
1000
0100
0000
0000
0100
0000
0010
0000
0000
0001
,  // measure 35
0100
0000
0010
0100
0001
2000
0000
0001
,  // measure 36
3001
0100
0010
0100
0001
1000
0200
0000
,  // measure 37
1300
0000
0010
0000
0100
0000
0001
0000
0100
0000
0100
0020
0000
0000
1030
0000
,  // measure 38
0001
0000
0010
0000
0100
0000
1000
0001
0000
0100
0000
0010
1000
0000
0001
0000
,  // measure 39
0010
0100
0010
0100
1000
0001
1000
0000
0010
0000
0100
0002
0000
0000
0103
0000
,  // measure 40
0010
1000
0001
0100
0010
0100
0002
0000
,  // measure 41
1003
0000
0100
0000
0010
0000
0001
0000
1000
0000
0010
0200
0000
0000
0301
0000
,  // measure 42
0010
0000
0001
0000
0100
0000
0010
1000
0000
0001
0000
0100
0010
0000
0100
0000
,  // measure 43
0001
0010
0001
0100
0010
1000
0010
0100
0001
0000
0001
0020
0000
0000
0130
0000
;
