#TITLE:Pony Swag (Scootaloo-Safe Radio Edit);
#SUBTITLE:;
#ARTIST:Swagberg Ft. Maros;
#TITLETRANSLIT:;
#SUBTITLETRANSLIT:;
#ARTISTTRANSLIT:;
#GENRE:Rap;
#CREDIT:;
#BANNER:Pony Swag (Scootaloo-Safe Radio Edit).png;
#BACKGROUND:Pony Swag (Scootaloo-Safe Radio Edit)-bg.png;
#LYRICSPATH:;
#CDTITLE:;
#MUSIC:Pony Swag (Scootaloo-Safe Radio Edit).mp3;
#OFFSET:-16.160;
#SAMPLESTART:40.140;
#SAMPLELENGTH:15.000;
#SELECTABLE:YES;
#BPMS:0.000=120.000
;
#STOPS:
;
#BGCHANGES:;
#KEYSOUNDS:;
#ATTACKS:;

//---------------dance-single - ----------------
#NOTES:
     dance-single:
     :
     Medium:
     6:
     0.217,0.272,0.102,0.000,0.000,125.000,9.000,0.000,0.000,0.000,0.000,0.217,0.272,0.102,0.000,0.000,125.000,9.000,0.000,0.000,0.000,0.000:
1000
0100
0010
0001
,
1000
0010
0100
0001
,
0010
0100
0010
0100
,
1000
0001
1000
0001
,
1000
0010
0100
0001
,
0010
0000
0100
0000
1000
1000
1000
0000
,
1000
0010
0100
0001
,
0100
0000
0001
0000
0010
0010
0010
0000
,
0001
0100
0010
1000
,
0100
0000
0001
0000
0100
0100
0100
0000
,
0001
0010
0100
1000
,
0010
0000
0100
0000
0001
0001
0001
0000
,
0010
0001
0100
0000
,
0010
0000
1000
0000
0100
0100
0100
0000
,
1000
0010
0100
0000
,
0110
0000
0001
0010
,
0100
0000
1000
0000
0001
0001
0001
0000
,
0100
0000
0010
0000
1000
1000
1000
0000
,
0010
0000
0100
0000
,
0001
0000
1000
0000
,
0010
0010
1000
1000
,
0100
0100
0001
0001
,
0010
0010
0100
0100
,
1000
1000
0001
0001
,
0100
0000
0010
0000
1000
0001
1000
0000
,
0010
0000
0100
0000
0001
0010
0001
0000
,
0010
0000
0100
0000
1000
0100
1000
0000
,
0001
0000
0100
0000
0010
0100
0010
0000
,
0110
0110
1001
1001
,
1100
1100
0011
0011
,
1000
0000
0000
0000
;

//---------------dance-single - ----------------
#NOTES:
     dance-single:
     :
     Easy:
     3:
     0.138,0.270,0.102,0.000,0.000,76.000,9.000,0.000,0.000,0.000,0.000,0.138,0.270,0.102,0.000,0.000,76.000,9.000,0.000,0.000,0.000,0.000:
1000
0000
0100
0000
,
1000
0000
0100
0000
,
0010
0000
0001
0000
,
0010
0000
0001
0000
,
0100
0000
0010
0000
,
0100
0000
0010
0000
,
1000
0000
0001
0000
,
1000
0000
0001
0000
,
1000
0000
0100
0000
,
0010
0000
0001
0000
,
0010
0000
0100
0000
,
1000
0000
0000
0000
,
0001
0000
0100
0000
,
0010
0000
1000
0000
,
0001
0000
0010
0000
,
1001
0000
0000
0000
,
0100
0000
0010
0000
,
0001
0000
0100
0000
,
0010
0000
0000
0000
,
1000
0000
0000
0000
,
0001
1000
0001
1000
,
0010
0100
0010
0100
,
0001
0100
0001
0100
,
0010
1000
0010
1000
,
0100
1000
0100
1000
,
0001
0010
0001
0010
,
0001
1000
0001
1000
,
0010
0100
0010
0100
,
0110
0110
0110
0110
,
1001
1001
1001
1001
;

//---------------dance-single - ----------------
#NOTES:
     dance-single:
     :
     Beginner:
     1:
     0.062,0.068,0.034,0.000,0.000,35.000,3.000,0.000,0.000,0.000,0.000,0.062,0.068,0.034,0.000,0.000,35.000,3.000,0.000,0.000,0.000,0.000:
1000
0000
0000
0000
,
0010
0000
0000
0000
,
0100
0000
0000
0000
,
0001
0000
0000
0000
,
0010
0000
0000
0000
,
0001
0000
0000
0000
,
0100
0000
0000
0000
,
1000
0000
0000
0000
,
0010
0000
0000
0000
,
0100
0000
0000
0000
,
0001
0000
0000
0000
,
1000
0000
0000
0000
,
0001
0000
0000
0000
,
0100
0000
0000
0000
,
0010
0000
0000
0000
,
1001
0000
0000
0000
,
1000
0000
0000
0000
,
0100
0000
0000
0000
,
0010
0000
0000
0000
,
0001
0000
0000
0000
,
1000
0000
1000
0000
,
1000
0000
0000
0000
,
0001
0000
0001
0000
,
0001
0000
0000
0000
,
0100
0000
0100
0000
,
0100
0000
0000
0000
,
0010
0000
0010
0000
,
0010
0000
0000
0000
,
1001
0000
0000
0000
,
1001
0000
0000
0000
,
0010
0000
0000
0000
;

//---------------dance-single - ----------------
#NOTES:
     dance-single:
     :
     Hard:
     9:
     0.375,0.282,0.114,0.023,0.000,219.000,10.000,2.000,0.000,0.000,0.000,0.375,0.282,0.114,0.023,0.000,219.000,10.000,2.000,0.000,0.000,0.000: // measure 0
1000
1000
0001
0100
0010
1000
0001
0010
,  // measure 1
0100
0100
0010
0001
0100
0010
1000
0001
,  // measure 2
0010
0010
0001
0100
0010
1000
0100
0010
,  // measure 3
0001
0001
0100
0010
1000
0001
0010
0000
,  // measure 4
0010
0001
0100
0010
1000
0100
1000
0010
,  // measure 5
0100
0100
0001
0010
0100
1000
0100
0010
,  // measure 6
0001
0001
0100
0010
1000
0001
0010
0100
,  // measure 7
1000
1000
0010
0100
0001
0010
0100
0000
,  // measure 8
0010
0010
1000
0100
1000
0010
0100
0001
,  // measure 9
1000
1000
0001
0100
0010
1000
0100
0010
,  // measure 10
0001
0001
0100
0001
0010
0100
1000
0010
,  // measure 11
0100
0100
0010
1000
0001
0010
0100
0000
,  // measure 12
1000
0001
0100
0010
1000
0001
0010
0000
,  // measure 13
0010
0001
0100
0010
1000
0001
0010
0000
,  // measure 14
0010
0100
1000
0001
0100
0010
1000
1000
,  // measure 15
1001
0000
0000
0001
0100
0010
0100
0001
,  // measure 16
0000
0010
0100
1000
0001
0100
0010
1000
,  // measure 17
0010
0010
1000
0100
0010
0001
1000
0010
,  // measure 18
0100
0000
0001
0000
0010
0100
1000
0000
,  // measure 19
0001
0000
0100
0000
0010
1000
0001
0000
,  // measure 20
0100
0001
0100
0001
0100
0001
0100
0100
,  // measure 21
0010
1000
0010
1000
0010
1000
0010
0010
,  // measure 22
1000
0100
1000
0100
1000
0100
1000
1000
,  // measure 23
0001
0100
0001
0100
0001
0100
0001
0001
,  // measure 24
0010
0001
0100
0010
1000
0100
1000
1000
,  // measure 25
0010
0100
0001
0010
0100
0010
0001
0001
,  // measure 26
0100
0010
1000
0001
0010
0100
1000
1000
,  // measure 27
0010
0100
0001
0010
0001
0100
0010
0010
,  // measure 28
0110
0110
1100
1100
,  // measure 29
0011
1010
0101
1001
,  // measure 30
0220
0000
0000
0000
,  // measure 31
0330
0000
0000
0000
;

//---------------dance-single - ----------------
#NOTES:
     dance-single:
     :
     Challenge:
     13:
     0.658,0.540,0.692,0.011,0.539,344.000,61.000,1.000,0.000,0.000,0.000,0.658,0.540,0.692,0.011,0.539,344.000,61.000,1.000,0.000,0.000,0.000:
1000
1000
0010
1000
0001
0001
0001
0011
,
0100
0000
0100
0000
1000
0000
0100
0000
0010
0001
0010
0000
0001
1000
0001
1000
,
0010
0100
0000
0000
0101
0000
0000
0000
0001
0000
0010
0100
0000
0010
0100
1000
,
0001
0000
0000
1000
0000
0000
0001
0000
0100
0000
0001
0000
0010
0000
0000
0100
0000
0000
1000
0000
0000
0010
0000
0000
0100
0000
0000
0000
0000
0000
0100
0000
0000
0000
0000
0000
0101
0000
0000
0000
0000
0000
0000
0000
0000
0000
0000
0000
,
0001
0010
1000
0010
0001
0000
0100
0000
0010
0000
1000
0000
1010
0000
1000
0000
,
0100
0010
0001
0010
0100
1000
0001
0000
0101
0000
0100
0000
0010
0000
0001
0000
,
0010
0000
1010
0000
1000
0100
0010
0000
0110
0000
0100
1000
0001
0000
0101
0000
,
0001
0000
0001
0000
0011
0000
0001
0010
0100
0000
0010
0100
1000
0000
0001
0000
,
0101
0000
0001
0010
0001
0000
0100
0000
0010
1000
0100
0001
0100
0000
0010
0100
,
1000
0010
0100
0001
0010
0000
0200
0000
1300
0000
0100
0010
0100
0000
0110
0000
,
0010
0001
1000
0000
1010
0000
1000
0000
0100
0000
0010
0100
0010
0000
0011
0000
,
1100
0100
0110
0100
0101
0100
1100
0100
,
0010
0001
0010
0000
0100
0000
0100
0000
0110
0000
0010
0001
0100
0000
0010
0000
,
1000
0000
0001
0100
0001
0000
0001
1000
0010
1000
0100
0010
0001
0000
0011
0000
,
1001
0000
1000
0000
1010
0000
0010
0000
0100
0000
0001
0010
0100
0000
0010
0000
,
0110
0000
0000
0000
1001
0000
1000
0010
0001
0010
1000
0100
0001
0000
0101
0000
,
0000
0000
0000
0010
1000
0000
0010
0000
1010
0000
1000
0010
0100
0000
0101
0000
,
0001
0000
0001
0000
1000
0100
0001
0100
0010
0000
0100
1000
0010
0000
1010
0000
,
1000
0100
0010
0001
0010
0000
0001
0000
0100
0001
0010
0100
1000
0000
1010
0000
,
1000
0001
1000
0000
1001
0000
0001
0000
0011
0000
0010
0100
1000
0000
1010
0000
,
1100
0100
0110
0100
0101
0100
0110
0010
,
0011
0001
0101
0100
0110
0010
1010
1000
,
1100
0100
0110
0100
0101
0100
0110
0100
,
1100
0100
0110
0010
0011
0001
0101
0001
,
1000
0000
0000
0001
0000
0000
1000
0000
0000
0001
0000
0000
0010
0000
0000
0100
0000
0000
1000
0000
0000
0010
0000
0000
0100
0000
0000
0000
0000
0000
0000
0000
0000
0000
0000
0000
0001
0000
0000
0000
1000
0000
0000
0000
0100
0000
0000
0000
,
0010
0000
0100
0000
1000
0000
0010
0000
0100
0000
0001
0000
0010
0000
0100
0000
1000
0000
0010
0000
0000
0110
0000
0000
,
0010
0000
0100
0000
0010
0000
0100
0000
0000
0000
0000
0000
1000
0000
0000
0000
0000
0000
0010
0000
0100
0000
0010
0000
0100
0000
0000
0001
0000
0000
0010
0000
0000
0100
0000
0000
1000
0000
0000
0000
0001
0000
0000
0000
0010
0000
0000
0000
,
0100
0010
0001
0100
0010
1000
0100
0010
0001
0011
0000
0000
,
1001
0011
1001
1010
,
1100
0000
0000
0000
0011
0000
0000
0000
0101
0000
0000
0000
1010
0000
1000
0010
,
1000
0001
0010
0000
0011
0000
0001
1000
0100
0000
1000
0000
0100
0010
0001
0000
,
0010
0001
0100
0000
0100
0010
1000
0000
0100
0010
0100
0010
0100
0000
0110
0000
,
0100
1000
0010
0100
0001
0000
1001
0000
1000
0010
1000
0100
0010
0000
0010
0001
,
0100
0010
1000
0000
1010
0000
1000
0001
0100
0010
1000
0100
0010
0000
0010
0001
,
0100
0000
0000
0000
;
