#VERSION:0.81;
#TITLE:Pinkie Pie's Theme;
#SUBTITLE:;
#ARTIST:Whitetail;
#TITLETRANSLIT:;
#SUBTITLETRANSLIT:;
#ARTISTTRANSLIT:;
#GENRE:Happy Hardcore;
#ORIGIN:;
#CREDIT:;
#BANNER:Pinkie Pie's Theme.png;
#BACKGROUND:Pinkie Pie's Theme-bg.png;
#PREVIEWVID:;
#JACKET:Pinkie Pie's Theme-jacket.png;
#CDIMAGE:;
#DISCIMAGE:;
#LYRICSPATH:;
#CDTITLE:;
#MUSIC:Pinkie Pie's Theme.mp3;
#OFFSET:-0.040;
#SAMPLESTART:31.200;
#SAMPLELENGTH:15.000;
#SELECTABLE:YES;
#BPMS:0.000=200.000;
#STOPS:;
#DELAYS:;
#WARPS:;
#TIMESIGNATURES:0.000=4=4;
#TICKCOUNTS:0.000=4;
#COMBOS:0.000=1;
#SPEEDS:0.000=1.000=0.000=0;
#SCROLLS:0.000=1.000;
#FAKES:;
#LABELS:0.000=Song Start;
#BGCHANGES:;
#KEYSOUNDS:;
#ATTACKS:
;

//---------------dance-single - ----------------
#NOTEDATA:;
#CHARTNAME:;
#STEPSTYPE:dance-single;
#DESCRIPTION:;
#CHARTSTYLE:;
#DIFFICULTY:Hard;
#METER:16;
#RADARVALUES:0.890,0.950,0.504,0.146,0.264,687.000,62.000,18.000,0.000,0.000,0.000,0.000,0.000,0.890,0.950,0.504,0.146,0.264,687.000,62.000,18.000,0.000,0.000,0.000,0.000,0.000;
#CREDIT:;
#NOTES:
1000
0010
0100
0000
0000
0000
0011
0000
,
0101
0000
1001
0001
,
1000
0000
0100
0000
0010
0001
0100
0000
,
0001
0000
0100
0000
0010
0100
0001
0000
,
0001
0010
0100
0000
0000
0000
1010
0000
,
0101
0000
1001
0001
,
1000
0000
0010
0000
1000
0010
0100
0000
,
0001
0000
0010
0000
0001
0100
0010
0000
,
1000
0010
0001
0010
0100
0001
0010
0100
,
1000
0000
0001
0000
0100
0000
0001
0000
0100
0010
0100
0000
0010
0100
0010
0000
,
0200
1000
0010
1300
,
2000
0010
0001
3010
,
1000
0000
0010
0000
0100
0010
0100
0000
0010
1000
0010
0000
1000
0100
1000
0000
,
0100
0010
0100
0000
0010
0001
0010
0000
0001
0100
0001
0000
0100
0010
0100
0000
,
0020
1000
0100
1030
,
1000
0100
1000
0010
0100
0001
0100
0010
,
0100
0001
1000
0010
0100
0001
1000
0010
,
0100
0010
1000
0010
0100
0010
1000
0010
,
1000
0100
0010
0001
0010
0001
0100
0001
,
0100
0010
1000
0001
0100
0001
0100
0001
,
1000
0000
0100
0000
0010
0000
0001
0000
1000
0001
1000
0000
0010
0000
0100
0000
,
0001
0000
0100
0000
0010
0000
1000
0000
0001
1000
0001
0000
0100
0000
0010
0000
,
1000
0010
1000
0010
0100
0001
0100
0001
,
0010
0000
0001
0100
0001
0000
1000
0000
0100
0000
0010
0100
1000
0000
0001
0000
,
0200
0010
0010
0310
,
1010
0101
0011
1100
,
1000
0001
0100
0001
0010
0100
0010
0001
,
0100
0001
0010
0100
1000
0001
0010
0001
,
1000
0010
1000
0100
0010
1000
0010
0100
,
1000
0010
0100
0001
0010
1000
0010
0001
,
0100
0010
1000
0100
0010
0001
0100
1000
,
0100
0010
1000
0100
0010
0001
0100
1000
,
0100
0001
0010
0100
1000
0001
1000
0010
,
0100
0001
0100
0010
0001
0100
0001
0010
,
0100
1000
0100
1000
0010
1000
0010
1000
,
0001
0010
0001
0010
0100
0010
0100
0010
,
0001
0100
0001
0100
0010
0100
0010
0100
,
0010
0000
1000
0000
0100
0000
0010
0000
0001
0000
1000
0100
1000
0000
0001
0000
,
0100
0001
0100
0001
0010
0001
0010
0001
,
0100
0010
0100
0010
1000
0010
1000
0010
,
0100
1000
0100
1000
0001
1000
0001
1000
,
0100
0010
0000
0000
0110
0000
0010
0100
,
0001
0000
0000
0000
0000
0000
1000
0000
0000
0000
0000
0000
0001
0000
0000
0000
0000
0000
0100
0000
0000
0001
0100
0010
,
1000
0100
0010
0110
,
1000
0000
0000
0000
0000
0000
0001
0000
0000
0000
0000
0000
0100
0000
0000
0000
0000
0000
0001
0000
0000
0010
0100
1000
,
0001
0000
0100
0000
0001
0000
0010
0100
,
1000
0000
0000
0000
0000
0000
0100
0000
0000
0000
0000
0000
0010
0000
0000
0000
0000
0000
0100
0000
0000
1000
0001
0100
,
0010
1000
0010
1010
,
1000
0000
0000
0000
0000
0000
0001
0000
0000
0000
0000
0000
0100
0000
0000
0000
0000
0000
0001
0000
0000
0010
0100
1000
,
0001
0101
1100
0101
,
0001
0000
0011
0000
0010
0001
0010
0000
,
0100
0000
1100
0000
1000
0100
1000
0000
,
0001
0000
0000
0000
0000
0000
1001
0000
0000
0000
0000
0000
1000
0000
0000
0001
0000
0000
1000
0000
0000
0100
0010
0100
,
1000
0000
0001
0000
0100
0001
0100
0000
,
0001
0000
0000
0000
0000
0000
0011
0000
0000
0000
0000
0000
0010
0000
0000
0000
0000
0000
0100
0000
0000
1000
0100
0010
,
0001
0100
0001
1001
,
1000
0000
0000
0000
0000
0000
0010
0000
0000
0000
0000
0000
0000
0000
0000
0000
0000
0000
1000
0010
0100
0001
0010
0100
,
1000
0000
1001
0000
,
0010
1010
0000
1000
1001
0000
0011
0000
,
0001
0010
0001
0000
0010
0100
0010
0000
0100
0010
0100
0000
0010
0001
0010
0000
,
0010
0011
0000
0001
1001
0000
1010
0000
,
1000
0010
1000
0000
0010
0100
0010
0000
0100
0010
0100
0000
0010
1000
0010
0000
,
1000
1001
0000
0001
0101
0000
0110
0000
,
0010
1000
0010
0000
1000
0001
1000
0000
0001
0100
0001
0000
0100
0010
0100
0000
,
0010
0110
0000
0100
0101
0000
1001
0000
,
1000
0100
1000
0000
0100
0010
0100
0000
0010
0100
0010
0000
0100
1000
0100
0000
,
1000
0101
0000
0001
1100
0000
1001
0000
,
0001
0100
0001
0000
0100
0010
0100
0000
0010
0100
0010
0000
0100
0001
0100
0000
,
0001
1010
0000
1000
0011
0000
1001
0000
,
1000
0010
0100
0000
0100
0010
1000
0000
1000
0001
0100
0000
0100
0001
1000
0000
,
0100
0110
0000
0010
1100
0000
0101
0000
,
0001
0010
0100
0000
0100
0010
0001
0000
0001
1000
0100
0000
0100
1000
0001
0000
,
0100
0110
0000
0010
0101
0000
1100
0000
,
2002
0000
0000
3003
0220
0000
0000
0330
,
0022
0000
0000
0033
2200
0000
0000
3300
,
2020
0000
0000
3030
0202
0000
0000
0303
,
1001
0000
0000
0000
1000
0010
0100
0000
,
0001
0000
0000
0000
0001
0010
0001
0001
,
0100
0010
1000
0100
0010
0100
1000
0001
,
0100
0010
1000
0100
0010
0100
1000
0001
,
1000
0001
1000
0001
0010
0001
0010
0001
,
1000
0010
1000
0010
0100
0010
0100
0010
,
0001
0100
0001
0100
1000
0100
1000
0100
,
0010
0000
0100
0000
1000
0000
0001
0000
0010
0000
0001
0010
0100
0000
0001
0000
,
0100
1000
0010
0100
0001
0010
0100
1000
,
0001
0100
0010
0100
0001
0010
1000
0010
,
0100
1000
0010
0100
0001
1000
0100
0010
,
0100
0110
0000
0000
1001
0000
1000
0001
,
0100
0010
1000
0100
0010
0100
0001
0100
,
1000
0010
1000
0010
0100
0001
0010
0100
,
1000
0001
0100
0001
0010
0100
1000
0100
,
1000
0000
0001
0000
0100
0000
0010
0000
1000
0000
0100
0010
0001
0000
0100
0000
,
0010
1000
0010
1000
0100
0001
0100
0001
,
0100
1000
0100
1000
0010
0001
0010
0001
,
0010
0100
0001
1000
0010
0100
0001
1000
,
0100
0110
0000
0000
0010
0011
0000
0000
,
0001
0101
0000
0000
0100
1100
0000
0000
,
1000
0100
1000
0000
0100
0010
0100
0000
0010
0001
0010
0000
0001
0010
0001
0000
,
0220
0000
0000
0000
,
0000
0000
0000
0330
,
0101
0100
1000
0001
,
0100
0000
0000
0000
0000
0000
0000
0000
0110
0000
0000
0000
;

//---------------dance-single - Copied from----------------
#NOTEDATA:;
#CHARTNAME:Copied from;
#STEPSTYPE:dance-single;
#DESCRIPTION:Copied from;
#CHARTSTYLE:;
#DIFFICULTY:Challenge;
#METER:19;
#RADARVALUES:1.000,1.000,1.000,0.406,0.524,769.000,163.000,50.000,84.000,0.000,0.000,0.000,0.000,1.000,1.000,1.000,0.406,0.524,769.000,163.000,50.000,84.000,0.000,0.000,0.000,0.000;
#CREDIT:Copied from;
#NOTES:
// measure 0
2000
0000
3200
0000
2300
0000
3000
0000
0000
MMMM
0000
0000
0002
0000
0003
0000
,  // measure 1
0200
0300
0000
MMMM
0000
0000
0020
0030
,  // measure 2
2000
3000
0000
0000
MMMM
0000
0000
0000
,  // measure 3
0001
0010
1000
0010
,  // measure 4
0200
0302
0023
0030
0000
0000
0200
0300
,  // measure 5
2000
3000
0000
0000
0000
0000
0020
0030
,  // measure 6
0002
0003
0000
0000
0000
0000
0000
0000
,  // measure 7
1000
0001
1000
0001
,  // measure 8
1000
0000
0100
0000
1000
0010
1000
0000
1000
0001
1000
0000
1000
0100
1000
0000
,  // measure 9
1000
0001
1000
0000
0001
0100
0001
0000
0010
0001
0010
0000
0100
1000
0100
0000
,  // measure 10
2000
0000
0000
3020
,  // measure 11
0230
0000
0000
0000
0000
0000
0000
0000
0002
0000
0000
0003
0002
0000
0000
0303
,  // measure 12
0001
0000
0101
0000
0001
0100
0001
0000
0010
0001
0010
0000
0100
1000
0100
0000
,  // measure 13
1000
0010
1000
0000
0001
0100
0001
0000
1000
0100
1000
0000
0001
0010
0001
0000
,  // measure 14
0200
0000
0000
0000
0000
0000
0000
0000
0000
0000
0000
0000
2000
0000
0000
3300
,  // measure 15
0200
0000
0002
0003
0002
0003
0020
0030
0020
0030
2000
3000
2000
3000
0020
0330
,  // measure 16
1000
0000
0010
0000
1000
0100
1000
0000
1000
0100
1000
0000
1000
0010
1000
0000
,  // measure 17
1000
0010
1000
0000
1000
0001
1000
0000
1000
0001
1000
0000
1000
0100
1000
0000
,  // measure 18
0000
1100
0000
0110
0000
0011
0000
1001
,  // measure 19
0000
0101
0000
0110
0000
1010
0000
1100
,  // measure 20
1000
0000
0100
0000
1000
0000
0010
0000
0100
0001
0100
0000
0001
0000
0000
0000
,  // measure 21
1000
0000
0010
0000
0100
0000
0001
0000
0100
0010
0100
0000
0001
0000
1000
0000
,  // measure 22
1000
0000
0010
0000
0100
0000
0001
0000
1000
0010
1000
0000
0010
0000
1000
0000
,  // measure 23
1001
0000
1000
0001
1000
0000
0001
0100
0001
0000
0100
0010
0100
0000
0010
1000
,  // measure 24
0010
0100
0010
0001
0010
0100
0010
0001
0010
1000
0010
0001
0010
1000
0010
0001
,  // measure 25
0011
0000
0000
0000
1010
0000
0000
0000
1001
0000
0000
0000
1000
0100
0010
0001
,  // measure 26
1000
0100
0110
0010
0011
0001
1001
1000
,  // measure 27
1100
1000
1010
0010
0110
0100
0101
0001
,  // measure 28
0011
0001
1001
0001
0101
0001
0011
0001
,  // measure 29
0011
0010
0110
0100
1100
1000
1001
1000
,  // measure 30
1100
1000
1010
1000
1001
1000
1100
1000
,  // measure 31
1010
1000
1001
1000
0110
0001
1010
0100
,  // measure 32
0101
0010
1100
0001
1010
0001
0110
1000
,  // measure 33
0001
0010
0200
1000
0301
1000
0020
0100
,  // measure 34
0031
0100
1000
0100
0001
0100
1000
0100
,  // measure 35
0001
0010
1000
0001
1000
0010
0001
1000
,  // measure 36
0001
0100
1000
0010
1000
0100
0001
1000
,  // measure 37
0001
0100
0010
1000
0010
0100
0001
1000
,  // measure 38
0100
1000
0010
0100
0001
0010
0001
0100
,  // measure 39
0010
1000
0100
0010
0001
1000
0001
1000
,  // measure 40
0010
0100
0001
0100
0010
1000
0100
0010
,  // measure 41
0001
0101
0100
0100
0010
1000
0010
1000
,  // measure 42
0110
0000
0000
0000
0000
0000
0101
0000
0000
0000
0000
0000
1001
0000
0000
0000
0000
0000
1010
0000
0000
1000
0010
1000
,  // measure 43
0010
0110
1001
0101
,  // measure 44
0110
0000
0000
0000
0000
0000
1010
0000
0000
0000
0000
0000
1001
0000
0000
0000
0000
0000
1100
0000
0000
1000
0001
1000
,  // measure 45
0001
0000
0000
0101
0000
0000
0110
0000
0000
1010
0000
2000
,  // measure 46
3100
0000
0000
0000
0000
0000
0110
0000
0000
0000
0000
0000
0011
0000
0000
0000
0000
0000
1001
0000
0000
0001
0100
0001
,  // measure 47
0100
0110
1100
0101
,  // measure 48
2200
3300
0110
0000
0011
0000
1010
0000
,  // measure 49
0202
0303
0110
0000
1001
0000
0101
0000
,  // measure 50
1010
0000
0000
0000
0000
0000
0101
0000
0000
0000
0000
0000
0100
0000
0000
0010
0000
0000
0100
0000
0000
0001
0100
0001
,  // measure 51
0100
0000
0110
0000
1000
0010
1000
0000
,  // measure 52
1100
0000
0000
0000
0000
0000
0110
0000
0000
0000
0000
0000
0001
0000
0000
0010
0000
0000
0001
0000
0000
1000
0100
1000
,  // measure 53
0100
0000
1010
0000
0100
0001
0100
0000
,  // measure 54
1100
0000
0000
0000
0000
0000
0110
0000
0000
0000
0000
0000
0011
0000
0000
0000
0000
0000
1001
0000
0000
1000
0100
1000
,  // measure 55
0100
0110
1001
0101
,  // measure 56
0022
0000
0000
0033
0000
0000
0110
0000
0000
0000
0000
0000
1100
0000
0000
0000
0000
0000
0001
1000
0001
1000
0001
1000
,  // measure 57
2002
0000
3003
0000
0000
MMMM
0000
0000
0220
0000
0330
0000
0000
MMMM
0000
0000
,  // measure 58
1100
0100
0110
0010
0011
0001
1001
1000
,  // measure 59
0001
0100
0001
0000
1000
0010
1000
0000
0001
0010
0001
0000
1000
0100
1000
0000
,  // measure 60
1100
1000
1010
0010
0110
0100
0101
0001
,  // measure 61
0010
0001
0010
0000
0100
1000
0100
0000
0010
1000
0010
0000
0100
0001
0100
0000
,  // measure 62
0011
0010
0110
0100
1100
1000
1001
0001
,  // measure 63
1000
0010
1000
0000
0001
0100
0001
0000
1000
0100
1000
0000
0001
0010
0001
0000
,  // measure 64
0011
0001
0101
0100
0110
0010
1010
1000
,  // measure 65
0100
1000
0100
0000
0010
0001
0010
0000
0100
0001
0100
0000
0010
1000
0010
0000
,  // measure 66
1010
0000
1100
0000
1000
0100
1000
0100
1000
0010
1000
0010
0100
0001
0100
0001
,  // measure 67
0010
0001
0011
0000
0100
0001
0101
0000
1000
0010
1010
0000
1000
0100
1100
0000
,  // measure 68
1100
0000
0110
0000
0010
0001
0010
0001
0100
0001
0100
0001
1000
0100
0010
0001
,  // measure 69
1000
0100
1100
0000
0010
0001
0011
0000
0001
0100
0101
0000
0010
1000
1010
0000
,  // measure 70
1000
0100
0010
0001
1000
0001
1000
0001
1000
0010
1000
0010
0100
0001
0100
0001
,  // measure 71
1000
0100
1100
0000
1000
0010
1010
0000
0001
0100
0101
0000
0001
0010
0011
0000
,  // measure 72
1100
0110
0011
1100
0110
0011
1001
0110
,  // measure 73
1000
1000
0100
0000
0010
0010
0001
0000
0001
0001
0100
0000
0100
0100
0010
0000
,  // measure 74
1000
0100
0010
0000
0100
0010
0001
0000
0010
0001
1000
0000
0001
1000
0100
0000
,  // measure 75
1000
0001
1000
0000
0001
1000
0001
0000
1000
0001
1000
0000
0001
1000
0001
0000
,  // measure 76
1000
0010
0001
0010
1000
0010
0001
0010
,  // measure 77
1000
0100
0001
1000
0001
0100
1000
0001
,  // measure 78
1000
0010
0001
0100
0001
0010
1000
0001
,  // measure 79
1000
0010
0100
0001
0100
0010
1000
0001
,  // measure 80
0010
0001
0100
0010
1000
0100
1000
0010
,  // measure 81
0100
0001
0010
0100
1000
0001
1000
0001
,  // measure 82
0100
0010
1000
0010
0100
0001
0010
0100
,  // measure 83
1000
0010
0010
0010
0100
0001
0001
0001
,  // measure 84
0001
0100
1000
0100
0001
0100
1000
0100
,  // measure 85
0001
0010
1000
0001
1000
0010
0001
1000
,  // measure 86
0001
0100
1000
0010
1000
0100
0001
1000
,  // measure 87
0001
0100
0010
1000
0010
0100
0001
1000
,  // measure 88
1100
MMMM
0110
0010
0011
0001
1001
MMMM
,  // measure 89
1100
1000
1010
0010
0110
0100
0101
MMMM
,  // measure 90
0011
MMMM
0101
0100
0110
0010
1010
MMMM
,  // measure 91
1100
MMMM
1100
MMMM
1100
MMMM
1100
MMMM
,  // measure 92
0101
MMMM
1001
1000
1010
0010
0110
MMMM
,  // measure 93
0101
0100
1100
1000
1001
0001
0011
MMMM
,  // measure 94
1010
MMMM
0011
0001
1001
1000
1100
MMMM
,  // measure 95
1000
0000
0000
1010
0000
0000
0000
0000
MMMM
0000
0000
0000
0100
0000
0000
0101
0000
0000
0000
0000
MMMM
0000
0000
0000
,  // measure 96
1000
1100
0100
0110
0010
0011
0001
1001
,  // measure 97
1000
0100
0010
0001
1000
0001
1000
0001
1000
0010
0100
0001
1000
0100
0010
0001
,  // measure 98
0202
0000
0000
0000
,  // measure 99
0000
0000
0000
0000
0000
0000
0000
0303
,  // measure 100
0002
0203
0300
0020
,  // measure 101
2030
0000
0000
3000
0000
0000
0000
0000
2020
0000
0000
0000
,  // measure 102
0000
0000
0000
3030
0000
0000
0000
0000
;

//---------------dance-single - Copied from----------------
#NOTEDATA:;
#CHARTNAME:Copied from;
#STEPSTYPE:dance-single;
#DESCRIPTION:Copied from;
#CHARTSTYLE:;
#DIFFICULTY:Medium;
#METER:12;
#RADARVALUES:0.652,0.661,0.390,0.008,0.004,513.000,48.000,1.000,0.000,0.000,0.000,0.000,0.000,0.652,0.661,0.390,0.008,0.004,513.000,48.000,1.000,0.000,0.000,0.000,0.000,0.000;
#CREDIT:Copied from;
#NOTES:
1000
0100
0010
0000
0000
0000
0011
0000
,
0110
0000
0000
1100
,
1001
0000
0000
0000
,
0000
0000
0000
0000
,
0001
0010
0100
0000
0000
0000
1010
0000
,
0101
0000
0000
0110
,
1001
0000
0000
0000
,
0101
0110
1010
1001
,
1000
1000
1000
1000
,
0001
0001
0001
0001
,
0100
0100
0100
0100
,
0010
0000
0010
0000
0010
0100
0010
0100
,
0001
0001
0001
0001
,
1000
1000
1000
1000
,
0100
0100
0100
0100
,
0010
0000
0010
0000
0010
0001
0010
0001
,
0110
1000
0100
1000
,
0010
0100
0001
0010
,
0001
0100
0110
1000
,
0100
1000
1010
1000
,
0001
0100
0101
0001
,
0010
0100
1000
0100
,
0010
0001
0100
0010
,
1000
0100
0010
0001
0100
0010
1000
0001
,
1000
0010
1000
0001
,
0100
0001
0010
0001
,
0100
0010
1000
0001
0100
0010
1000
0001
,
1000
0100
0010
0001
0100
0010
1000
0100
,
0010
0001
1000
0010
1000
0001
1000
0100
,
1000
0010
0100
0001
0010
0001
0100
0010
,
1000
0100
0010
0001
0100
0010
1000
0001
,
1000
0010
0100
0001
1000
0001
1000
0100
,
0010
0001
0100
0010
1000
0001
1000
0100
,
1000
0010
0100
0001
0010
0001
0100
0010
,
1000
0100
1000
0100
1000
0100
1000
0100
,
0010
0001
0010
0001
0010
0001
0010
0001
,
1000
0010
1000
0010
1000
0010
1000
0010
,
0100
0001
0100
0001
0100
0001
0100
0001
,
0010
0001
0010
0001
0010
0001
0010
0001
,
0100
0001
0100
0001
0100
0001
0100
0001
,
1000
0010
1000
0010
1000
0010
1000
0010
,
1000
0100
0000
0000
1000
0100
0000
0000
,
1000
0010
0100
0001
,
0100
0010
1000
0010
,
0100
0001
1000
0100
,
0010
0001
0100
0010
,
1000
0001
0100
0010
,
1000
0001
0100
0001
,
1000
0100
1000
0010
,
0100
0001
0010
0001
,
0100
0010
1000
0001
1000
0010
0100
0001
,
1000
0100
0010
0001
0100
0010
1000
0001
,
1000
0000
0010
0000
0100
0001
0100
0010
,
1000
0000
0010
0000
0100
0010
1000
0010
,
0100
0000
0001
0000
0101
0000
0100
0010
,
1000
0000
0001
0000
1000
0001
0100
0010
,
1000
0101
0110
1001
,
1010
0000
0110
0000
,
1001
0000
0000
0101
0000
0000
0110
0000
,
0000
1010
0000
0000
1100
0000
0000
0000
,
1001
0000
0000
0101
0000
0000
0110
0000
,
0000
1010
0000
0000
1001
0000
0000
0000
,
1010
0000
0000
0110
0000
0000
0101
0000
,
0000
1001
0000
0000
0101
0000
0000
0000
,
1010
0000
0000
1001
0000
0000
0101
0000
,
0000
0110
0000
0000
1010
0000
0000
0000
,
1000
0010
0100
0001
,
0100
0010
1000
0001
,
0100
0001
0100
0001
0010
0001
0010
0001
,
1000
0010
0100
0001
,
1000
0100
1000
0100
1000
0010
1000
0010
,
0100
0001
1000
0100
,
1000
0010
1000
0001
0100
0001
0010
0001
,
1000
0100
1000
0010
,
0100
0001
0010
0001
,
0100
0001
0010
0001
1000
0100
1000
0010
,
0100
0001
0010
0001
0100
0010
1000
0100
,
0000
1000
0000
0000
0010
0100
0001
0010
,
0000
0001
0000
0000
0100
0010
1000
0001
,
1000
0010
1000
0001
1000
0100
0010
0001
,
1000
0110
0001
0110
,
0001
0110
1000
0110
,
1000
1000
1000
1000
,
1000
1000
1000
1000
,
0001
0010
0100
1000
0100
0010
0001
0000
,
1000
0100
0010
0001
0010
0000
1100
0000
,
0001
0100
1000
0100
0010
1000
1100
0000
,
0010
0001
0010
0001
,
1000
0010
0100
0001
,
0100
0010
1000
0010
0100
0010
0100
0001
,
0100
0010
1000
0100
,
0010
0001
0010
0000
0100
1000
0100
0000
,
1000
0100
0010
0001
0100
0010
1000
0010
,
0100
0001
1000
0001
1000
0010
0100
0001
,
1000
0100
0010
0001
0100
0010
1000
0100
,
0010
0010
0010
0010
,
1000
0001
0100
0010
1000
0001
1000
0000
,
0001
0100
0010
1000
0010
0100
0001
0100
,
0020
0000
0000
0000
,
0000
0000
0000
0000
,
1030
0100
0001
0010
,
1000
0000
0000
0000
0000
0000
0000
0000
1000
0000
0000
0000
;

//---------------dance-single - ----------------
#NOTEDATA:;
#CHARTNAME:;
#STEPSTYPE:dance-single;
#DESCRIPTION:;
#CHARTSTYLE:;
#DIFFICULTY:Easy;
#METER:8;
#RADARVALUES:0.458,0.413,0.390,0.024,0.004,344.000,48.000,3.000,0.000,0.000,0.000,0.000,0.000,0.458,0.413,0.390,0.024,0.004,344.000,48.000,3.000,0.000,0.000,0.000,0.000,0.000;
#CREDIT:;
#NOTES:
1000
0010
0000
1010
,
0010
0000
0000
0101
,
0100
0000
0000
0000
,
0010
1000
0001
0010
,
0001
0010
0000
1010
,
0010
0000
0000
0100
,
0110
0000
0000
0000
,
0010
0001
1000
0010
,
1000
1000
0001
0001
,
1000
0010
0100
0001
,
1001
0000
0000
1100
,
0110
0000
0001
0001
,
1000
0010
1000
0001
,
0010
0100
0010
0001
,
2000
0000
0000
3010
,
1000
1000
0001
0001
,
1000
0010
0001
0010
,
0100
0001
0010
1000
,
0010
0100
1000
0001
,
0100
0001
0010
0100
,
1000
1000
0010
0100
,
1000
1000
0100
0010
,
1000
0001
0010
0001
,
1000
0010
1000
0001
,
1001
0000
0000
0000
,
0110
0110
0110
0110
,
0010
1000
0100
1000
,
0010
0100
1000
0100
,
0010
0100
0001
0100
,
0001
0001
1000
1000
,
0100
0010
1000
0010
,
0100
1000
0010
1000
,
0100
0010
0001
0010
,
0001
0011
0010
0110
,
0100
0100
1000
1000
,
0010
0100
0001
0100
,
0001
0001
0010
0010
,
0100
0010
1000
0010
,
0100
1000
0001
0010
,
0100
1000
0001
0100
,
0001
0010
0100
1000
,
1001
0000
1001
0000
,
1000
0000
0110
0000
,
0001
0001
0110
0000
,
0100
0000
1001
0000
,
0010
0010
1001
0000
,
1000
0000
0011
0000
,
0001
0001
1010
0000
,
0010
0000
1100
0000
,
0100
0100
0011
0000
,
0001
1000
1010
1000
,
0001
1000
1100
1000
,
0100
0010
0011
0010
,
0100
0010
1010
0010
,
0100
1000
0001
0010
,
0100
0001
0100
1000
,
0010
1000
0010
0001
,
0010
0000
0110
0000
,
0100
0000
0000
0100
0000
0000
0100
0000
,
0001
0010
0100
1000
,
0010
0000
0000
0010
0000
0000
0010
0000
,
1000
1000
0001
0001
,
1000
0000
0000
1000
0000
0000
1000
0000
,
0100
0010
0100
1000
,
0001
0000
0000
0001
0000
0000
0001
0000
,
1001
0000
0110
0000
,
0010
1000
0100
0001
,
0100
0100
0010
0010
,
0100
1000
0010
0001
,
0010
0010
0100
0100
,
0001
1000
0100
0001
,
0100
0100
1000
1000
,
0010
1000
0001
0100
,
0101
0000
0011
0000
,
1100
0000
1010
0000
,
1000
0001
1000
0001
,
1001
0000
0000
0000
,
0000
0000
0000
0000
1000
0001
1000
0001
,
1000
1000
0010
0010
,
0100
0001
0010
0100
,
0010
0010
0001
0001
,
1000
0100
0010
0001
,
1000
1000
0010
0010
,
1010
1000
1001
0001
,
0100
0010
1000
0100
,
0001
0100
0010
0001
,
1000
0010
0100
0001
,
0101
0000
1001
1000
,
0010
0010
0100
0001
,
1000
0100
0010
0001
,
1000
0010
1000
0100
,
0010
0110
0100
0110
,
0010
0100
1000
0001
,
1000
0010
0001
0010
,
0100
0001
0010
0100
,
1100
0000
1010
0000
,
0101
0000
0011
0000
,
0001
1000
0001
1000
,
2002
0000
0000
0000
,
0000
0000
0000
3003
,
1000
0001
0000
1000
,
0001
0000
0000
0000
0000
0000
0000
0000
1001
0000
0000
0000
;

//---------------dance-single - ----------------
#NOTEDATA:;
#CHARTNAME:;
#STEPSTYPE:dance-single;
#DESCRIPTION:;
#CHARTSTYLE:;
#DIFFICULTY:Beginner;
#METER:5;
#RADARVALUES:0.284,0.318,0.114,0.114,0.000,217.000,14.000,14.000,0.000,0.000,0.000,0.000,0.000,0.284,0.318,0.114,0.114,0.000,217.000,14.000,14.000,0.000,0.000,0.000,0.000,0.000;
#CREDIT:;
#NOTES:
0000
0000
0000
0000
,
0000
0000
0000
0000
,
0000
0000
0000
0000
,
0000
0000
0000
0000
,
0000
0000
0000
0000
,
0000
0000
0000
0000
,
0000
0000
0000
0000
,
0000
0000
0000
0000
,
1000
0000
1000
0000
,
0001
0001
0001
0001
,
0020
0000
0000
0030
,
0200
0000
0000
0300
,
0001
0000
0001
0000
,
1000
1000
1000
1000
,
0020
0000
0000
0030
,
0200
0000
0000
0300
,
0001
0000
0010
0000
,
0001
0000
0100
0000
,
0010
0000
1000
0000
,
0100
0000
0010
0000
,
0001
0000
0100
0000
,
1000
0000
0100
0000
,
0010
0000
1000
0000
,
0001
0000
0010
0000
,
0220
0000
0000
0330
,
0100
0100
0100
0100
,
1000
0000
0010
0000
,
1000
0000
0001
0000
,
1000
0000
0100
0000
,
1000
0000
0010
0000
,
0001
0000
1000
0000
,
0001
0000
0100
0000
,
0001
0000
0010
0000
,
0001
0000
0100
0000
,
0010
0010
0010
0000
,
1000
1000
1000
0000
,
0010
0010
0010
0000
,
0100
0100
0100
0000
,
0001
0001
0001
0000
,
0010
0010
0010
0000
,
0001
0001
0001
0000
,
0100
0000
0110
0000
,
0010
0000
0020
0000
,
1030
0000
1000
0000
,
0001
0000
0002
0000
,
0013
0000
0010
0000
,
0100
0000
0200
0000
,
1300
0000
1000
0000
,
0001
0000
0200
0000
,
0310
0000
0010
0000
,
1000
0000
0001
0002
,
0103
0000
0001
0001
,
0010
0000
0100
0200
,
1300
0000
0100
0100
,
0010
0000
0100
0200
,
0301
0000
0100
0100
,
1000
0000
1000
2000
,
3010
0000
0010
0000
,
0100
0000
0100
0000
,
0001
0010
0100
1000
,
0010
0000
0010
0000
,
1000
0100
0010
0001
,
0100
0000
0100
0000
,
0001
0010
0100
1000
,
0010
0000
0010
0000
,
0100
0000
0100
0000
,
0001
0000
1000
0000
,
0001
0100
0001
0000
,
1000
0000
0001
0000
,
1000
0100
1000
0000
,
0001
0000
1000
0000
,
0001
0010
0001
0000
,
1000
0000
0001
0000
,
1001
0000
0110
0000
,
1001
0000
0110
0000
,
1001
0000
0110
0000
,
1001
0000
0000
0000
,
0000
0000
1000
1000
,
0001
0000
0010
0000
,
0100
0000
0010
0000
,
1000
0000
0010
0000
,
0100
0000
0010
0000
,
0001
0000
1000
0000
,
0100
0000
1000
0000
,
0001
0001
0001
0000
,
1000
1000
1000
0000
,
0010
0010
0010
0000
,
0100
0100
0100
0000
,
0001
0001
1000
0000
,
1000
1000
0010
0000
,
0010
0010
0100
0000
,
0100
0100
0001
0000
,
0001
1000
0001
0000
,
1000
0001
1000
0000
,
0010
1000
0010
0000
,
1001
0000
0110
0000
,
1001
0000
0110
0000
,
0001
0010
0100
1000
,
1001
0000
0000
0000
;
