#VERSION:0.81;
#TITLE:Picture Perfect Pony (ft. EileMonty);
#SUBTITLE:;
#ARTIST:Mandopony;
#TITLETRANSLIT:;
#SUBTITLETRANSLIT:;
#ARTISTTRANSLIT:;
#GENRE:Pop-Rock;
#ORIGIN:;
#CREDIT:;
#BANNER:Picture Perfect Pony (ft. EileMonty).png;
#BACKGROUND:Picture Perfect Pony (ft. EileMonty)-bg.png;
#PREVIEWVID:;
#JACKET:Picture Perfect Pony (ft. EileMonty)-jacket.png;
#CDIMAGE:;
#DISCIMAGE:;
#LYRICSPATH:;
#CDTITLE:;
#MUSIC:Picture Perfect Pony (ft. EileMonty).mp3;
#OFFSET:-0.123;
#SAMPLESTART:48.500;
#SAMPLELENGTH:15.000;
#SELECTABLE:YES;
#BPMS:0.000=139.007,
1.000=139.000,
35.000=139.007,
36.000=139.000,
70.000=139.007,
71.000=139.000,
104.000=139.007,
105.000=139.000,
140.000=139.007,
141.000=139.000,
174.000=139.007,
175.000=139.000,
191.000=125.498,
192.000=139.000,
208.000=139.007,
209.000=139.000,
246.000=139.007,
247.000=139.000;
#STOPS:;
#DELAYS:;
#WARPS:;
#TIMESIGNATURES:0.000=4=4;
#TICKCOUNTS:0.000=4;
#COMBOS:0.000=1;
#SPEEDS:0.000=1.000=0.000=0;
#SCROLLS:0.000=1.000;
#FAKES:;
#LABELS:0.000=Song Start;
#BGCHANGES:-0.500=Picture Perfect Pony (ft. EileMonty).avi=1.000=0=0=0=StretchNoLoop====,
99999=-nosongbg-=1.000=0=0=0 // don't automatically add -songbackground-
;
#KEYSOUNDS:;
#ATTACKS:
;

//---------------dance-single - ----------------
#NOTEDATA:;
#CHARTNAME:;
#STEPSTYPE:dance-single;
#DESCRIPTION:;
#CHARTSTYLE:;
#DIFFICULTY:Hard;
#METER:13;
#RADARVALUES:0.643,0.690,0.251,0.000,0.242,473.000,28.000,0.000,0.000,0.000,0.000,0.000,0.000,0.643,0.690,0.251,0.000,0.242,473.000,28.000,0.000,0.000,0.000,0.000,0.000,0.000;
#CREDIT:RIME;
#NOTES:
1001
0000
1000
0010
1000
0001
0100
0010
,
0100
1000
0100
0010
0100
0001
1000
0100
,
0010
0000
0001
1000
0001
0000
0100
0000
0010
0000
0000
0000
1000
0000
0001
0000
,
1000
0100
0010
0001
0010
0000
0100
1000
,
0010
1000
0001
0010
0001
0000
1000
0001
,
1000
0100
0001
0100
0010
0000
0010
0001
,
1000
0010
0100
0001
0100
0000
0001
1000
,
0001
0100
0010
1000
0010
0000
1000
0100
,
1000
0010
0100
0001
0100
0000
0001
1000
,
0100
0010
0001
1000
0010
1000
0010
1000
,
0001
0010
0100
0000
1000
0010
0100
0000
,
0001
0001
1000
0100
1000
0001
0000
0000
,
0010
1000
0100
0000
0010
0001
0100
0000
,
0001
0001
0100
0001
1000
0100
0000
0000
,
0010
0010
0001
0100
0010
0010
1000
0100
,
1000
0001
1000
0100
0010
0000
0110
0000
,
0100
1000
0010
1000
0001
0010
0001
0100
,
0010
1000
0100
0010
0001
1000
0001
0010
,
0100
1000
0010
0100
0001
0100
0001
0010
,
0100
1000
0010
0100
0010
0100
0010
1000
,
0100
0010
0001
0100
0010
0100
0010
1000
,
0100
0010
0001
0100
0001
0100
0001
1000
,
0100
1000
0010
0100
0001
0000
0101
0001
,
1000
0100
0010
0100
1000
0000
1001
0000
,
0110
0000
0100
1000
0010
0001
0100
0000
,
0010
0000
0000
0010
0000
0000
0010
0000
0010
0000
0000
0000
0000
0000
0000
0000
,
1000
0001
1000
0010
,
0100
0000
0000
0000
1000
0000
0000
0000
0010
0000
0000
0000
0001
0000
1000
0001
,
1000
0000
0010
0000
1010
0000
1000
0001
,
0000
0000
0001
0010
0001
0000
0000
0000
0010
0000
0000
0000
0110
0000
0100
0000
,
1000
0010
1010
1001
,
0001
0010
0010
0001
0001
0010
0010
0001
,
1000
0000
1001
0000
0001
0000
0100
0010
,
0000
0000
1000
0010
1000
0000
0000
0000
0001
0000
0001
0000
1000
0000
0100
0000
,
0010
0011
0010
0100
,
1000
0000
0010
0000
0010
0000
1000
0000
1000
0000
0010
0000
0010
1000
0001
1000
,
0001
0000
1000
0000
0100
0010
0000
0000
0010
0000
0100
1000
0000
0000
1000
0001
,
0010
0001
0100
0010
1000
0010
1000
0001
0100
0001
0010
0000
0110
0000
0100
0000
,
1000
0000
0001
1000
0001
0000
1000
0001
0000
1000
0001
1000
0001
0000
0010
0000
,
0100
1000
0100
0010
0100
0000
1000
0100
0010
0000
0001
0000
0100
0000
0001
1000
,
0010
0000
0010
0000
1000
0001
1000
0100
0010
0000
0100
0000
1000
0000
0000
0000
,
1000
0100
0001
0100
1000
0000
0010
0100
0010
0000
0100
0000
0110
0000
0100
0000
,
0001
0010
0100
1000
0010
1000
0010
0000
0100
0000
0010
0100
0000
0000
0000
0100
,
0001
0000
0010
0000
0001
0000
0100
0000
1000
0000
0100
0000
0001
0000
0001
1000
,
0010
1000
0001
1000
0010
0100
0010
0100
0001
0000
1000
0000
0001
0000
1000
0000
,
0100
0010
0100
0000
1000
0000
0100
0000
0010
0001
0010
0001
0100
0001
1000
0000
,
0100
0010
0100
0000
1000
0000
0001
1000
0100
0000
0010
0001
0100
0000
0010
0000
,
1000
0100
1000
0100
0010
0000
0001
0010
0100
1000
0100
1000
0010
0000
0100
0000
,
0110
0000
1001
0000
0110
0000
0010
1000
,
0000
0000
0100
0010
0100
0000
0000
0000
1000
0000
0100
0000
0010
0000
0001
0000
,
0101
1001
1010
0110
,
0100
0001
0001
0100
0100
0001
0001
0100
,
0010
1000
0001
1000
0010
0100
0001
0100
,
0010
1000
0100
1000
0100
0010
0001
1000
,
1010
0101
0011
1100
,
1000
0000
0001
0000
0001
0000
1000
0000
1000
0000
0001
0000
0001
1000
0001
1000
,
0100
0000
0010
0000
0001
0000
1000
0010
,
0000
0000
1000
0010
1000
0000
0000
0000
0001
0000
0000
0000
0001
0000
1000
0000
,
0010
0010
0100
0100
,
0001
1000
1000
0001
0001
1000
1000
0100
,
0010
0011
0001
0101
,
0100
0000
1100
0000
1000
0000
1010
0010
,
0100
0100
0010
0010
,
1000
0001
0001
1000
1000
0001
0001
1000
,
0001
0000
0000
0000
;

//---------------dance-single - Blank----------------
#NOTEDATA:;
#CHARTNAME:;
#STEPSTYPE:dance-single;
#DESCRIPTION:Blank;
#CHARTSTYLE:;
#DIFFICULTY:Easy;
#METER:5;
#RADARVALUES:0.308,0.286,0.251,0.009,0.000,211.000,28.000,1.000,0.000,0.000,0.000,0.000,0.000,0.308,0.286,0.251,0.009,0.000,211.000,28.000,1.000,0.000,0.000,0.000,0.000,0.000;
#CREDIT:;
#NOTES:
0010
1000
1000
0001
,
0001
0100
0001
0010
,
0001
1000
1000
0000
,
0000
1100
1100
0000
,
0000
0001
0001
0000
,
0000
0101
0101
0000
,
0000
1000
1000
0000
,
0000
1010
1010
0000
,
0000
0001
0001
0000
,
0000
0011
0000
0010
,
0100
1000
0010
0100
,
0001
0001
0001
0000
,
0100
0001
0010
0100
,
1000
1000
1000
0000
,
0100
0100
1000
0010
,
0001
0001
0001
0000
,
0010
0010
0100
0001
,
1000
1000
1000
0100
,
0010
0010
0100
1000
,
0001
0001
0001
0000
,
0010
0010
0001
0100
,
1000
1000
1000
0000
,
0100
0010
0100
0010
,
1000
0001
1000
0000
,
0100
0010
0100
0010
,
0001
1000
0001
0000
,
1001
0000
1001
0000
,
0110
0000
0110
0010
,
0001
0010
0100
1000
,
0001
0000
0001
0000
,
1000
0010
0100
0001
,
1000
0100
0001
0100
,
1000
0010
0100
0001
,
1000
0000
1000
0000
,
0001
0100
0010
1000
,
0001
0100
1000
0100
,
0010
0010
1000
0001
,
1000
0100
0001
0100
,
0010
0010
0001
0100
,
1000
0100
0010
1000
,
0100
0100
0010
0001
,
1000
0001
1000
0001
,
0010
0010
0100
1000
,
0001
0001
0001
0000
,
1000
0010
1000
0001
,
1000
0100
1000
0001
,
0100
1000
0100
0010
,
1000
0010
0200
0301
,
0101
0101
0001
0001
,
1000
0100
1000
0100
,
1100
1100
1000
1000
,
0010
1000
0010
1000
,
1010
1010
0010
0010
,
0100
0001
0100
0001
,
0011
0011
0010
0100
,
1000
0010
0100
0001
,
1000
0000
1000
0000
,
0101
0000
0101
0000
,
0001
0000
0001
0000
,
1100
0000
1100
0000
,
0010
0000
0010
0000
,
0101
0000
0101
0000
,
0100
0000
0100
0000
,
1010
0000
1010
1001
;

//---------------dance-single - Blank----------------
#NOTEDATA:;
#CHARTNAME:;
#STEPSTYPE:dance-single;
#DESCRIPTION:Blank;
#CHARTSTYLE:;
#DIFFICULTY:Medium;
#METER:8;
#RADARVALUES:0.382,0.402,0.144,0.000,0.027,282.000,16.000,0.000,0.000,0.000,0.000,0.000,0.000,0.382,0.402,0.144,0.000,0.027,282.000,16.000,0.000,0.000,0.000,0.000,0.000,0.000;
#CREDIT:;
#NOTES:
// measure 0
0110
0010
1000
0100
,  // measure 1
0001
0100
0010
0001
,  // measure 2
1000
0001
1000
0000
0010
0000
0000
0000
,  // measure 3
0000
0000
1000
0001
0010
0000
0000
0000
,  // measure 4
0000
0000
0001
1000
0100
0000
0000
0000
,  // measure 5
0000
0000
1000
0001
0100
0000
0000
0000
,  // measure 6
0000
0000
0001
0010
0100
0000
0000
0000
,  // measure 7
0000
0000
1000
0010
0100
0000
0000
0000
,  // measure 8
0000
0000
0010
1000
0001
0000
0000
0000
,  // measure 9
0000
0000
0010
0001
1000
0000
0100
0000
,  // measure 10
0010
0000
0010
0000
0100
1000
0010
0000
,  // measure 11
0100
0001
0010
0001
0010
0000
0000
0000
,  // measure 12
0100
1000
0010
0001
,  // measure 13
1000
0100
0001
1000
0100
0000
0000
0000
,  // measure 14
0010
0001
0010
0100
,  // measure 15
1000
0010
1000
0010
1000
0000
0000
0000
,  // measure 16
0010
0000
1000
0000
0001
1000
0001
0000
,  // measure 17
0010
0000
0001
0000
1000
0001
1000
0000
,  // measure 18
0100
1000
0010
1000
,  // measure 19
0100
0010
0001
0010
0100
0000
0000
0000
,  // measure 20
1000
0001
1000
0010
,  // measure 21
1000
0010
0001
0010
0100
0000
0000
0000
,  // measure 22
0001
0010
0001
0000
0010
0100
0010
0000
,  // measure 23
0100
1000
0100
0000
1000
0000
0000
0000
,  // measure 24
0001
0000
1000
0001
1000
0001
1000
0000
,  // measure 25
0010
0000
0000
0010
0000
0000
0010
0000
0110
0000
0000
0000
0000
0000
0000
0000
,  // measure 26
0100
0000
0100
0000
,  // measure 27
0010
1000
0100
0001
,  // measure 28
0010
0000
0010
0000
,  // measure 29
0110
0000
0000
0000
1001
0000
1000
0100
,  // measure 30
0010
0001
1000
0010
,  // measure 31
1000
0010
1000
0000
0010
0100
0010
0000
,  // measure 32
0100
0000
0001
0000
1000
0000
0100
1000
,  // measure 33
0000
1000
0100
0000
0010
0000
0010
0001
,  // measure 34
0100
0010
1000
0010
,  // measure 35
0110
0000
0000
0000
0110
0000
0000
0000
0110
0000
0000
0000
0100
0010
0100
0010
,  // measure 36
0100
0001
0100
0000
0001
0100
0001
0000
,  // measure 37
1000
0100
1000
0000
0100
1000
0100
0000
,  // measure 38
1000
0000
0000
0000
1000
0000
0000
1000
0000
0000
0001
0000
0001
0000
0000
0000
,  // measure 39
1000
0010
1000
0000
0010
0001
0010
0000
,  // measure 40
0010
1000
0100
0000
0010
0100
0010
0000
,  // measure 41
0001
0000
0010
0000
0100
1000
0100
0000
,  // measure 42
1000
0000
0010
0000
0010
0100
0010
0000
,  // measure 43
0100
0001
0100
1000
0100
0000
0000
0000
,  // measure 44
0010
1000
0100
0001
0100
0010
0001
0000
,  // measure 45
1000
0001
1000
0000
0010
1000
0010
0000
,  // measure 46
1000
0000
1000
0000
0100
0010
0100
0000
,  // measure 47
0010
0000
0100
0000
1000
0001
1000
0000
,  // measure 48
1001
0000
1000
0000
0010
0000
0100
0001
,  // measure 49
0000
0001
0100
0000
0010
0000
0010
0100
,  // measure 50
0100
0010
1000
0001
,  // measure 51
1000
0001
1000
0000
0001
1000
0001
0000
,  // measure 52
1000
0000
0010
0000
0001
0000
0010
1000
,  // measure 53
0000
1000
0100
0000
0010
0000
0010
0100
,  // measure 54
0010
0001
1000
0010
,  // measure 55
0110
0000
0000
0000
0110
0000
0000
0000
0110
0000
0000
0000
0100
0010
0100
0010
,  // measure 56
0100
0000
0100
0000
,  // measure 57
0001
0000
0001
0000
,  // measure 58
1000
0000
1000
0000
,  // measure 59
0100
0100
0100
0100
,  // measure 60
0010
0000
0010
0000
,  // measure 61
0001
0000
0001
0000
,  // measure 62
1000
0000
1000
0000
,  // measure 63
0110
0110
0110
0110
,  // measure 64
1001
0000
0000
0000
;

//---------------dance-single - Blank----------------
#NOTEDATA:;
#CHARTNAME:;
#STEPSTYPE:dance-single;
#DESCRIPTION:Blank;
#CHARTSTYLE:;
#DIFFICULTY:Beginner;
#METER:2;
#RADARVALUES:0.106,0.143,0.000,0.009,0.000,82.000,0.000,1.000,0.000,0.000,0.000,0.000,0.000,0.106,0.143,0.000,0.009,0.000,82.000,0.000,1.000,0.000,0.000,0.000,0.000,0.000;
#CREDIT:;
#OFFSET:-0.143;
#BPMS:0.000=139.007
,1.000=139.000
,35.000=139.007
,36.000=139.000
,70.000=139.007
,71.000=139.000
,104.000=139.007
,105.000=139.000
,140.000=139.007
,141.000=139.000
,174.000=139.007
,175.000=139.000
,191.000=125.498
,192.000=139.000
,208.000=139.007
,209.000=139.000
,246.000=139.007
,247.000=139.000
;
#STOPS:;
#DELAYS:;
#WARPS:;
#TIMESIGNATURES:0.000=4=4
;
#TICKCOUNTS:0.000=4
;
#COMBOS:0.000=1
;
#SPEEDS:0.000=1.000=0.000=0
;
#SCROLLS:0.000=1.000
;
#FAKES:;
#LABELS:0.000=Song Start
;
#NOTES:
// measure 0
0020
0030
0000
0000
,  // measure 1
0000
0000
0000
0000
,  // measure 2
0000
1000
0000
0000
,  // measure 3
0000
0001
0000
0000
,  // measure 4
0000
0100
0000
0000
,  // measure 5
0000
0010
0000
0000
,  // measure 6
0000
1000
0000
0000
,  // measure 7
0010
0000
0000
0000
,  // measure 8
0000
0100
0000
0000
,  // measure 9
0000
0000
0000
0000
,  // measure 10
1000
0000
0000
0000
,  // measure 11
1000
0000
0000
0000
,  // measure 12
1000
0000
0000
0000
,  // measure 13
0001
0000
0000
0000
,  // measure 14
0001
0000
0000
0000
,  // measure 15
0100
0000
0000
0000
,  // measure 16
0100
0000
0000
0000
,  // measure 17
0010
0000
0000
0000
,  // measure 18
0010
0000
0000
0000
,  // measure 19
1000
0000
0000
0000
,  // measure 20
0100
0000
0000
0000
,  // measure 21
0001
0000
0000
0000
,  // measure 22
0100
0000
0000
0000
,  // measure 23
0010
0000
0000
0000
,  // measure 24
0001
0000
0000
0000
,  // measure 25
1000
0000
0000
0000
,  // measure 26
0010
0000
0000
0000
,  // measure 27
0100
0000
0000
0000
,  // measure 28
0001
0000
0001
0000
,  // measure 29
0001
0000
0000
0000
,  // measure 30
1000
0000
1000
0000
,  // measure 31
1000
1000
1000
0000
,  // measure 32
0010
0000
0010
0000
,  // measure 33
0010
0000
0000
0000
,  // measure 34
0100
0000
0100
0000
,  // measure 35
0100
0100
0100
0000
,  // measure 36
0100
0000
0000
0000
,  // measure 37
0001
0000
0000
0000
,  // measure 38
0100
0000
0000
0000
,  // measure 39
0010
0000
0000
0000
,  // measure 40
1000
0000
0000
0000
,  // measure 41
0100
0000
0000
0000
,  // measure 42
0010
0000
0000
0000
,  // measure 43
0001
0000
0000
0000
,  // measure 44
1000
0000
0000
0000
,  // measure 45
0010
0000
0000
0000
,  // measure 46
0100
0000
0000
0000
,  // measure 47
0001
0000
0000
0000
,  // measure 48
0010
0000
0010
0000
,  // measure 49
0010
0010
0010
0000
,  // measure 50
0100
0000
0100
0000
,  // measure 51
0100
0100
0100
0000
,  // measure 52
0001
0000
0001
0000
,  // measure 53
0001
0000
0000
0000
,  // measure 54
1000
0000
1000
0000
,  // measure 55
1000
1000
1000
0000
,  // measure 56
0010
0000
0000
0000
,  // measure 57
0100
0000
0000
0000
,  // measure 58
0001
0000
0000
0000
,  // measure 59
1000
0000
1000
0000
,  // measure 60
1000
0000
0000
0000
,  // measure 61
0010
0000
0000
0000
,  // measure 62
0100
0000
0000
0000
,  // measure 63
0001
0000
0001
0000
;

//---------------dance-single - Blank----------------
#NOTEDATA:;
#CHARTNAME:;
#STEPSTYPE:dance-single;
#DESCRIPTION:Blank;
#CHARTSTYLE:;
#DIFFICULTY:Challenge;
#METER:9;
#RADARVALUES:0.346,0.344,0.009,0.054,0.000,263.000,1.000,6.000,124.000,0.000,0.000,0.000,0.000,0.346,0.344,0.009,0.054,0.000,263.000,1.000,6.000,124.000,0.000,0.000,0.000,0.000;
#CREDIT:;
#OFFSET:-0.143;
#BPMS:0.000=139.007
,1.000=139.000
,35.000=139.007
,36.000=139.000
,70.000=139.007
,71.000=139.000
,104.000=139.007
,105.000=139.000
,140.000=139.007
,141.000=139.000
,174.000=139.007
,175.000=139.000
,191.000=125.498
,192.000=139.000
,208.000=139.007
,209.000=139.000
,246.000=139.007
,247.000=139.000
;
#STOPS:;
#DELAYS:;
#WARPS:;
#TIMESIGNATURES:0.000=4=4
;
#TICKCOUNTS:0.000=4
;
#COMBOS:0.000=1
;
#SPEEDS:0.000=1.000=0.000=0
;
#SCROLLS:0.000=1.000
;
#FAKES:;
#LABELS:0.000=Song Start
;
#NOTES:
// measure 0
1001
1000
0001
1000
,  // measure 1
0010
0100
0001
0100
,  // measure 2
MMMM
0010
1000
0100
,  // measure 3
0001
0100
1000
0010
,  // measure 4
MMMM
0100
0001
0100
,  // measure 5
0010
1000
0001
0010
,  // measure 6
MMMM
0000
0100
1000
0100
0000
0010
0000
,  // measure 7
0001
0000
0100
0010
1000
0000
0001
0000
,  // measure 8
MMMM
0000
0010
0100
1000
0000
0001
0000
,  // measure 9
0100
0000
0010
1000
0001
0000
MMMM
0000
,  // measure 10
0010
0100
1000
0100
,  // measure 11
0010
0001
0100
0000
0010
0000
MMMM
0000
,  // measure 12
1000
0000
0100
0000
1000
0001
0100
0000
,  // measure 13
0010
1000
0001
0000
0010
0000
MMMM
0000
,  // measure 14
0100
1000
0001
0100
,  // measure 15
0010
1000
0001
0000
0010
0000
MMMM
0000
,  // measure 16
0100
0000
0001
0000
0100
1000
0001
0000
,  // measure 17
0100
1000
0100
0000
0010
0000
MMMM
0000
,  // measure 18
1000
0000
0100
0000
0010
0001
1000
0000
,  // measure 19
0010
0100
0001
MMMM
,  // measure 20
0100
0000
0010
0000
1000
0001
0010
0000
,  // measure 21
0100
1000
0001
0000
0100
0000
MMMM
0000
,  // measure 22
0010
0000
1000
0000
0100
1000
0001
0000
,  // measure 23
0100
0010
1000
MMMM
,  // measure 24
0001
0000
0010
0000
0100
1000
0100
0000
,  // measure 25
0010
0001
1000
0000
0010
0000
MMMM
0000
,  // measure 26
0001
0100
0000
0000
0100
0010
0000
0000
,  // measure 27
0010
1000
0000
1000
0100
2000
0000
0000
,  // measure 28
3001
0000
0100
0000
0010
0000
0100
0001
,  // measure 29
0000
1000
0000
0100
0000
0000
MMMM
0000
,  // measure 30
1000
0010
0100
0001
,  // measure 31
1000
0100
1000
0001
0100
0000
MMMM
0000
,  // measure 32
0010
0000
1000
0000
0100
0000
1000
0001
,  // measure 33
0000
0100
0000
0010
0000
1000
MMMM
0000
,  // measure 34
0010
1000
0100
0001
,  // measure 35
0100
0010
0001
1000
0010
0000
MMMM
0000
,  // measure 36
0100
0001
0100
0000
0010
0000
MMMM
0000
,  // measure 37
1000
0100
1000
0000
0001
0000
MMMM
0000
,  // measure 38
0100
0010
1000
0000
0001
0000
MMMM
0000
,  // measure 39
0010
0100
0001
0000
0100
0000
MMMM
0000
,  // measure 40
0010
0001
1000
0000
0010
0000
MMMM
0000
,  // measure 41
0100
0010
1000
0000
0001
0000
MMMM
0000
,  // measure 42
0010
0100
1000
0000
0001
0000
MMMM
0000
,  // measure 43
0100
0010
1000
0000
0001
0000
MMMM
0000
,  // measure 44
0010
0000
0100
0000
1000
0001
0100
0000
,  // measure 45
0010
1000
0100
MMMM
,  // measure 46
1000
0000
0010
0000
0100
0001
1000
0000
,  // measure 47
0100
0010
0001
MMMM
,  // measure 48
0100
0000
0010
0000
1000
0000
0100
1000
,  // measure 49
0000
0001
0000
0100
0000
0000
MMMM
0000
,  // measure 50
0010
1000
0100
1000
,  // measure 51
0010
0100
0001
1000
0100
0000
MMMM
0000
,  // measure 52
0010
0000
0001
0000
1000
0000
0100
1000
,  // measure 53
0000
0001
0000
0100
0000
0000
MMMM
0000
,  // measure 54
0010
1000
0100
1000
,  // measure 55
0001
0100
0010
0100
0001
1000
MMMM
0000
,  // measure 56
0100
0000
1000
0000
0001
0000
0100
0010
,  // measure 57
0000
0200
0000
0000
0000
0000
0000
0000
,  // measure 58
0301
0010
0100
1000
,  // measure 59
0001
0100
0002
0000
1003
0010
2000
0000
,  // measure 60
3010
0000
0100
0000
0001
0000
1000
0100
,  // measure 61
0000
2000
0000
0000
0000
0000
0000
0000
,  // measure 62
3010
0100
0001
0100
,  // measure 63
0010
1000
0020
0000
0130
0001
0100
0001
;
