#VERSION:0.81;
#TITLE:Pain;
#SUBTITLE:;
#ARTIST:3 Days Grace;
#TITLETRANSLIT:;
#SUBTITLETRANSLIT:;
#ARTISTTRANSLIT:;
#GENRE:Rock;
#ORIGIN:;
#CREDIT:;
#BANNER:Pain.png;
#BACKGROUND:Pain-bg.png;
#PREVIEWVID:;
#JACKET:Pain-jacket.png;
#CDIMAGE:;
#DISCIMAGE:;
#LYRICSPATH:;
#CDTITLE:;
#MUSIC:Pain.mp3;
#OFFSET:-0.084;
#SAMPLESTART:65.820;
#SAMPLELENGTH:15.000;
#SELECTABLE:YES;
#BPMS:0.000=80.250;
#STOPS:;
#DELAYS:;
#WARPS:;
#TIMESIGNATURES:0.000=4=4;
#TICKCOUNTS:0.000=4;
#COMBOS:0.000=1;
#SPEEDS:0.000=1.000=0.000=0;
#SCROLLS:0.000=1.000;
#FAKES:;
#LABELS:0.000=Song Start;
#BGCHANGES:-0.500=Pain.avi=1.000=0=0=0=StretchNoLoop====,
99999=-nosongbg-=1.000=0=0=0 // don't automatically add -songbackground-;
#KEYSOUNDS:;
#ATTACKS:
;

//---------------dance-single - Blank----------------
#NOTEDATA:;
#CHARTNAME:;
#STEPSTYPE:dance-single;
#DESCRIPTION:Blank;
#CHARTSTYLE:;
#DIFFICULTY:Hard;
#METER:12;
#RADARVALUES:0.562,0.496,0.659,0.496,0.342,341.000,81.000,61.000,0.000,0.000,0.000,0.000,0.000,0.562,0.496,0.659,0.496,0.342,341.000,81.000,61.000,0.000,0.000,0.000,0.000,0.000;
#CREDIT:;
#NOTES:
0010
0001
0010
0001
1000
0010
0200
0000
,
0301
0000
0100
0000
0001
0100
0001
0000
1000
0000
0001
0000
2000
0000
0000
0000
,
3100
0000
1000
0000
0100
0000
1000
0010
0100
0000
0001
0200
0000
0000
0310
0100
,
0010
0100
0001
0000
0100
0000
0010
0000
1000
0001
1000
0020
0000
0000
0000
0130
,
0020
0000
0000
0000
0000
0000
0000
0000
1030
0000
0000
0000
0010
0010
1000
0000
,
1001
0000
1001
0000
0001
0010
0100
0010
0002
0000
0000
0000
0203
0000
0000
0300
,
0110
0000
0110
0000
0010
1000
0100
1000
0020
0000
0000
0000
0230
0000
0000
0300
,
0101
0000
0101
0000
0001
0010
0100
0010
0002
0000
0000
0000
2003
0000
0000
3000
,
1100
0000
1100
0000
0100
0000
0010
0000
1010
0000
1010
0000
0010
0001
0100
0010
,
1000
0000
1001
0000
0000
0000
1000
0000
0100
0000
0010
0002
0000
0000
0103
0001
,
0100
0110
0000
0010
1000
0100
0010
0000
,
0110
0000
1001
0000
0000
0000
0011
0000
0010
0000
0100
0001
0000
0000
0100
1000
,
0010
0001
1000
0100
0000
0010
0100
0010
0100
0000
0010
2000
0000
0000
0000
0000
,
3001
0000
1100
0000
0000
0000
0100
0000
0010
0000
0100
2000
0000
0000
3010
0000
,
1010
1001
0101
0000
0011
1001
1100
0000
,
0110
0000
0011
0000
0000
0000
0001
0000
1000
0000
0010
2000
0000
0000
3001
1000
,
0010
0000
1000
0001
0000
0000
1000
0001
0010
0000
0001
1000
0000
0001
1000
0100
,
0020
0000
0000
0000
0000
0000
0000
0000
0130
0000
0000
0000
0010
0010
0001
0000
,
0101
0000
0101
0000
0100
0010
1000
0001
1001
0000
0011
0000
0110
0000
0000
0000
,
1100
0000
1100
0000
0100
0010
0001
0000
1001
0000
1010
0000
0011
0000
0010
0000
,
0110
0000
0110
0000
0010
1000
0100
1000
0200
0000
0310
0200
0000
0000
1300
0100
,
0010
0001
0010
0000
1001
0000
1010
0000
0010
1000
0100
0020
0000
0031
0010
0000
,
1001
0000
1001
0000
1000
0010
0001
1000
1100
0000
0101
0000
1200
0000
0000
0300
,
0110
0000
0110
0000
0001
0010
1000
0001
0101
0000
1100
0000
0102
0000
0000
0003
,
1001
0000
1001
0000
1000
0100
0010
0100
0110
0000
0010
0001
0000
0000
0100
0001
,
0100
0010
1000
0000
1001
0000
0011
0000
0010
0100
1000
0020
0000
0000
0000
0000
,
0130
0020
0000
0000
1030
0020
0000
0030
0220
0000
0000
0330
2001
0000
3100
0000
,
1000
0100
0000
0010
0100
0000
1000
0100
0000
0010
0100
0000
0010
0000
0001
0000
,
0202
0303
2020
3030
0022
0033
1100
0110
,
0020
1030
0020
1030
2000
3001
2000
3001
,
0002
0013
0002
0013
0020
0130
0020
0130
,
0200
1300
0200
1300
2000
3001
2000
3001
,
0002
0103
0002
0103
0200
0310
0200
0310
,
2002
0000
0000
0000
0000
0000
0000
0000
3003
0000
0000
0000
0000
1000
1010
0000
,
0110
0000
0110
0000
0010
1000
0100
1000
1100
0000
0110
0000
0101
0000
0000
0000
,
1010
0000
1010
0000
0010
0001
0100
0000
0110
0000
1010
0000
1001
0000
0000
0000
,
0011
0000
0011
0000
0010
0100
1000
0001
2000
0000
3010
2000
0000
0000
3001
1000
,
0100
0010
0100
0000
0110
0000
0011
0000
0001
0010
0100
2000
0000
0000
3010
0000
,
1000
0001
1000
0000
1010
0000
0110
0000
0100
0001
0010
0002
0000
0013
0001
0000
,
0010
0200
0000
0000
0310
0200
0000
0300
0220
0000
0000
0330
2002
0000
0000
3003
,
1000
0100
0000
0001
0100
0000
0010
0001
0000
1000
1001
0000
0000
0000
0000
0000
;

//---------------dance-single - Blank----------------
#NOTEDATA:;
#CHARTNAME:;
#STEPSTYPE:dance-single;
#DESCRIPTION:Blank;
#CHARTSTYLE:;
#DIFFICULTY:Medium;
#METER:6;
#RADARVALUES:0.230,0.231,0.187,0.342,0.012,133.000,23.000,42.000,0.000,0.000,0.000,0.000,0.000,0.230,0.231,0.187,0.342,0.012,133.000,23.000,42.000,0.000,0.000,0.000,0.000,0.000;
#CREDIT:;
#NOTES:
0020
0000
2030
0000
,
3002
0000
0023
0000
,
0230
0000
2300
0000
,
3002
0000
0203
0000
,
0320
0000
0000
1030
,
1010
1000
0002
1003
,
1001
1000
0200
1300
,
1100
0100
0020
0130
,
0010
0010
0100
0100
,
2000
3000
0002
0003
,
2000
3000
0002
0003
,
0020
0030
0002
0003
,
0200
0300
2000
3000
,
1001
0000
0000
0000
,
0110
0000
0000
0000
,
1010
0000
0010
0000
,
0101
0000
0100
0000
,
0210
0000
0000
0301
,
0101
0001
2000
3001
,
1001
1000
0200
1300
,
1100
0100
0020
0130
,
0010
0010
0100
0100
,
1100
1000
0002
1003
,
1001
0001
0200
0301
,
0101
0100
0020
0130
,
0010
0010
0100
0100
,
0010
0010
2000
3002
,
0013
0000
0000
0010
0000
0000
0010
0000
0000
0010
0000
0000
0010
0000
0000
0000
,
0100
0100
0100
0100
,
2000
3200
2300
3200
,
0320
0230
0320
0230
,
1300
1100
1000
1001
,
0001
0101
0001
1001
,
0120
0000
0000
0000
0000
0000
0000
1030
,
1010
1000
0002
1003
,
1001
1000
0200
1300
,
1100
0200
0310
0100
,
0010
0010
0100
0100
,
1000
0001
1000
0001
,
0010
0100
2000
3010
,
1000
0000
0000
1000
0000
0000
1000
0000
0000
0000
1001
0000
0000
0000
0000
0000
;

//---------------dance-single - Blank----------------
#NOTEDATA:;
#CHARTNAME:;
#STEPSTYPE:dance-single;
#DESCRIPTION:Blank;
#CHARTSTYLE:;
#DIFFICULTY:Easy;
#METER:4;
#RADARVALUES:0.155,0.198,0.081,0.203,0.000,98.000,10.000,25.000,0.000,0.000,0.000,0.000,0.000,0.155,0.198,0.081,0.203,0.000,98.000,10.000,25.000,0.000,0.000,0.000,0.000,0.000;
#CREDIT:;
#NOTES:
0000
0000
0000
0000
,
0000
0000
0000
0000
,
0000
0000
0000
0000
,
0000
0000
0000
0000
,
0000
0000
0000
0010
,
0100
0100
1000
0000
,
0010
0010
1000
0000
,
0001
0001
0100
0000
,
0010
1000
0010
1000
,
0002
0000
0000
0000
,
2003
0000
0000
0000
,
3020
0000
0000
0000
,
0230
0000
0000
0300
,
0220
0000
0000
0330
,
2020
0000
0000
3030
,
2002
0000
0000
3003
,
0202
0000
0000
0303
,
0220
0000
0330
0010
,
1000
1000
0001
0000
,
1000
0001
0100
0000
,
0001
0001
0100
0000
,
0001
0100
0010
1000
,
0001
0001
1000
0000
,
0001
1000
0100
0000
,
1000
1000
0100
0000
,
0010
0010
0100
0100
,
0010
0010
0100
0100
,
0110
0000
0000
0110
0000
0000
0010
0000
,
0002
0023
0230
2300
,
3002
0003
0002
0003
,
0200
0300
0200
0300
,
0010
0010
0010
0010
,
1000
1000
1000
1000
,
2002
0000
0000
3003
,
0110
0010
1000
0000
,
0001
0001
1000
0000
,
0001
1000
0100
0000
,
0010
0100
0010
0010
,
0001
0010
0100
1000
,
0010
0010
2000
3010
,
1000
0000
0000
1001
0000
0001
0000
0000
;

//---------------dance-single - Blank----------------
#NOTEDATA:;
#CHARTNAME:;
#STEPSTYPE:dance-single;
#DESCRIPTION:Blank;
#CHARTSTYLE:;
#DIFFICULTY:Beginner;
#METER:1;
#RADARVALUES:0.084,0.083,0.057,0.008,0.000,64.000,7.000,1.000,0.000,0.000,0.000,0.000,0.000,0.084,0.083,0.057,0.008,0.000,64.000,7.000,1.000,0.000,0.000,0.000,0.000,0.000;
#CREDIT:;
#NOTES:
0000
0000
0000
0000
,
0000
0000
0000
0000
,
0000
0000
0000
0000
,
0000
0000
0000
0000
,
0000
0000
0000
0000
,
0010
0000
0010
0000
,
0100
0000
0100
0000
,
1000
0000
0001
0000
,
1000
0000
0001
0000
,
0100
0000
0000
0000
,
0110
0000
0000
0000
,
0010
0000
0000
0000
,
0110
0000
0000
0000
,
1000
0000
0000
0000
,
1001
0000
0000
0000
,
0001
0000
0000
0000
,
1001
0000
0000
0000
,
0110
0000
0000
0010
,
0010
0000
1000
0000
,
0001
0000
0010
0000
,
0100
0000
1000
0000
,
0001
0000
0001
0001
,
0001
0000
1000
0000
,
0001
0000
0100
0000
,
0001
0000
1000
0000
,
0001
0000
0010
0000
,
0100
0000
2000
0000
,
3010
0000
0000
0010
,
0010
0000
0100
0000
,
0001
0000
0001
0000
,
0001
0000
0001
0000
,
1000
0000
1000
0000
,
1000
0000
1000
0000
,
1001
0000
0000
0000
,
1000
0000
1000
0000
,
0001
0000
0001
0000
,
0100
0000
0100
0000
,
0010
0000
0010
0000
,
1000
0000
0010
0000
,
0001
0000
0010
0000
,
1000
0000
0000
0000
0000
1001
0000
0000
;
