#TITLE:PONPONPON;
#SUBTITLE:;
#ARTIST:Kyary Pamyu Pamyu;
#TITLETRANSLIT:;
#SUBTITLETRANSLIT:;
#ARTISTTRANSLIT:;
#GENRE:Pop;
#CREDIT:;
#BANNER:PONPONPON.png;
#BACKGROUND:PONPONPON-bg.png;
#LYRICSPATH:;
#CDTITLE:;
#MUSIC:PONPONPON.mp3;
#OFFSET:-1.007;
#SAMPLESTART:45.960;
#SAMPLELENGTH:15.000;
#SELECTABLE:YES;
#BPMS:0.000=128.000
;
#STOPS:
;
#BGCHANGES:-2.250=PONPONPON.avi=1.000=0=0=0=StretchNoLoop====,
99999=-nosongbg-=1.000=0=0=0 // don't automatically add -songbackground-
;
#KEYSOUNDS:;
#ATTACKS:;

//---------------dance-single - ----------------
#NOTES:
     dance-single:
     :
     Easy:
     5:
     0.260,0.223,0.484,0.012,0.000,112.000,41.000,1.000,0.000,0.000,0.000,0.260,0.223,0.484,0.012,0.000,112.000,41.000,1.000,0.000,0.000,0.000:
0000
1001
0000
1001
,
0000
1001
0000
1001
,
0000
0110
0000
0110
,
0000
0110
0000
0110
,
0000
1010
0000
1010
,
0000
0011
0000
0011
,
0000
1100
0000
1100
,
0000
0101
0100
0101
,
0100
0100
0010
0010
,
1000
0000
1000
0000
,
0100
0100
0010
0010
,
0001
0000
0001
0000
,
0100
0001
0100
0001
,
1000
0000
1000
0000
,
0010
1000
0010
1000
,
0001
0000
1001
0000
,
0110
0110
0110
0000
,
0010
1000
0010
0000
,
0110
0110
0110
0000
,
0100
0001
0100
0000
,
1001
1001
1001
0000
,
0001
0010
0001
0000
,
1001
1001
1001
0000
,
1000
0100
1000
0000
,
0110
0110
0110
0000
,
0010
0001
0010
0000
,
0110
0110
0110
0000
,
0100
1000
0100
0000
,
1001
1001
1001
0000
,
1000
0010
1000
0000
,
1001
1001
1001
0000
,
0001
0100
0001
0000
,
0100
0000
0100
0000
,
0010
1000
0001
0000
,
0010
0000
0010
0000
,
0100
1000
0001
0000
,
0100
0000
0100
0000
,
0010
0100
0001
0000
,
0010
0000
0010
0000
,
0100
0010
0001
0100
,
0020
0000
0000
0000
,
0000
0000
0000
0000
,
0130
0000
0000
0000
;

//---------------dance-single - ----------------
#NOTES:
     dance-single:
     :
     Hard:
     11:
     0.589,0.471,0.461,0.024,0.165,308.000,39.000,2.000,0.000,0.000,0.000,0.589,0.471,0.461,0.024,0.165,308.000,39.000,2.000,0.000,0.000,0.000:
0010
1000
1010
0000
1000
0001
1001
0001
,
0000
0010
0110
0100
1000
0010
0110
0100
,
0001
0010
0011
0000
0010
0100
0110
0100
,
0000
1000
1100
1000
0001
0100
0110
0010
,
1000
0001
1001
0000
0001
0010
0011
0010
,
0000
0100
0110
0100
1000
0100
0110
0010
,
0001
1000
1001
1000
0010
0100
0101
0001
,
0000
1000
1001
0001
0010
0100
1000
0010
,
0100
0001
0010
0100
0110
0110
0000
1001
,
0000
1000
1000
0010
1000
0100
0010
0001
,
0100
0010
1000
0001
0010
0100
0010
0110
,
0000
0100
1000
0010
0100
0001
0010
0100
,
0010
0001
0010
0100
1000
0010
1000
0100
,
0010
0000
0001
0000
0001
0000
1000
0010
1000
0000
0100
0000
0010
0000
0100
0000
,
1000
0001
1000
0001
0100
0010
0100
0010
,
0000
0000
0000
1000
0000
0000
0011
0000
0000
1000
0000
0000
0011
0000
0000
0001
1000
0001
1000
0000
0000
0000
0000
0000
,
0100
0000
0000
0010
0100
0000
0000
0010
0001
0000
0100
0000
0010
0000
0000
0000
,
1000
1000
0001
0010
0100
0010
0110
0000
,
0010
0000
0000
0100
0010
0000
0000
0100
1000
0000
0100
0000
0010
0000
0000
0000
,
0001
1000
0010
1000
0001
0100
0101
0000
,
0100
0000
0000
0010
0100
0000
0000
0010
1000
0000
0001
0000
1001
0000
0000
0000
,
1000
0010
0001
1000
0100
0010
0110
0000
,
0010
0000
0000
0100
0010
0000
0000
0100
0001
0000
0010
0000
0110
0000
0000
0000
,
0100
0100
1000
0010
0100
0101
1001
1100
,
0100
0000
0000
0010
0100
0000
0000
0010
0001
0000
0100
0000
0101
0000
0000
0000
,
0001
0001
1000
0100
1000
1010
1010
0000
,
0010
0000
0000
0100
0010
0000
0000
0100
0001
0000
0100
0000
0110
0000
0000
0000
,
0010
1000
0001
0100
0010
0100
0101
0000
,
0100
0000
0000
0010
0100
0000
0000
0010
1000
0000
0001
0000
1001
0000
0000
0000
,
1000
0100
0001
0100
1000
0010
0110
0000
,
0010
0000
0000
0100
0010
0000
0000
0100
1000
0000
0100
0000
0101
0000
0000
0000
,
0001
0000
0000
0010
0000
0000
0100
0000
0000
0010
0100
0010
0100
0000
0000
1000
0000
0000
0001
0000
0000
0100
0000
0000
,
0010
1000
0010
1000
0001
0100
0001
0010
,
0100
0000
1000
0000
0010
0000
0100
0000
0010
0100
0010
0100
0001
0000
0010
0000
,
0100
1000
0100
1000
0001
0010
0001
0100
,
0010
0000
1000
0000
0001
0000
0100
0000
0001
0100
0001
0100
0001
0000
0100
0000
,
0010
1000
0001
1000
0100
0010
0001
1000
,
0010
0000
0100
0000
0001
0000
1000
0000
0010
1000
0010
1000
0010
0000
0100
0000
,
0001
1000
0100
0010
0100
1000
0010
0100
,
0001
0000
0010
0000
0100
0010
0100
0000
1000
0000
0001
0000
1000
0000
0010
0000
,
0220
0000
0000
0000
,
0000
0000
0000
0330
,
1001
0000
0000
0000
;

//---------------dance-single - ----------------
#NOTES:
     dance-single:
     :
     Medium:
     7:
     0.400,0.347,0.189,0.047,0.000,217.000,16.000,4.000,0.000,0.000,0.000,0.400,0.347,0.189,0.047,0.000,217.000,16.000,4.000,0.000,0.000,0.000:
0010
1000
0010
0000
0100
0010
0000
1000
,
0000
0000
0000
0100
0010
0000
0010
0000
,
0001
0010
0001
0000
0100
0010
0000
1000
,
0000
0000
0000
0001
0010
0000
0010
0000
,
0100
1000
0100
0000
1000
0010
0000
0100
,
0000
0000
0000
0001
0100
0000
0100
0000
,
0010
1000
0001
0000
1000
0001
0000
0010
,
0000
0000
0000
0100
1000
0010
0100
0010
,
0100
0000
0100
0000
0100
0001
0010
0000
,
0100
0000
0100
0000
0100
1000
0010
0000
,
0100
0000
0001
0000
0100
0001
0100
0000
,
0010
0000
1000
0000
0010
1000
0010
0000
,
1000
0000
0001
0000
1000
0001
1000
0000
,
0010
0000
0100
0000
0010
0100
0010
0000
,
1000
0000
0100
0000
0010
0001
0010
0100
,
0000
0010
0001
0010
0100
0000
0000
0000
,
1001
0000
1001
0000
1000
0010
1000
0000
,
0001
0010
0001
0000
1000
0001
1000
0000
,
1001
0000
1001
0000
0001
0100
0001
0000
,
1000
0100
1000
0000
0001
1000
0001
0000
,
1001
0000
1001
0000
1000
0010
0100
0000
,
0001
0010
0100
0000
1000
0001
0001
0000
,
1001
0000
1001
0000
0001
0100
0010
0000
,
1000
0100
0010
0001
1000
0010
0100
0000
,
0110
0000
0110
0000
0010
1000
0010
0000
,
0100
0001
0100
0000
0010
0100
0010
0000
,
0110
0000
0110
0000
0010
0001
0010
0000
,
0100
1000
0100
0000
0010
0100
0010
0000
,
0110
0000
0110
0000
0010
1000
0001
0000
,
0010
0001
1000
0000
0100
0010
0100
0000
,
0110
0000
0110
0000
0100
1000
0001
0000
,
0100
0001
1000
0010
0100
0010
0010
0000
,
1000
0010
1000
0000
0010
1000
0010
0000
,
1000
0001
0010
0001
2000
0000
0000
0000
,
3001
0010
0001
0000
0010
0001
0010
0000
,
0001
1000
0010
1000
0002
0000
0000
0000
,
1003
0100
1000
0000
0100
1000
0100
0000
,
1000
0001
0100
0001
2000
0000
0000
0000
,
3001
0100
0001
0000
0100
0001
0100
0000
,
0001
1000
0100
1000
0001
0010
0100
1000
,
0002
0000
0000
0000
,
0000
0000
0000
0000
,
1003
0000
0000
0000
;

//---------------dance-single - ----------------
#NOTES:
     dance-single:
     :
     Beginner:
     1:
     0.076,0.074,0.047,0.059,0.000,36.000,4.000,5.000,0.000,0.000,0.000,0.076,0.074,0.047,0.059,0.000,36.000,4.000,5.000,0.000,0.000,0.000: // measure 0
0000
1000
0000
0000
,  // measure 1
0000
1000
0000
0000
,  // measure 2
0000
0001
0000
0000
,  // measure 3
0000
0001
0000
0000
,  // measure 4
0000
0010
0000
0000
,  // measure 5
0000
0010
0000
0000
,  // measure 6
0000
0100
0000
0000
,  // measure 7
0000
0100
0000
0000
,  // measure 8
0010
0000
0000
0000
,  // measure 9
0010
0000
0000
0000
,  // measure 10
0001
0000
0000
0000
,  // measure 11
0001
0000
0000
0000
,  // measure 12
1000
0000
0000
0000
,  // measure 13
1000
0000
0000
0000
,  // measure 14
0100
0000
0000
0000
,  // measure 15
0100
0000
0000
0000
,  // measure 16
0110
0000
0000
0000
,  // measure 17
0000
0000
0000
0000
,  // measure 18
0110
0000
0000
0000
,  // measure 19
0000
0000
0000
0000
,  // measure 20
1001
0000
0000
0000
,  // measure 21
0000
0000
0000
0000
,  // measure 22
1001
0000
0000
0000
,  // measure 23
0000
0000
0000
0000
,  // measure 24
1000
0000
1000
0000
,  // measure 25
1000
0000
0000
0000
,  // measure 26
0001
0000
0000
0000
,  // measure 27
0001
0000
0000
0000
,  // measure 28
0010
0000
0010
0000
,  // measure 29
0010
0000
0000
0000
,  // measure 30
0100
0000
0000
0000
,  // measure 31
0100
0000
0000
0000
,  // measure 32
0020
0000
0000
0000
,  // measure 33
0030
0000
0000
0000
,  // measure 34
0200
0000
0000
0000
,  // measure 35
0300
0000
0000
0000
,  // measure 36
2000
0000
0000
0000
,  // measure 37
3000
0000
0000
0000
,  // measure 38
0002
0000
0000
0000
,  // measure 39
0003
0000
0000
0000
,  // measure 40
0200
0000
0000
0000
,  // measure 41
0000
0000
0000
0000
,  // measure 42
0310
0000
0000
0000
;
