#VERSION:0.81;
#TITLE:Opportunity (The Flim Flam Brothers Song);
#SUBTITLE:;
#ARTIST:♪♪♪♪♪;
#TITLETRANSLIT:;
#SUBTITLETRANSLIT:;
#ARTISTTRANSLIT:;
#GENRE:My Little Pony;
#ORIGIN:;
#CREDIT:;
#BANNER:Opportunity (The Flim Flam Brothers Song).png;
#BACKGROUND:Opportunity (The Flim Flam Brothers Song)-bg.png;
#PREVIEWVID:;
#JACKET:Opportunity (The Flim Flam Brothers Song)-jacket.png;
#CDIMAGE:;
#DISCIMAGE:;
#LYRICSPATH:;
#CDTITLE:;
#MUSIC:Opportunity (The Flim Flam Brothers Song).mp3;
#OFFSET:-1.158;
#SAMPLESTART:26.600;
#SAMPLELENGTH:15.000;
#SELECTABLE:YES;
#BPMS:0.000=122.324,
2.000=120.888,
3.000=118.125,
4.000=119.496,
5.000=120.185,
6.000=116.134,
7.000=119.496,
8.000=125.284,
9.000=119.496,
10.000=122.324,
11.000=118.125,
12.000=118.809,
13.000=119.496,
14.000=112.966,
15.000=118.125,
16.000=122.319,
17.000=126.054,
18.000=120.888,
19.000=111.740,
20.000=119.496,
21.000=118.804,
22.000=117.459,
23.000=127.604,
24.000=103.363,
25.000=120.185,
26.000=118.804,
27.000=109.970,
28.000=135.999,
29.000=117.459,
30.000=111.139,
31.000=124.529,
32.000=118.804,
33.000=113.591,
34.000=121.599,
35.000=107.670,
36.000=129.199,
37.000=118.804,
38.000=112.352,
39.000=116.134,
40.000=127.604,
41.000=114.091,
42.000=114.333,
43.000=120.196,
44.000=116.134,
45.000=114.844,
46.000=129.199,
47.000=117.454,
48.000=114.844,
49.000=118.804,
50.000=114.844,
51.000=121.599,
52.000=117.454,
53.000=118.804,
56.000=116.134,
57.000=121.599,
58.000=118.804,
60.000=120.185,
61.000=126.048,
62.000=112.347,
63.000=113.582,
64.000=117.454,
65.000=114.844,
66.000=126.048,
67.000=113.582,
68.000=126.048,
69.000=113.582,
70.000=123.047,
71.000=109.957,
72.000=118.804,
73.000=114.844,
74.000=115.490,
75.000=118.804,
76.000=123.047,
77.000=118.804,
79.000=114.844,
80.000=124.529,
81.000=119.485,
82.000=121.599,
83.000=117.454,
84.000=126.048,
85.000=100.349,
86.000=116.134,
88.000=127.604,
89.000=126.048,
90.000=116.134,
91.000=118.804,
92.000=121.599,
93.000=107.666,
94.000=127.604,
95.000=116.134,
97.000=113.582,
98.000=117.454,
99.000=111.139,
100.000=126.048,
101.000=116.134,
103.000=114.844,
104.000=112.347,
105.000=124.529,
106.000=116.134,
107.000=121.599,
108.000=116.134,
109.000=118.932,
110.000=118.804,
111.000=124.389,
112.000=107.666,
113.000=120.185,
114.000=118.804,
115.000=123.047,
116.000=120.185,
117.000=118.804,
118.000=123.047,
119.000=112.347,
120.000=120.185,
121.000=113.582,
122.000=123.047,
123.000=106.556,
124.000=124.529,
126.000=114.844,
127.000=113.582,
128.000=114.844,
129.000=121.599,
131.000=124.529,
132.000=116.134,
133.000=118.804,
134.000=117.454,
135.000=121.599,
136.000=113.582,
137.000=121.599,
138.000=117.454,
140.000=126.048,
141.000=116.134,
142.000=117.454,
143.000=108.799,
144.000=112.347,
145.000=111.139,
146.000=113.582,
147.000=120.185,
148.000=123.047,
149.000=117.454,
150.000=118.804,
151.000=114.844,
152.000=124.529,
153.000=126.048,
154.000=120.185,
155.000=118.804,
156.000=117.454,
157.000=126.048,
158.000=116.134,
159.000=108.799,
160.000=120.185,
162.000=118.804,
163.000=113.582,
164.000=116.134,
165.000=120.185,
166.000=111.144,
167.000=117.454,
168.000=114.844,
169.000=126.048,
170.000=107.666,
171.000=120.185,
172.000=117.454,
173.000=124.529,
174.000=120.185,
175.000=118.804,
176.000=117.454,
177.000=123.047,
178.000=129.199,
179.000=114.844,
180.000=126.048,
181.000=114.844,
182.000=116.134,
183.000=109.957,
184.000=124.529,
185.000=116.134,
187.000=120.185,
188.000=121.599,
189.000=120.185,
190.000=113.582,
191.000=117.454,
192.000=123.047,
194.000=114.844,
195.000=107.666,
196.000=124.529,
197.000=118.804,
199.000=117.454,
200.000=109.957,
201.000=129.199,
202.000=113.582,
203.000=124.529,
204.000=111.139,
205.000=113.582,
206.000=112.347,
207.000=123.047,
208.000=126.048,
209.000=116.134,
210.000=108.799,
211.000=113.582,
212.000=117.454,
213.000=130.835,
214.000=121.599,
215.000=124.529,
216.000=117.454,
217.000=107.666,
218.000=114.844,
219.000=116.134,
220.000=126.048,
221.000=116.134,
222.000=109.957,
223.000=130.835,
224.000=116.134,
225.000=121.599,
226.000=114.844,
227.000=118.804,
228.000=120.185,
229.000=108.799,
230.000=124.529,
231.000=114.844,
232.000=120.185,
233.000=130.835,
234.000=109.957,
235.000=124.529,
236.000=109.957,
237.000=114.844,
238.000=120.185,
239.000=112.347,
240.000=124.529,
241.000=120.185,
242.000=117.454,
244.000=126.048,
245.000=109.957,
246.000=117.454,
247.000=114.844,
248.000=60.801,
249.000=61.523;
#STOPS:;
#DELAYS:;
#WARPS:;
#TIMESIGNATURES:0.000=4=4;
#TICKCOUNTS:0.000=4;
#COMBOS:0.000=1;
#SPEEDS:0.000=1.000=0.000=0;
#SCROLLS:0.000=1.000;
#FAKES:;
#LABELS:0.000=Song Start;
#BGCHANGES:-1.750=Opportunity (The Flim Flam Brothers Song).avi=1.000=0=0=0=StretchNoLoop====,
99999=-nosongbg-=1.000=0=0=0 // don't automatically add -songbackground-
;
#KEYSOUNDS:;
#ATTACKS:
;

//---------------dance-single - ----------------
#NOTEDATA:;
#CHARTNAME:;
#STEPSTYPE:dance-single;
#DESCRIPTION:;
#CHARTSTYLE:;
#DIFFICULTY:Beginner;
#METER:2;
#RADARVALUES:0.089,0.145,0.008,0.085,0.000,68.000,1.000,11.000,0.000,0.000,0.000,0.000,0.000,0.089,0.145,0.008,0.085,0.000,68.000,1.000,11.000,0.000,0.000,0.000,0.000,0.000;
#CREDIT:;
#NOTES:
1000
0000
0000
0000
,
0010
0000
0000
0000
,
0100
0000
0000
0000
,
0002
0000
0003
0000
,
0010
0000
0000
0000
,
0100
0000
0000
0000
,
1000
0000
0000
0000
,
0001
0000
0000
0000
,
0010
0000
0000
0000
,
1000
0000
0000
0000
,
0100
0000
0000
0000
,
0002
0000
0003
0000
,
0000
0000
0000
0000
,
0010
0000
0000
0000
,
0010
0000
0000
0000
,
0100
0000
0100
0000
,
0200
0000
0300
0000
,
1000
0000
0000
0000
,
0002
0000
0000
0000
,
0003
0000
0000
0000
,
0010
0000
0000
0000
,
0001
0000
0000
0000
,
0100
0000
0000
0000
,
1000
0000
0000
0000
,
0010
0000
0000
0000
,
1000
0000
0000
0000
,
0100
0000
0000
0000
,
0002
0000
0000
0000
,
0003
0000
0000
0000
,
0010
0000
0000
0000
,
0010
0000
0000
0000
,
0001
0000
0001
0000
,
0002
0000
0003
0000
,
1000
0000
0000
0000
,
0020
0000
0000
0000
,
0030
0000
0000
0000
,
0100
0000
0100
0000
,
0100
0000
0000
0000
,
0001
0000
0001
0000
,
1000
0000
1000
0000
,
0010
0000
0010
0000
,
0100
0000
0000
0000
,
0001
0000
0000
0000
,
0010
0000
0000
0000
,
1000
0000
0000
0000
,
0001
0000
0000
0000
,
0002
0000
0003
0000
,
0001
0000
0000
0000
,
1000
0000
0000
0000
,
0010
0000
0000
0000
,
0100
0000
0000
0000
,
0001
0000
0001
0000
,
0001
0001
0001
0001
,
0002
0000
0000
0000
,
0003
0000
0000
0000
,
1000
0000
0000
0000
,
0010
0000
0000
0000
,
1000
0000
1000
0000
,
2000
0000
3000
0000
,
0001
0000
0000
0000
,
0020
0000
0000
0000
,
0030
0000
0000
0000
,
0000
1001
0000
0000
;

//---------------dance-single - ----------------
#NOTEDATA:;
#CHARTNAME:;
#STEPSTYPE:dance-single;
#DESCRIPTION:;
#CHARTSTYLE:;
#DIFFICULTY:Easy;
#METER:3;
#RADARVALUES:0.146,0.193,0.015,0.101,0.000,117.000,2.000,13.000,0.000,0.000,0.000,0.000,0.000,0.146,0.193,0.015,0.101,0.000,117.000,2.000,13.000,0.000,0.000,0.000,0.000,0.000;
#CREDIT:;
#NOTES:
1000
0000
0100
0000
,
1000
0000
0100
0000
,
0010
0000
0001
0000
,
0020
0000
0000
0030
,
0001
0000
0010
0000
,
0001
0000
0000
0000
,
1000
0000
0100
0000
,
1000
0000
0000
0000
,
0010
0000
0100
0000
,
0010
0000
0000
0000
,
1000
0000
0001
0000
,
2000
0000
0000
0000
,
3000
0000
0000
0001
,
0001
0000
0100
0000
,
0010
0000
1000
0000
,
0001
0001
1000
1000
,
0020
0000
0030
0000
,
0100
0000
0001
0000
,
0020
0000
0030
0000
,
0000
0000
0000
0010
,
0010
0000
0001
0000
,
0010
0000
0000
0000
,
0100
0000
1000
0000
,
0100
0000
0000
0000
,
1000
0000
0010
0000
,
1000
0000
0000
0000
,
0001
0000
0100
0000
,
0002
0000
0000
0000
,
0003
0000
0000
0010
,
0010
0000
0001
0000
,
0010
0000
0100
0000
,
1000
1000
0100
0100
,
2000
0000
3000
0000
,
0010
0000
0100
0000
,
0002
0000
0000
0003
,
0001
0000
0001
0000
,
1000
0000
1000
0000
,
0010
0000
0010
0000
,
0100
0000
0000
0000
,
0001
0000
0010
0000
,
0001
0000
0100
0000
,
0010
1000
0010
0000
,
0100
0001
0100
0000
,
0001
0000
0010
0000
,
0100
0000
1000
0000
,
0010
0010
1000
1000
,
0002
0000
0000
0003
,
0001
0000
0010
0000
,
0100
1000
0010
0000
,
0100
0000
0001
0000
,
0010
0000
1000
0000
,
0010
0010
1000
1000
,
0100
0100
0001
0001
,
2002
0000
0000
0000
,
3003
0000
0000
0010
,
0010
0000
1000
0000
,
0010
0000
0100
0000
,
0001
0001
0010
0010
,
0200
0000
0300
0000
,
0010
0000
0001
0000
,
2000
0000
0000
0000
,
3020
0000
0000
0000
,
0030
1001
0000
0000
;

//---------------dance-single - ----------------
#NOTEDATA:;
#CHARTNAME:;
#STEPSTYPE:dance-single;
#DESCRIPTION:;
#CHARTSTYLE:;
#DIFFICULTY:Medium;
#METER:7;
#RADARVALUES:0.294,0.289,0.046,0.232,0.000,230.000,6.000,30.000,0.000,0.000,0.000,0.000,0.000,0.294,0.289,0.046,0.232,0.000,230.000,6.000,30.000,0.000,0.000,0.000,0.000,0.000;
#CREDIT:;
#NOTES:
1000
0001
1000
0000
,
0010
0100
0010
0000
,
1000
0100
0010
0000
,
0002
0023
0230
2300
,
3010
0000
0100
0000
0001
0000
0100
0010
,
0100
0001
0010
0100
,
1000
0000
1000
0000
0010
0000
0100
0001
,
0100
0001
0010
0010
,
0001
0000
0100
0010
0100
0000
0001
0000
,
1000
0100
1000
0010
,
0100
0000
0001
0100
0001
0000
1000
0000
,
0200
0000
0000
0000
,
0300
0000
0000
0000
,
1000
0000
0010
0000
0000
0010
1000
0000
,
0100
0000
0010
0000
0000
0010
0100
0000
,
1000
0001
0100
0010
,
1000
2000
0000
0000
0000
0000
3001
0000
,
0100
0000
0010
1000
0010
0000
0100
0000
,
2002
0000
0000
0000
,
3003
0000
0000
0000
0000
0000
0010
0010
,
0010
0000
1000
0000
0100
0000
1000
0001
,
0100
0000
0000
0001
0001
0000
0000
0000
,
0001
0000
0010
0000
0100
0000
1000
0001
,
0100
0000
0000
0010
0010
0000
1000
0000
,
0100
1000
0010
0100
,
0001
0000
0010
0001
0010
0000
0100
0000
,
1000
0000
0010
0000
0100
0000
0001
1000
,
0200
0000
0000
0000
,
0300
0000
0000
1000
,
0010
0000
1000
0000
0000
1000
0010
0000
,
0100
0000
0001
0000
0000
0001
0100
0000
,
0001
0001
1000
0010
,
0100
0200
0000
0000
0000
0000
0301
0000
,
0001
0000
0100
0010
0100
0000
0001
0000
,
2002
0000
0000
3003
,
0010
1000
0100
0000
1000
0000
0010
0000
,
0100
0001
1000
0000
0100
0000
0010
0000
,
0100
1000
0001
0000
0100
0000
0010
0000
,
1000
0100
0010
0000
0100
0000
1000
0000
,
0001
0000
0100
0000
0010
1000
0001
0000
,
0010
0000
0100
0000
1000
0001
0100
0000
,
0010
0000
1000
0000
0100
0000
1000
0010
,
0100
0000
0001
0000
0010
0000
0100
1000
,
0200
0000
0320
0000
,
0032
0000
0000
0000
2003
0000
0000
0010
,
3010
0000
0100
0001
1000
0000
0100
0000
,
0220
0000
0330
0000
,
0010
0000
0001
0100
0010
0000
1000
0100
,
1000
0000
0001
0100
0010
0000
1000
0001
,
0020
0000
0032
0000
,
0203
0000
2300
0000
,
3010
0000
1000
0000
0100
1000
0100
0000
,
0010
0001
0010
0001
1000
0100
1000
0000
,
0200
0000
0000
0000
,
0300
0000
0000
1000
,
0010
0000
1000
0000
0000
1000
0010
0000
,
0100
0000
0001
0000
0000
0001
0100
0000
,
0010
0010
1000
0100
,
1000
2000
0000
0000
0000
0000
3001
0000
,
0100
0000
0010
1000
0001
0000
0010
0000
,
0022
0033
2200
3300
,
2000
0000
3002
0000
,
0103
0110
0000
0000
;

//---------------dance-single - ----------------
#NOTEDATA:;
#CHARTNAME:;
#STEPSTYPE:dance-single;
#DESCRIPTION:;
#CHARTSTYLE:;
#DIFFICULTY:Hard;
#METER:10;
#RADARVALUES:0.391,0.362,0.062,0.232,0.027,315.000,8.000,30.000,0.000,0.000,0.000,0.000,0.000,0.391,0.362,0.062,0.232,0.027,315.000,8.000,30.000,0.000,0.000,0.000,0.000,0.000;
#CREDIT:;
#NOTES:
1000
0000
0100
0000
1000
0010
0000
0000
,
0010
0000
0100
0000
0001
0010
0000
0000
,
0100
0000
1000
0000
0001
0100
0000
0000
,
0020
2030
3200
0320
,
0031
0100
0001
0000
0100
0000
0010
1000
,
0100
0000
1000
0000
0001
0000
0100
0010
,
0100
0000
0001
1000
0001
0000
0010
0100
,
1000
0000
0000
0001
0001
0000
0100
0010
,
0100
0000
0001
1000
0001
0000
0010
0100
,
1000
0000
0000
0001
0001
0000
0100
0010
,
1000
0000
0010
0100
0001
0000
1000
0000
,
0200
0000
1300
0000
,
1000
0010
0100
0001
,
1000
0000
0100
0000
0001
0000
0000
0010
0000
0000
0001
0000
0100
0000
0010
0000
,
1000
0000
0001
0000
0100
0000
0000
0001
0000
0000
0001
0000
0010
0000
0100
0000
,
0100
1000
1000
0001
0100
0010
1000
0001
,
0010
0020
0000
0000
0032
0000
0103
1000
,
0010
0000
1000
0100
0010
0000
0001
0000
,
0200
0000
0000
0000
,
0300
0000
0000
0000
0000
0000
0010
1000
,
0100
0000
1000
0001
0100
0000
0001
1000
,
0200
0000
0000
0000
1300
0000
0010
0100
,
0001
0000
0100
0001
1000
0000
0001
0100
,
0010
0000
0000
1000
1000
0001
0100
0010
,
1000
0000
0010
0100
0001
0000
1000
0100
,
0010
0000
0100
1000
0001
0000
0100
0010
,
1000
0001
0010
0100
1000
0100
0010
0001
,
2000
0000
0000
0000
0000
0000
0000
0001
,
3001
0002
0000
0000
0003
1000
0010
1000
,
0100
0000
1000
0000
0001
0000
0000
0010
0000
0000
0100
0000
1000
0000
0010
0000
,
0100
0000
0001
0000
0010
0000
0000
0001
0000
0000
1000
0000
0100
0000
1000
0000
,
1000
0001
0001
0100
0010
1000
0001
0010
,
0100
0200
0000
0000
0310
0000
0001
0100
,
0010
0000
1000
0001
0010
0000
1100
0000
,
0022
0000
0000
0000
0033
0000
0000
1000
,
0100
1000
0001
0100
0010
1000
0100
0000
,
1000
0010
0100
0001
1000
0100
0010
0000
,
0100
1000
0001
0100
0010
0000
0010
1000
,
0002
0000
0000
0003
,
0010
0001
0100
0010
1000
0000
1000
0100
,
1000
0001
0100
0010
1000
0000
0001
0010
,
0100
0000
0100
0010
0001
0000
1000
0000
,
0020
0000
0130
0001
0100
0010
1000
0000
,
0200
0300
0020
0030
,
2002
0000
0003
0000
0002
0000
3003
1000
,
1000
0000
0010
0100
0001
0000
1000
0000
,
2002
0000
0000
3003
,
1000
0100
1000
0001
0100
0001
0100
0000
,
0010
1000
0010
0100
0001
0100
0010
0000
,
2000
0000
3002
0000
,
0203
0000
0320
0000
,
1030
0000
0010
0000
0001
0100
0001
0010
,
0100
1000
0001
0100
0010
1000
0001
0000
,
0020
0000
0000
0200
0000
0000
0000
0000
0000
0000
0000
0000
0000
0000
0000
0000
,
0330
0000
0000
0000
0000
1000
0001
0100
,
0010
0000
1000
0000
0100
0000
0000
0100
0000
0000
1000
0000
0001
0000
0100
0000
,
0010
0000
1000
0000
0001
0000
0000
0001
0000
0000
1000
0000
0010
0000
0100
0000
,
0100
0001
0001
1000
0100
0010
0100
1000
,
0001
0000
0002
0000
0000
0000
0000
0000
0000
0000
0000
0003
0100
0000
0010
0000
,
1000
0000
0100
1000
0001
0000
0101
0000
,
1010
0000
0101
0000
,
0001
0100
0010
1000
0001
0010
0100
1000
,
0010
1001
0000
0000
;

//---------------dance-single - ----------------
#NOTEDATA:;
#CHARTNAME:;
#STEPSTYPE:dance-single;
#DESCRIPTION:;
#CHARTSTYLE:;
#DIFFICULTY:Challenge;
#METER:13;
#RADARVALUES:0.609,0.530,0.240,0.015,0.422,517.000,31.000,2.000,0.000,0.000,0.000,0.000,0.000,0.609,0.530,0.240,0.015,0.422,517.000,31.000,2.000,0.000,0.000,0.000,0.000,0.000;
#CREDIT:;
#NOTES:
// measure 0
1000
1000
0001
0001
1000
0010
0000
1000
,  // measure 1
0001
0001
1000
1000
0001
0100
0000
0001
,  // measure 2
0010
0010
0100
0100
1000
0100
0000
0010
,  // measure 3
0002
0000
0000
0000
0203
0000
0000
0000
0310
0000
0100
0000
0010
1000
0010
1000
,  // measure 4
0001
0000
0000
0000
0000
0000
0010
0000
0000
0000
0000
0000
0001
0000
0000
0010
0000
0000
0100
0000
0000
1000
0000
0000
0000
0000
0000
0000
0010
0000
0000
0000
1000
0000
0000
0000
0001
0000
0000
0010
0000
0000
0001
0000
0000
0010
0000
0000
,  // measure 5
0000
0100
0000
0000
0000
0000
1000
0000
0001
0000
0000
0000
0100
0010
0100
0000
,  // measure 6
0010
1000
0010
0000
1000
0000
1000
0001
0100
0010
1000
0100
0001
0100
1000
0010
,  // measure 7
0100
0000
0000
0000
0000
0000
0010
0000
1000
0000
0100
1000
0001
0000
0100
0001
,  // measure 8
1000
0000
0001
0010
0100
1000
0001
0000
0100
0000
0010
1000
0010
1000
0010
0000
,  // measure 9
0100
0000
0000
0000
0000
0000
0010
0000
1000
0000
0001
1000
0001
0000
1000
0010
,  // measure 10
0001
0010
1000
0100
0010
0000
0100
1000
0001
0100
0010
1000
0001
0000
0100
0000
,  // measure 11
0010
1000
1000
0000
0001
1000
1000
0000
,  // measure 12
0100
0010
0010
0001
0100
0010
0010
0010
,  // measure 13
1000
0000
0010
0000
0100
0001
0000
0001
0000
0000
1000
0000
0001
0000
1000
0000
,  // measure 14
0001
0000
0010
0000
0100
1000
0000
1000
0000
0000
0000
0000
1001
0000
1000
0000
,  // measure 15
0010
0000
0001
0000
0010
0000
1000
0001
1000
0000
0001
1000
0001
0000
0010
0000
,  // measure 16
0100
0000
0010
0000
0001
0000
0000
1000
0001
0000
0000
0000
1000
0010
1000
0000
,  // measure 17
1010
0000
0110
0100
0101
0000
0011
0000
,  // measure 18
0110
0000
0100
1000
0100
0000
1000
0010
,  // measure 19
1000
0000
0000
0010
0000
0000
0000
0000
0110
0000
0000
0000
0100
0000
0001
0000
,  // measure 20
1000
0000
0000
0100
1000
0000
0001
0000
1000
0000
0010
0100
0001
0000
0010
0000
,  // measure 21
0100
0000
0010
0000
0010
0000
0001
0000
1000
0010
1000
0010
0100
0000
0001
0010
,  // measure 22
0001
0000
0000
0000
0000
0000
0010
0000
0000
0100
0000
0000
1000
0000
0000
0001
0000
0000
0100
0000
0000
0010
0000
0000
1000
0000
0000
0000
0000
0000
0001
0000
0000
1000
0000
0000
0000
0000
0001
0000
0010
0000
0001
0000
0000
0010
0000
0000
,  // measure 23
0100
0000
0000
0000
1000
0000
0001
0000
1000
0000
0001
0000
0100
0010
1000
0000
,  // measure 24
0001
0000
0000
0000
0000
0000
0000
0000
0000
0010
0000
0000
0100
0000
0000
0000
0000
0000
0010
0000
0000
0000
0000
0000
0001
0000
0000
0000
0000
0000
0100
0000
0000
0000
0000
0000
0000
0000
0000
0000
0010
0000
0000
0000
0000
0000
0000
0000
,  // measure 25
1000
0000
1000
0000
0001
0010
0001
0000
1000
0000
1000
0000
0000
0000
0001
0000
,  // measure 26
0100
0000
0000
0010
0000
0000
0100
0000
0000
0000
0000
0000
0010
0000
0000
0000
0000
0000
1000
0000
0000
0000
0000
0000
0100
0000
0000
0000
0010
0000
0100
0000
0000
0000
1000
0000
0100
0000
0000
0000
0000
0000
0010
0000
0000
0000
0000
0000
,  // measure 27
0001
0000
0000
0100
0000
0000
0000
0000
0100
0000
0010
0000
0100
0000
0010
0000
,  // measure 28
1000
0000
0001
1000
0001
1000
0100
0010
0001
0000
0100
0000
0100
0000
0100
0000
,  // measure 29
0010
0000
1000
0000
0001
1000
0000
1000
0000
0000
0100
0000
0010
0000
0100
0000
,  // measure 30
1000
0000
0010
0000
0100
0001
0000
0001
0000
0000
0000
0000
1001
0000
1000
0000
,  // measure 31
0100
0000
0001
0000
0100
0000
1000
0001
1000
0000
0001
1000
0001
0000
0010
0000
,  // measure 32
0100
0000
1000
0000
0010
0000
0000
0100
0001
0000
0000
0000
1000
0001
1000
0000
,  // measure 33
1001
0000
0011
0010
0110
0000
0101
0000
,  // measure 34
1100
0000
0100
0000
1000
0000
0100
0000
0010
0000
0001
0000
0010
0000
0001
0010
,  // measure 35
0100
0000
0000
0000
0000
0000
1000
0000
0000
0000
0000
0000
0001
0000
0000
0000
0000
0000
0100
0000
0000
0000
0000
0000
0010
0000
0000
0000
0010
0000
0000
0000
0000
0000
0000
0000
0000
0000
0000
1000
0000
0000
0010
0000
0000
1000
0000
0000
,  // measure 36
0000
0000
0000
0000
0000
0000
0010
0000
0000
0000
0000
0000
0000
0000
0000
0000
0000
0000
0000
0000
0000
0000
0000
0000
1000
0000
0000
0000
0000
0000
0000
0000
0000
0000
0000
0000
0000
0000
0000
0000
0000
0000
0000
0000
0000
0000
0000
0000
0010
0000
0000
0000
0000
0000
0000
0000
0000
0000
0000
0000
0100
0000
0000
0000
0000
0000
0000
0000
0000
0000
0000
0000
0000
0000
0000
0000
0000
0000
0000
0000
0000
0000
0000
0000
0001
0000
0000
0000
0000
0000
0000
0000
0000
0000
0000
0000
0000
0000
0000
0000
0000
0000
0000
0000
0000
0000
0000
0000
0000
0000
0000
0000
0001
0000
0000
0000
0000
0000
0000
0000
0000
0000
0000
0000
0000
0000
0000
0000
0000
0000
0000
0000
0000
0000
0000
0000
0000
0000
0000
0000
0000
0000
0000
0000
0000
0000
0000
0000
0000
0000
0000
0000
0000
0000
0000
0000
0000
0000
0000
0000
0000
0000
0000
0000
0000
0000
0000
0000
1000
0000
0000
0000
0000
0000
0000
0000
0000
0000
0000
0000
0000
0000
0000
0000
0000
0000
0000
0000
0000
0000
0000
0000
,  // measure 37
1001
0000
1000
0100
1000
0001
0100
1000
,  // measure 38
0001
0000
0010
0000
1000
0000
0001
0000
1000
0000
0000
0000
0100
1000
0010
1000
,  // measure 39
0001
0000
0100
0000
0010
0000
1000
0000
0001
0000
0001
0000
0000
1000
0000
1000
,  // measure 40
0000
0010
0000
0000
1000
0000
0100
0000
0110
0000
0011
0000
0000
0000
0001
1000
,  // measure 41
0001
0010
0100
0010
0100
1000
0010
0100
,  // measure 42
0001
1000
0001
0000
0010
0000
0100
0000
0010
0000
1000
0010
0001
0010
1000
0000
,  // measure 43
0010
0000
0000
0010
0100
0000
1000
0000
0100
0000
0000
0000
0010
0000
0000
0000
0001
0000
0000
0000
0010
0000
0001
0000
0010
0000
0000
0000
0100
0000
0000
0000
,  // measure 44
0001
0100
1000
0001
0010
0000
1000
0010
1000
0000
0001
0000
1000
0000
0010
0000
,  // measure 45
0110
0000
0010
0100
1100
0000
0101
0000
,  // measure 46
1100
0100
1000
0100
0001
0100
0001
0100
,  // measure 47
0010
0000
0000
0001
0010
0000
0001
0000
1000
0000
0001
0000
0000
0000
1000
0000
,  // measure 48
0010
0010
0100
1000
1001
0000
0000
0001
,  // measure 49
0010
0000
0100
0000
0001
0100
0001
0000
1000
0000
0100
0000
0010
0100
0010
0000
,  // measure 50
0001
0000
1000
0000
0001
0100
0001
0000
0100
0000
1000
0100
0010
1000
0001
0000
,  // measure 51
1001
0000
1100
0000
0100
0100
0010
0010
,  // measure 52
0100
0100
1000
0001
1000
0001
0100
0000
,  // measure 53
0010
0000
0000
0110
0000
0000
0000
0000
0100
0000
0100
0000
0001
0000
0001
0000
,  // measure 54
1000
0001
1000
0001
0000
0000
0010
0000
0100
0000
0100
0000
0100
0000
0100
0000
,  // measure 55
1000
0000
0100
0000
0010
0001
0000
0001
0000
0000
1000
0000
0001
0000
1000
0000
,  // measure 56
0010
0000
0100
0000
0010
1000
0000
1000
0000
0000
0001
0000
1001
0000
1000
0000
,  // measure 57
0100
0000
0001
0000
0100
0000
1000
0001
1000
0000
0001
1000
0001
0000
0010
0000
,  // measure 58
0100
0000
0010
0000
0001
0000
0000
1000
0001
0000
0000
0000
1000
0010
1000
0000
,  // measure 59
1010
0000
0110
0100
0101
0000
1001
0000
,  // measure 60
1000
0100
1000
0100
0001
0100
0001
0100
,  // measure 61
1000
0010
1000
0010
0001
0010
0001
0010
,  // measure 62
0110
1001
0000
0000
;
