#TITLE:Oh Sweetie Belle;
#SUBTITLE:;
#ARTIST:dBPony;
#TITLETRANSLIT:;
#SUBTITLETRANSLIT:;
#ARTISTTRANSLIT:;
#GENRE:Funk;
#CREDIT:;
#BANNER:Oh Sweetie Belle.png;
#BACKGROUND:Oh Sweetie Belle-bg.png;
#LYRICSPATH:;
#CDTITLE:;
#MUSIC:Oh Sweetie Belle.mp3;
#OFFSET:-0.036;
#SAMPLESTART:37.500;
#SAMPLELENGTH:15.000;
#SELECTABLE:YES;
#BPMS:0.000=100.000
,84.000=92.816
,85.000=100.000
;
#STOPS:
;
#BGCHANGES:;
#KEYSOUNDS:;
#ATTACKS:;

//---------------dance-single - Blank----------------
#NOTES:
     dance-single:
     :
     Hard:
     12:
     0.473,0.548,0.330,0.159,0.489,231.000,27.000,13.000,0.000,0.000,0.000,0.473,0.548,0.330,0.159,0.489,231.000,27.000,13.000,0.000,0.000,0.000:
0000
0000
0000
0000
,
0000
0000
0000
0000
,
0000
0000
0000
0000
,
0000
0000
0000
0110
,
0100
0000
0001
0000
0000
0000
0000
0000
0000
1000
0000
0001
1000
0000
0100
0000
0000
0000
0000
0000
0000
0001
0000
1000
,
0001
0100
0000
0010
0000
0000
1000
0000
0000
0100
0000
0000
,
0010
0000
0010
0000
0000
0000
0000
0000
0100
1000
0000
0100
1000
0000
0001
0000
0000
0000
0000
0000
0100
0001
0000
0100
,
0001
0000
1000
0000
0000
0000
0100
0000
0010
0100
0000
0000
1000
0000
0100
0010
0000
0010
0001
0000
0001
0100
0000
0000
,
0010
0000
0000
0000
0000
0000
0000
0000
0000
0000
0010
0000
1000
0000
0000
0000
1000
0000
0001
0000
0000
0000
0000
0000
0001
0000
0000
0000
0000
0000
1000
0000
0000
0010
0000
0000
1000
0000
0000
0000
0000
0000
0100
0000
0000
0010
0000
0000
,
0100
0000
0000
0010
0000
0000
0100
0000
0000
0000
0000
0000
0000
0000
0000
0000
1000
0000
0001
0000
0000
0000
1000
0000
0001
0000
0000
0000
0001
0000
0100
0000
0000
0000
0100
0000
0010
0000
0000
0000
0010
0000
1000
0000
0000
0000
1000
0000
,
0100
0000
0100
0000
0000
0010
0100
0000
0000
1000
0000
0000
0001
0000
0000
0000
0000
0100
0001
0000
0100
0010
0000
0000
,
0010
0000
1000
0010
0000
0000
1000
0000
0100
1000
0000
1000
0010
0000
0010
0100
0000
0100
0001
0000
0001
1000
0000
0000
,
0100
0000
0100
0000
0000
0010
0001
0000
0010
0100
0000
0010
1000
0000
0000
0010
0000
0100
1000
0000
1000
0001
0000
0000
,
0100
0000
0000
0001
0000
0000
0000
0000
0000
0001
0000
0000
0010
0000
0000
0000
0100
0000
1000
0000
0000
0000
1000
0000
0010
0000
0000
0000
0010
0000
0001
0000
0000
0000
0001
0000
0010
0000
0000
0000
0010
0000
1000
0000
0000
0000
0000
0000
,
0001
0000
1000
0000
0100
0000
0010
0000
0100
0000
1000
0010
1000
0010
1000
0000
,
1001
0000
0000
0000
0000
0000
1010
0000
0000
0000
0000
0000
0101
0000
0000
0001
0000
0000
0000
0000
1000
0000
0000
0000
,
0010
0000
1000
0010
0000
0000
1000
0000
0000
0000
0000
0000
0100
0000
0000
0100
0000
0000
0010
0000
0001
0010
0000
0000
,
0100
0000
0000
1000
0000
0010
1000
0000
0010
1000
0000
0000
0001
0000
0000
1000
0000
0000
0000
0000
0001
0000
0000
0000
,
1000
0000
0000
0000
0010
0000
1000
0000
0000
0000
0000
0000
0100
0000
0000
0010
0000
0000
0100
0000
0000
0000
0000
0000
1000
0000
0000
0000
0000
0000
0001
0000
0000
0000
0000
0000
1000
0000
0000
0000
0000
0000
0010
0000
0000
0000
0000
0000
,
1010
0101
0011
1100
,
1000
0000
0000
0001
0000
0000
1000
0000
0000
0010
0000
1000
0000
0000
0000
0100
0000
0000
0010
0000
0010
0000
0000
0001
,
0000
0000
0000
0000
0000
0000
1000
0000
0010
0000
0000
0110
0000
0000
0101
0000
0000
1001
0000
0000
1100
0000
0000
0200
,
0000
0000
0000
0310
0000
0000
0000
0000
0000
0010
0000
0000
0100
0000
0000
1000
0000
0020
0000
0000
0000
0000
0000
0000
,
0130
0110
1001
0110
,
2020
3000
0200
0300
,
0002
0003
0200
0330
,
2020
0000
0000
0000
0000
0000
0030
0000
0000
0001
0000
0000
0002
0000
0000
0000
0000
0000
0003
0000
0001
0001
0000
0000
,
3100
1100
0110
0011
,
2002
0000
0000
0000
3000
0000
0100
0000
0200
0000
0000
0000
0303
0100
0001
0010
,
0100
1000
1000
0000
1010
0000
0011
0000
,
0010
0000
0000
0100
0000
0000
0100
0000
0000
0000
0000
0000
0010
0000
0000
1000
0000
0001
0000
0000
0000
1000
0000
0000
,
1010
0101
0011
1100
,
0100
0010
0000
0100
0010
0000
0010
0100
0000
0010
0100
0000
,
0010
0000
0100
1000
0000
0001
0000
0000
0000
0000
0000
0000
0000
0000
0000
0000
0000
0000
0000
0000
0000
0000
0000
0000
;

//---------------dance-single - Blank----------------
#NOTES:
     dance-single:
     :
     Medium:
     6:
     0.274,0.264,0.098,0.073,0.006,143.000,8.000,6.000,0.000,0.000,0.000,0.274,0.264,0.098,0.073,0.006,143.000,8.000,6.000,0.000,0.000,0.000:
1000
0000
1000
0000
0010
1000
0001
0000
,
0010
0000
0010
0000
0100
1000
0001
0000
,
0100
0000
0100
0000
0010
1000
0010
0000
,
1000
0000
1000
0000
0001
1000
1001
0000
,
1000
0010
0001
0010
,
1000
0100
0001
0100
,
1000
0010
0001
0100
,
1000
0010
0001
0100
,
0010
0000
0010
0000
1000
0010
1000
0000
,
0100
0000
0100
0000
1000
0001
1000
0000
,
0010
0000
0100
0000
0001
0010
0001
0000
,
0100
0000
0100
0000
0001
1000
0001
0000
,
1000
0000
0100
1000
0010
0000
0100
0001
,
0010
0000
0100
1000
0010
0100
0001
0010
,
0100
0000
1000
0010
0100
0000
0001
0010
,
0100
0000
1000
0010
0100
0001
0011
0000
,
0010
0001
0100
1000
,
0001
1000
0001
0000
0010
0001
0010
0000
,
1000
0100
0001
0010
,
0001
0100
1000
0000
0100
0010
0100
0000
,
1000
0000
1000
0000
0010
1000
0010
1000
,
0001
0000
0010
0001
0010
0001
1000
0000
,
0100
0100
0010
0010
,
2001
0000
0010
3000
,
1200
0000
0010
0000
,
0001
0000
0310
0000
,
0120
0000
0001
0000
,
0100
0000
1030
0000
,
0012
0000
1000
0000
,
0100
0000
0013
0000
,
0021
0000
1030
0000
,
1020
0000
0031
0000
,
0001
0000
0010
0000
0001
0010
0100
1000
,
0010
0000
0000
0000
0000
0010
0000
0000
0000
0000
0000
0000
0000
0000
0000
0000
0000
0000
0000
0000
0000
0000
0000
0000
;

//---------------dance-single - Blank----------------
#NOTES:
     dance-single:
     :
     Easy:
     4:
     0.161,0.182,0.049,0.281,0.000,65.000,4.000,23.000,0.000,0.000,0.000,0.161,0.182,0.049,0.281,0.000,65.000,4.000,23.000,0.000,0.000,0.000:
0000
0000
0000
0000
,
0000
0000
0000
0000
,
0000
0000
0000
0000
,
0000
0000
0000
0110
,
0100
1000
0100
0000
,
1000
0001
1000
0000
,
0001
0100
0001
0000
,
0100
0010
0100
0000
,
0000
0010
0010
1000
,
0002
0000
0013
0000
,
0000
0010
0010
0100
,
2000
0000
3010
0000
,
0000
0010
1000
0001
,
0200
0000
0310
0000
,
0000
0010
1000
0001
,
0020
0000
0130
0100
,
0210
0000
2300
0000
,
3002
0000
1003
0000
,
1002
0000
0023
0000
,
0230
0000
1300
0000
,
1200
0000
0320
0000
,
0032
0000
1003
0001
,
1000
0000
0010
1000
,
0200
0000
0320
0000
,
0230
0000
0000
0000
,
2300
0000
0000
0000
,
3020
0000
0000
0000
,
0032
0000
0000
0000
,
0203
0000
0000
0000
,
0302
0000
0000
0000
,
0023
0000
0000
0000
,
2030
0000
0000
0000
,
3100
0010
0100
1000
,
0001
0000
0000
0000
;

//---------------dance-single - Blank----------------
#NOTES:
     dance-single:
     :
     Beginner:
     2:
     0.100,0.121,0.024,0.086,0.000,48.000,2.000,7.000,0.000,0.000,0.000,0.100,0.121,0.024,0.086,0.000,48.000,2.000,7.000,0.000,0.000,0.000: // measure 0
0000
0000
0000
0000
,  // measure 1
0000
0000
0000
0000
,  // measure 2
0000
0000
0000
0000
,  // measure 3
0000
0000
0000
0000
,  // measure 4
1000
0000
1000
0000
,  // measure 5
2000
0000
0000
3001
,  // measure 6
0001
0000
0001
0000
,  // measure 7
0002
0000
0000
0103
,  // measure 8
0100
0000
0100
0000
,  // measure 9
0010
0000
0010
0000
,  // measure 10
1000
0000
1000
0000
,  // measure 11
0001
0000
0001
0000
,  // measure 12
0100
0000
1000
0000
,  // measure 13
0100
0000
0010
0000
,  // measure 14
0100
0000
0001
0000
,  // measure 15
0100
0000
0010
0000
,  // measure 16
0110
0000
0100
0000
,  // measure 17
0100
0000
0000
0010
,  // measure 18
0010
0000
0010
0000
,  // measure 19
1000
0000
0001
0000
,  // measure 20
1000
0000
0001
0000
,  // measure 21
1000
0001
1000
0001
,  // measure 22
0100
0000
0100
0000
,  // measure 23
0200
0000
0000
0000
,  // measure 24
0320
0000
0000
0000
,  // measure 25
0000
0000
0000
0000
,  // measure 26
2030
0000
0000
0000
,  // measure 27
0000
0000
0000
0000
,  // measure 28
3200
0000
0000
0000
,  // measure 29
0000
0000
0000
0000
,  // measure 30
0302
0000
0000
0000
,  // measure 31
0000
0000
0000
0000
,  // measure 32
0103
0000
0100
0000
,  // measure 33
0110
0000
0000
0000
;
