#VERSION:0.81;
#TITLE:Octavia's Overture;
#SUBTITLE:;
#ARTIST:The Living Tombstone;
#TITLETRANSLIT:;
#SUBTITLETRANSLIT:;
#ARTISTTRANSLIT:;
#GENRE:Drum 'n Bass;
#ORIGIN:;
#CREDIT:;
#BANNER:Octavia's Overture.png;
#BACKGROUND:Octavia's Overture-bg.png;
#PREVIEWVID:;
#JACKET:Octavia's Overture-jacket.png;
#CDIMAGE:;
#DISCIMAGE:;
#LYRICSPATH:;
#CDTITLE:;
#MUSIC:Octavia's Overture.ogg;
#OFFSET:-11.140;
#SAMPLESTART:32.760;
#SAMPLELENGTH:15.000;
#SELECTABLE:YES;
#BPMS:0.000=86.000;
#STOPS:;
#DELAYS:;
#WARPS:;
#TIMESIGNATURES:0.000=4=4;
#TICKCOUNTS:0.000=4;
#COMBOS:0.000=1;
#SPEEDS:0.000=1.000=0.000=0;
#SCROLLS:0.000=1.000;
#FAKES:;
#LABELS:0.000=Song Start;
#BGCHANGES:;
#KEYSOUNDS:;
#ATTACKS:
;

//---------------dance-single - ----------------
#NOTEDATA:;
#CHARTNAME:;
#STEPSTYPE:dance-single;
#DESCRIPTION:;
#CHARTSTYLE:;
#DIFFICULTY:Hard;
#METER:10;
#RADARVALUES:0.281,0.259,0.000,0.023,0.074,170.000,0.000,2.000,0.000,0.000,0.000,0.000,0.000,0.281,0.259,0.000,0.023,0.074,170.000,0.000,2.000,0.000,0.000,0.000,0.000,0.000;
#CREDIT:;
#NOTES:
// measure 0
1000
0100
0010
0000
0100
1000
0001
0001
,  // measure 1
1000
0100
0010
0000
0001
0100
0010
0010
,  // measure 2
0100
0001
0010
0000
0100
0001
0100
0100
,  // measure 3
1000
0001
0100
0000
1000
0100
0010
1000
,  // measure 4
0001
0000
0010
0000
0100
1000
0001
0000
,  // measure 5
0100
0000
0010
0000
1000
0100
0010
0100
,  // measure 6
1000
0000
0001
0000
0100
0010
0001
0000
,  // measure 7
0010
0100
0001
0000
1000
0000
0100
0000
,  // measure 8
1000
0000
0100
0000
1000
0000
0001
0000
0100
0000
0010
0000
0100
0000
0001
0010
,  // measure 9
0100
0000
1000
0000
0100
0000
0010
0000
0001
0000
1000
0000
0010
0000
0100
0001
,  // measure 10
1000
0000
0100
0000
0010
0000
0100
1000
0001
0000
0100
0000
0010
0000
1000
0001
,  // measure 11
0010
0000
0100
0001
0000
0100
1000
0000
0001
0000
0100
0000
1000
0000
0100
0000
,  // measure 12
0010
0000
1000
0000
0001
0000
0010
0000
0100
0000
1000
0000
0001
0000
0100
0010
,  // measure 13
0100
0001
0010
0100
1000
0001
0100
0010
,  // measure 14
1000
0000
0001
0010
0100
0000
1000
0000
0001
0000
0100
0010
0100
0000
0001
0000
,  // measure 15
0010
0000
0100
1000
0000
0001
0100
0000
0010
0000
0100
0000
0001
0000
0010
0000
,  // measure 16
0100
0000
1000
0001
0100
0100
0010
1000
,  // measure 17
0100
0000
1000
0000
0001
0000
0001
0000
0100
0000
0010
0000
1000
0000
0100
1000
,  // measure 18
0100
0010
0001
0100
0100
0001
0010
0100
,  // measure 19
0100
0001
0100
1000
0001
0100
1000
0100
,  // measure 20
0020
0000
0000
0000
,  // measure 21
0030
0000
0000
0000
0000
1000
0100
0001
,  // measure 22
0200
0000
0010
0010
0010
0000
0001
0001
,  // measure 23
0301
0000
0000
0000
1000
0000
0100
0000
0001
0000
0000
0100
0000
0000
1000
0000
;

//---------------dance-single - ----------------
#NOTEDATA:;
#CHARTNAME:;
#STEPSTYPE:dance-single;
#DESCRIPTION:;
#CHARTSTYLE:;
#DIFFICULTY:Medium;
#METER:5;
#RADARVALUES:0.199,0.164,0.011,0.034,0.006,118.000,1.000,3.000,0.000,0.000,0.000,0.000,0.000,0.199,0.164,0.011,0.034,0.006,118.000,1.000,3.000,0.000,0.000,0.000,0.000,0.000;
#CREDIT:;
#NOTES:
0010
0000
1000
0000
0100
0001
0100
0000
,
1000
0000
0010
0000
0100
0001
0010
0000
,
0100
0000
1000
0000
0100
0010
0001
0100
,
0010
0000
0100
0000
0001
0000
0010
0100
,
1000
0000
0001
0000
0100
0010
0100
0000
,
0001
0000
0010
0000
0100
1000
0001
0000
,
0100
0000
0010
0000
0100
0001
1000
0000
,
0100
0000
0010
0000
0001
0000
0001
1000
,
0001
0000
1000
0100
1000
0000
0001
0100
,
0010
0000
0100
0000
0001
0000
0010
0100
,
1000
0000
0001
0100
0010
0000
0100
0001
,
1000
0000
0100
0000
0010
0000
0001
0100
,
0010
0000
1000
0100
0010
0000
0100
1000
,
0001
0000
0100
0000
0010
0000
1000
0100
,
0001
0000
0100
1000
0001
0000
0100
1000
,
0100
0000
0010
1000
0001
0000
0010
0000
,
0100
0000
1000
0000
0001
0100
0010
0100
,
0001
0000
1000
0100
0010
0100
1000
0000
,
0010
0000
0100
0001
1000
0100
0010
0000
,
0001
0100
0010
0100
0001
0000
1000
0000
,
2002
0000
0000
0000
,
0000
0000
0000
0000
3003
0000
1000
0001
,
2000
0000
0001
0000
,
0001
0000
0000
0000
0000
0000
0000
0000
3001
0000
0000
0100
0000
0000
0010
0000
;

//---------------dance-single - ----------------
#NOTEDATA:;
#CHARTNAME:;
#STEPSTYPE:dance-single;
#DESCRIPTION:;
#CHARTSTYLE:;
#DIFFICULTY:Easy;
#METER:4;
#RADARVALUES:0.153,0.121,0.000,0.023,0.000,92.000,0.000,2.000,0.000,0.000,0.000,0.000,0.000,0.153,0.121,0.000,0.023,0.000,92.000,0.000,2.000,0.000,0.000,0.000,0.000,0.000;
#CREDIT:;
#NOTES:
1000
0010
0100
0001
,
0010
0100
1000
0000
,
0001
0100
0010
0100
,
0001
0000
0010
0000
0100
0000
1000
1000
,
1000
0010
0100
0001
,
0100
0000
0010
0000
1000
0000
0001
0001
,
0001
0010
0100
1000
,
0010
0000
0100
0000
0001
0000
1000
0001
,
1000
0010
0100
0001
,
0010
0000
0100
0000
1000
0000
0001
0100
,
0010
0100
0001
0010
,
0100
0000
1000
0000
0001
0000
1000
0100
,
1000
0010
0100
0001
,
0010
0000
0100
0000
1000
0000
0100
0010
,
0100
1000
0001
0100
,
0010
0000
1000
0000
0001
0000
0010
0100
,
0010
0001
1000
0010
,
0100
0001
0010
0100
,
1000
0010
0100
0001
,
0010
0000
0100
0000
1000
0000
0010
0100
,
0002
0000
0000
0000
,
0000
0000
0000
1000
,
2003
0000
0000
0000
,
0001
0000
3001
0000
;

//---------------dance-single - ----------------
#NOTEDATA:;
#CHARTNAME:;
#STEPSTYPE:dance-single;
#DESCRIPTION:;
#CHARTSTYLE:;
#DIFFICULTY:Beginner;
#METER:2;
#RADARVALUES:0.080,0.075,0.011,0.034,0.000,45.000,1.000,3.000,0.000,0.000,0.000,0.000,0.000,0.080,0.075,0.011,0.034,0.000,45.000,1.000,3.000,0.000,0.000,0.000,0.000,0.000;
#CREDIT:;
#NOTES:
1000
0000
0010
0000
,
0100
0000
0001
0000
,
0010
0000
0100
0000
,
1000
0000
0000
0000
0010
0000
0000
0100
,
0100
0000
0001
0000
,
0010
0000
0100
0000
,
1000
0000
0010
0000
,
0200
0000
0000
0000
0300
0000
0001
0001
,
0001
0000
0010
0000
,
0100
0000
1000
0000
,
0010
0000
0100
0000
,
0001
0000
1000
0000
,
0010
0000
0100
0000
,
0001
0000
0010
0000
,
0100
0000
1000
0000
,
0010
0000
0000
0000
0100
0000
0100
0100
,
0001
0000
1000
0000
,
0001
0000
1000
0000
,
0010
0000
0100
0000
,
0010
0000
0100
0000
,
2002
0000
0000
0000
,
0000
0000
0000
0000
,
3003
0000
0000
0000
;
