#TITLE:My Little Pony Theme (Alex S. Glitch Remix);
#SUBTITLE:;
#ARTIST:Alex S.;
#TITLETRANSLIT:;
#SUBTITLETRANSLIT:;
#ARTISTTRANSLIT:;
#GENRE:Modern Dubstep;
#CREDIT:xddr1996x, RIME;
#BANNER:My Little Pony Theme (Alex S. Glitch Remix).png;
#BACKGROUND:My Little Pony Theme (Alex S. Glitch Remix)-bg.png;
#LYRICSPATH:;
#CDTITLE:;
#MUSIC:My Little Pony Theme (Alex S. Glitch Remix).ogg;
#OFFSET:-0.280;
#SAMPLESTART:24.796;
#SAMPLELENGTH:15.000;
#SELECTABLE:YES;
#DISPLAYBPM:115.000;
#BPMS:0.000=115.000
,6.000=124.717
,7.000=123.225
,8.000=114.998
,13.000=103.489
,14.000=111.284
,15.000=115.000
;
#STOPS:
;
#BGCHANGES:-0.330=My Little Pony Theme (Alex S. Glitch Remix).avi=1.000=0=0=0=StretchNoLoop====,
99999=-nosongbg-=1.000=0=0=0 // don't automatically add -songbackground-
;
#KEYSOUNDS:;
#ATTACKS:;

//---------------pump-single - Single Lv. 16----------------
#NOTES:
     pump-single:
     Single Lv. 16:
     Hard:
     16:
     0.903,0.842,0.382,0.673,1.000,579.000,42.000,74.000,0.000,0.000,0.000,0.903,0.842,0.382,0.673,1.000,579.000,42.000,74.000,0.000,0.000,0.000:
00000
00000
00000
00000
00000
00000
00000
00000
10000
00001
10000
00001
01000
00010
00100
00001
,
20000
00000
00000
00000
00000
00000
00000
00000
00000
00000
00000
00000
00100
00000
00000
00000
00000
00000
00000
00000
00100
00000
00000
00000
00000
00000
00000
00000
00000
00000
00000
30000
,
02000
00000
00000
03000
00200
00000
00000
00300
00020
00000
00000
00030
02000
00000
00000
00000
00000
00000
00000
00000
00001
00000
00000
00000
00002
00000
00000
00000
03003
00000
00000
00000
,
00002
00000
00000
00000
00000
00000
00000
00003
20000
00000
00000
00000
00000
00000
00000
30000
00001
00000
10000
00000
00001
00000
10000
00000
00010
00000
01000
00000
00100
00000
10000
00000
,
00002
00000
00103
00000
00001
00100
00010
01000
00000
01000
00100
10000
00020
00000
00130
00000
,
00120
00000
10030
00000
00100
01000
00100
10000
00010
00100
01000
10000
00200
00000
01300
00000
,
00002
00000
00103
00000
00010
01000
00100
10000
00000
10000
01000
00100
00020
00000
01030
00000
,
01010
00000
00010
01000
00100
00000
01000
00020
00030
02000
03000
00010
10000
00100
10000
00100
,
20000
00000
30100
00000
10000
01000
00100
00010
00000
00010
00100
00001
02000
00000
03100
00000
,
02100
00000
03001
00000
00100
00010
00100
00001
00010
00100
01000
00010
00200
00000
00301
00000
,
20000
00000
30100
00000
10000
00100
01000
00010
00000
00010
00100
01000
20000
00000
30100
00000
,
01100
00000
00100
01000
00010
00000
00100
00020
00030
02000
03000
00010
10000
00100
10000
00100
,
10000
00100
00001
00100
20000
30000
00100
10000
00001
00100
00001
00100
00020
00030
01000
00010
,
01010
00000
00010
01000
00000
01000
00010
00000
01010
00000
01000
00010
00000
00010
01000
00000
,
00100
10000
00002
00003
00100
10000
00002
00003
10000
00100
00001
20000
30000
00100
10000
00010
,
00110
00000
00010
00100
00000
00100
00010
00000
01100
00000
01000
00100
01000
00010
00100
00001
,
10000
00100
10000
00100
02000
03000
00010
00100
00001
00100
00001
00100
00020
00030
01000
00100
,
10000
00000
10100
00000
00100
10000
00010
00000
00100
00000
00101
00000
00001
01000
00100
10000
,
00010
00100
02000
03000
00001
00100
20000
30000
00010
00100
00001
00100
00010
01000
00100
10000
,
00001
00000
00101
00000
00100
00001
01000
00100
10000
00000
10100
00000
00100
10000
00010
00100
,
00001
00000
00100
00000
00001
00000
00100
00000
00010
00000
01000
00000
00100
00000
10000
00000
00001
00000
10000
00000
00100
01000
00100
01000
00200
00000
00300
00000
10000
00000
01000
00000
,
00200
00000
00300
00000
00010
01000
00010
01000
00020
00000
00030
00000
00100
00000
00001
00000
10000
00000
00100
00000
01000
00000
00010
00000
10000
00000
00100
00000
02000
00000
03000
00000
,
00001
00001
00100
01000
01000
00001
00100
00100
01000
00001
00100
00000
00101
00000
01100
00000
,
20010
00000
30000
00000
00010
00100
00010
00100
00020
00000
00000
00000
01030
00000
00100
00000
01000
00000
01000
00000
00010
00000
00100
00000
00001
00000
10000
00000
00002
00000
00003
00000
,
10000
00000
10000
00000
00100
00000
01000
00000
10000
00000
10000
00000
01000
00000
00100
00000
20000
00000
31000
00000
10000
00100
10000
00000
00010
00000
01000
00000
00020
00000
00130
00000
,
00002
00000
00003
00000
10000
00100
10000
00100
00002
00000
00003
00000
00010
00000
00100
00000
01000
00000
00001
00000
00010
00000
00100
00000
00001
00000
00001
00000
10000
00000
00100
00000
,
10000
00000
10000
00000
00100
10000
00100
10000
00010
00000
00010
00000
10000
00000
00100
00000
00010
00000
10000
00000
00200
00000
00000
00000
00301
00000
10000
00100
20000
00000
30000
00000
,
02001
00000
03000
00000
00001
00100
00010
00100
00002
00000
00000
00000
10003
00000
00100
00000
10000
00000
01000
00000
10000
00000
01000
00000
00100
00000
00010
00000
02000
00000
03000
00000
,
00001
00010
00001
00010
00100
01000
00020
00030
10000
01000
10000
01000
00100
00010
02000
03000
,
01010
00110
01010
01100
01001
00101
01001
01100
,
10100
00000
10100
00000
00101
00000
00101
00000
10000
00100
01000
00010
00100
00001
00100
00010
,
10000
00100
01000
00100
10000
01000
00100
00010
01000
00100
00010
00001
00100
00000
01001
00000
,
00002
00003
00200
00300
20000
30000
02000
00000
00000
00000
00002
00000
00000
00000
03003
00000
,
02000
03000
00200
00300
00020
00030
00002
00000
00000
00000
02000
00000
00000
00000
03003
00000
,
00002
00103
00020
01030
00200
10300
00020
01030
,
00001
00000
00101
00000
00100
00001
00000
00001
00100
00000
00110
00000
00010
01000
00000
01000
,
00010
00000
01010
00000
01000
00100
00000
00100
01000
00000
01100
00000
00100
01000
00000
00100
,
10000
00000
10010
00000
00010
00100
00000
00100
00001
01000
00000
01000
00100
10000
00010
00100
,
00001
00001
10000
10000
00010
00010
01000
01000
00010
00010
00100
00100
00001
00001
10000
10000
,
00100
00000
10000
00100
10000
00100
00000
10100
00000
00110
00000
20002
00000
00000
00000
30003
,
10000
00001
10000
00001
00100
00010
00100
00010
01000
00100
01000
00100
20000
00000
30010
00000
,
10000
01000
00100
00010
01000
00000
01100
00000
00001
00010
00100
01000
00010
00000
00110
00000
,
01000
00010
01000
00010
00100
00001
00100
00001
01000
00010
00100
00001
20000
00000
30100
00000
,
10100
00000
00100
10000
00010
00000
00110
00000
00100
00001
01000
00100
20000
00000
30001
00000
,
00100
00010
00100
00001
00100
00010
00100
00001
00100
00010
01000
00100
10000
00001
00200
00300
,
00001
00000
00100
00000
00001
00000
00100
00000
00001
00000
00000
00000
00101
00000
00000
00000
10000
00000
00100
10000
00100
00000
10000
00000
00100
00000
01000
00000
00020
00000
00030
00000
,
01000
01000
00100
10000
01000
01000
10000
00100
01000
01000
00010
00100
00001
00001
00100
00010
,
00001
00010
00100
00001
00010
00100
01000
00010
00100
01000
10000
00100
01000
00010
00100
00002
,
00020
00000
00000
00033
;

//---------------pump-single - 7----------------
#NOTES:
     pump-single:
     7:
     Medium:
     7:
     0.423,0.363,0.373,0.255,0.000,257.000,41.000,28.000,0.000,0.000,0.000,0.423,0.363,0.373,0.255,0.000,257.000,41.000,28.000,0.000,0.000,0.000:
00000
00000
00000
00000
,
20000
00000
00100
00000
,
30002
00000
00100
00000
,
20003
30100
00002
10003
,
10001
00000
00001
00100
00010
00000
01010
00000
,
10001
00000
10000
00100
01000
00000
01010
00000
,
10010
00000
00010
10000
00100
00000
10010
00000
,
00010
10000
00010
10000
00001
00100
00020
00030
,
01000
00001
01000
00001
00100
00010
20000
30000
,
00010
10000
00010
10000
00100
01000
00002
00003
,
01000
00010
01000
00010
00100
00001
20000
30000
,
00001
00001
10000
10000
00001
00100
00020
00030
,
10000
10100
00010
00110
,
10000
00100
10000
00000
00010
00100
00010
00000
,
10100
00000
00110
00000
00001
01000
00100
00000
,
01100
01000
00001
00000
00100
00001
01000
00100
,
10000
00000
10100
00000
00010
00100
00001
00000
,
00101
00000
01100
00000
01000
00100
10000
00000
,
00010
10000
00010
00100
00001
00000
00101
00000
,
00001
00100
00010
00000
10000
10000
00100
01000
,
00001
00000
00101
00000
00100
00001
01000
00100
,
10000
00000
10100
00000
00100
10000
00010
00000
,
10010
00000
01001
00000
00001
01000
00010
00100
,
00001
00000
00011
00000
00001
00100
00010
00100
,
00001
00000
00101
00000
00001
00100
00010
00001
,
00100
00000
10100
00000
10000
00100
01000
10000
,
00100
00010
00100
00010
01000
00100
10000
00000
,
10100
00000
00110
00000
00010
00100
00001
00100
,
00010
01000
00010
01000
00100
10000
00100
10000
,
10100
00101
10100
00101
,
10100
00000
00110
00000
01000
00100
01000
00100
,
02000
00000
00002
03003
,
01001
00100
10010
00100
,
00011
00100
10010
00100
,
20000
30000
02000
03000
00002
00003
00020
00030
,
10000
00100
10000
00100
00000
20200
00000
30300
,
00001
00100
00001
00100
00000
00202
00000
00303
,
20000
30000
00002
00003
02000
03000
00020
00030
,
20000
30100
00002
00103
,
10000
00100
10000
00001
10000
00001
00200
00300
,
00001
00010
00100
01000
00000
01000
00010
00000
,
10000
00100
10000
00000
00001
00100
00001
00000
,
10000
01000
00100
00010
00000
00010
01000
00000
,
01100
00110
10100
00101
,
10000
00001
00100
00010
01000
00100
10000
00000
,
00001
00000
10001
00000
10000
10000
00100
00000
,
10000
00100
10000
00010
00100
00001
00100
00000
,
00001
00100
00010
00000
00010
01000
00100
20000
,
00002
00000
00000
00000
,
00000
00000
00000
00000
00000
00000
00000
30003
;

//---------------dance-single - Blank----------------
#NOTES:
     dance-single:
     :
     Medium:
     11:
     0.473,0.523,0.400,0.264,0.218,291.000,44.000,29.000,0.000,0.000,0.000,0.473,0.523,0.400,0.264,0.218,291.000,44.000,29.000,0.000,0.000,0.000:
0000
0000
0000
0000
0000
0000
0010
1000
,
1002
0000
0000
0010
0000
0013
0000
0000
,
0001
0010
0100
1000
0000
1001
0000
0000
,
2020
3030
0202
0303
0022
0033
2200
3300
,
1000
0000
0000
0000
1000
0000
0000
0001
0000
0000
0001
0000
0010
0000
0000
0000
,
0001
0000
0000
0000
0001
0000
0000
1000
0000
0000
1000
0000
0010
0000
0000
0000
,
0100
0000
0001
0000
0010
0000
0000
0100
0000
0000
1000
0000
0010
0000
0000
0000
,
1000
0000
0000
0010
0000
0010
0000
1000
0000
0001
0000
1000
0100
1000
0100
1000
,
0100
0000
0000
0000
0010
0000
0000
0001
0000
0000
1000
0000
1000
0000
0000
0000
,
0010
0000
0000
0000
0100
0000
0000
0010
0000
0000
1000
0000
0001
0000
0000
0000
,
0010
0000
0001
0000
0100
0000
0000
0010
0000
0000
1000
0000
0001
0000
0000
0000
,
0100
0000
0000
0010
0000
0010
0000
1000
0000
0001
0000
1000
0000
0000
0000
0000
,
0100
0100
0010
0000
0100
0100
0010
0000
,
0010
0000
0000
0001
0000
0001
0000
0001
1000
0000
0000
0010
0000
0010
0000
0010
,
0100
0001
0010
0001
1000
0001
0100
0001
,
1000
0010
0100
0010
0001
0010
1000
0100
,
0010
0010
0001
0000
0010
0010
0100
0000
,
1000
0000
0000
0010
0000
0010
0000
0010
0100
0000
0000
0001
0000
0001
0000
0001
,
1000
0100
0010
0100
0001
0100
0010
0100
,
1000
0001
0010
0001
0100
0001
0010
0100
,
1000
1010
0000
0011
0000
1010
0000
0011
,
0001
0101
0000
1100
0000
0101
0000
1100
,
1000
1010
0000
0011
0000
1010
0000
0011
,
0001
0010
1000
0100
0010
0100
0010
0000
,
0001
0011
0000
1010
0000
0011
0000
1010
,
1000
1100
0000
0101
0000
1100
0000
0101
,
0001
0011
0000
1010
0000
0011
0000
1010
,
1000
0100
0001
0100
0010
0010
0010
0110
,
0100
0100
0100
0110
0010
0010
0010
0110
,
0100
0100
1000
1000
0001
0001
0100
0100
,
0010
0000
1000
0000
0001
0000
0010
0000
0001
0010
0100
1000
0001
0000
1000
0000
,
0010
1000
0100
0010
0001
0100
0000
0101
,
1002
0000
0000
0010
0000
0013
0000
0000
,
0001
0010
0100
1000
0000
1001
0000
0000
,
2020
3030
0202
0303
0022
0033
2200
3300
,
1000
0010
1000
0002
0000
0023
0000
0000
,
0130
1000
0100
2000
0000
3020
0000
0000
,
0230
0302
0023
0230
,
2300
0001
0001
3001
,
1000
0000
0001
1000
0000
0010
0000
0100
0000
0010
0000
1000
0000
0100
0010
0000
,
0100
0000
0010
0000
0100
0000
0000
1000
0000
0000
0001
0000
1000
0000
0000
0000
,
0010
1000
0010
0100
0001
0010
0001
1000
,
0010
0000
1000
0000
0100
0000
0000
0010
0000
0000
0001
0000
0100
0000
0000
0000
,
0001
0000
0000
0010
0000
0010
0000
0100
0000
1000
0000
0010
0000
0000
0000
0000
,
0110
0000
0100
0000
0001
0000
0000
0010
0000
0000
0001
0000
1000
0000
0000
0000
,
1010
0000
0010
0000
0100
0000
0000
0001
0000
0000
1000
0000
0100
0000
0000
0000
,
0010
0000
0000
0000
0011
0000
0000
0001
0000
0000
1000
0000
0001
0000
0000
0000
,
1000
0010
1000
0100
0010
0100
0010
0001
,
2002
0000
0000
0000
,
0000
0000
0000
0000
,
3003
0000
0000
0000
;

//---------------dance-single - Blank----------------
#NOTES:
     dance-single:
     :
     Hard:
     17:
     0.779,0.727,0.473,0.064,1.000,541.000,52.000,7.000,0.000,0.000,0.000,0.779,0.727,0.473,0.064,1.000,541.000,52.000,7.000,0.000,0.000,0.000:
0000
0000
0000
0000
0000
0000
0000
0000
0000
0000
0000
0000
0010
1000
0010
1000
,
0002
0010
0010
0100
0000
0103
0000
0000
,
0101
0100
0010
1000
0000
0100
0100
0000
,
0220
0000
0330
0000
0022
0000
0033
0000
1000
0100
1000
0100
1000
0001
1000
0001
,
0100
0000
0000
0001
0100
0001
0010
0100
0000
0100
1000
0100
1000
0000
0010
0000
,
1010
0000
0000
1000
0001
1000
0001
0010
0000
0100
1000
0100
0001
0000
0100
0000
,
0010
0000
0000
0100
1000
0100
1000
0010
0000
0100
0001
1000
0100
0000
0010
0000
,
0001
0000
1000
0001
0000
0100
0000
0001
0000
0010
0000
0100
1000
0100
1000
0100
,
0010
0000
0001
1000
0010
0100
0001
1000
0000
0100
1000
0100
1000
0000
0010
0000
,
1010
0000
0000
1000
0001
1000
0001
0010
0000
0001
0010
0100
1000
0000
0010
0000
,
1010
0000
0000
1000
0001
0100
1000
0100
0000
1000
0100
0001
0010
0000
0100
0000
,
0010
0000
0100
1000
0000
0001
0000
0100
0000
0001
0000
1000
0100
0010
0100
0010
,
0001
0100
0001
1000
0100
0000
1000
0100
0000
0010
0010
0100
1000
0000
0001
0100
,
0001
0000
0100
0001
0000
0010
0001
0100
0010
0000
0100
0010
0000
0010
1000
0100
,
0010
0100
0010
0000
0100
0010
0100
0000
0010
0100
1000
0001
0000
1000
0001
0100
,
0010
0000
0010
1000
0000
0010
1000
0010
0100
0001
0010
0100
1000
0001
1000
0000
,
0001
0100
0001
0010
0100
0000
1000
0100
0000
1000
1000
0010
0100
0000
0001
0100
,
1000
0000
0001
0010
0000
0001
0010
0100
0001
0000
1000
0100
0000
0100
0001
0100
,
1000
0010
0001
0000
0001
0010
1000
0000
1000
0100
0010
0001
0000
0001
1000
0001
,
0100
0000
0100
0010
0000
0010
1000
0010
1000
0000
0100
0000
0010
0100
0010
0100
,
0010
0000
0000
0000
0101
0000
0000
0000
0010
0000
0000
0000
0101
0000
0000
0000
0001
0000
1000
0000
0100
0000
1000
0100
1000
0000
0000
0000
0010
0000
0000
0000
,
1000
0000
0001
0000
0010
0000
0001
0010
0001
0000
1000
0000
0010
0000
0100
0000
0001
0000
0000
0000
1010
0000
0000
0000
0001
0000
0000
0000
1010
0000
0000
0000
,
1000
0100
1000
0100
0000
0010
0100
1000
0000
0100
1000
0000
1100
0000
1100
0000
,
0100
0000
0010
0000
0001
0000
1000
0001
1000
0000
0000
0000
1010
0000
0000
0000
0010
0000
0100
0000
0001
0000
1000
0000
0100
0000
0010
0000
0100
0000
0000
0000
,
0010
0000
0101
0000
0010
0000
0101
0000
0001
1000
0100
1000
0010
0000
0110
0000
,
0010
0000
0000
0000
1000
0000
0010
1000
0010
0000
0000
0000
0100
0000
0000
0000
0001
0000
0010
0000
0001
0000
0000
0000
0011
0000
0000
0000
0010
0000
0100
0000
,
0010
0000
0001
0000
0010
0000
0001
0000
0000
0000
0001
0000
1000
0000
0001
0000
0000
0000
1000
0000
0010
0000
0000
0000
0100
0000
0010
0100
0010
0000
0000
0000
,
0100
0000
0000
0000
0001
0000
1000
0001
1000
0000
0100
0000
0010
0000
0001
0000
0101
0000
0000
0000
0101
0000
0000
0000
1010
0000
0000
0000
0101
0000
0000
0000
,
0011
0011
1100
0011
1001
1001
0110
1001
,
0011
0011
1100
1100
1010
1010
0101
0101
,
1001
0000
0110
0000
1001
0000
0110
0000
0001
1000
0010
0100
0001
0010
0100
1000
,
0001
0100
0001
0100
0001
0000
0010
0100
1000
0010
0100
0001
0000
0000
0110
0000
,
1001
1000
0001
0011
0000
1100
0000
0000
,
1001
0001
1000
1010
0000
0101
0101
0000
,
0001
0000
0001
0010
0001
0000
0010
0000
0100
0000
0100
0000
1000
0000
1000
0000
,
0010
0000
1000
0000
0001
1000
0000
1000
0010
0000
1000
0000
0001
1000
0000
1000
,
0010
0000
0100
0000
0001
1000
0000
1000
0001
0000
0100
0000
0001
1000
0000
1000
,
0001
0000
1000
0000
0100
0010
0000
0010
0001
0010
0001
0100
0010
1000
0010
1000
,
0100
0010
0100
0010
0001
1000
0001
1000
0010
0100
0001
0100
0010
1000
0100
1000
,
0001
0000
0010
0001
0010
0000
0001
1000
0001
1000
0000
0010
1000
0100
0010
0001
,
0100
0000
0001
0100
0001
0000
0100
0010
0000
1000
0100
0010
0001
0000
1000
0000
,
0010
0000
0000
0000
0100
0000
0001
0000
0010
0000
0000
0000
0100
0000
1000
0000
0100
0000
0010
0100
0010
0000
0001
0000
0000
0000
0100
0000
0001
0000
0000
0000
,
0010
0000
0100
1000
0010
0000
0100
0001
0000
0001
0010
0100
1000
0000
0001
0000
,
0010
0000
0100
0000
1000
0000
0100
0000
0000
0000
0010
0000
0100
0000
0010
0000
0001
0000
0100
0001
0100
0000
0001
0000
1000
0000
0100
0000
1000
0000
0000
0000
,
1010
0000
0010
0100
0001
0010
0001
0100
0000
0010
1000
0100
0010
0000
0100
0000
,
0110
0000
0000
0000
0010
0000
0001
0000
1000
0000
0010
0000
1000
0000
0100
0000
0010
0000
0001
1000
0001
0000
1000
0000
0010
0000
0100
0000
0001
0000
0000
0000
,
1000
0010
0100
0010
1000
0010
0100
0001
0010
0001
0100
0001
0010
0001
0100
0001
,
0010
0100
1000
0010
0000
0100
0001
0010
0100
0000
1000
0001
1000
1000
0001
0001
,
2002
0000
0000
0000
,
0000
0000
0000
0000
,
3003
0000
0000
0000
;

//---------------dance-single - Blank----------------
#NOTES:
     dance-single:
     :
     Easy:
     7:
     0.274,0.273,0.136,0.091,0.000,186.000,15.000,10.000,0.000,0.000,0.000,0.274,0.273,0.136,0.091,0.000,186.000,15.000,10.000,0.000,0.000,0.000:
0000
0000
0000
1000
,
0002
0000
0000
1003
0000
0000
0000
0000
,
2000
0000
0000
3010
0000
0000
0010
0000
,
0100
0001
1000
0010
,
0001
0001
0010
0010
,
1000
1000
0100
0100
,
0010
0001
1000
0010
,
0100
0001
0010
0100
,
1000
1000
0001
0001
,
0010
0010
0100
0100
,
1000
0010
0001
1000
,
0100
0010
1000
0001
,
0010
0010
0100
0100
,
1000
0001
1000
0001
,
1000
0010
0100
0010
,
0001
0010
0100
0010
,
1000
1000
0001
0001
,
0010
0100
0010
0100
,
1000
0010
0100
0010
,
0001
0010
0100
0010
,
1000
1010
0010
1010
,
0010
0110
0100
0110
,
0100
0001
0010
0001
,
0100
0110
0010
0110
,
0100
0101
0100
0101
,
0001
0011
0010
0011
,
0010
0100
1000
0010
,
0100
0101
0001
0011
,
0010
0010
0100
0100
,
0010
0010
0100
0100
,
1000
0001
1000
0001
,
1000
0010
0100
0001
0100
0010
1000
0100
,
0020
0000
0000
0130
0000
0000
0000
0000
,
0200
0000
0000
1300
0000
0000
1000
0000
,
0001
0010
0100
1000
,
0001
0001
1000
1000
,
0010
0100
0010
0100
,
0002
0023
0230
2300
,
0001
0000
0001
0000
,
0001
0001
0001
3001
,
1001
1000
0100
0010
,
0001
0100
0010
0100
,
0001
0010
0001
0100
,
0010
1000
0010
0100
,
0101
0001
0010
0100
,
1000
0010
0100
0001
,
0010
0010
0100
1000
,
0010
0010
0100
0001
,
2002
0000
0000
0000
,
0000
0000
0000
0000
,
3003
0000
0000
0000
;

//---------------dance-single - Blank----------------
#NOTES:
     dance-single:
     :
     Beginner:
     4:
     0.169,0.205,0.018,0.027,0.000,125.000,2.000,3.000,0.000,0.000,0.000,0.169,0.205,0.018,0.027,0.000,125.000,2.000,3.000,0.000,0.000,0.000:
0000
0000
0000
0000
,
0000
0000
0000
0000
,
0000
0000
0000
0000
,
1000
0001
1000
0001
,
0100
0000
0100
0000
,
0010
0000
0010
0000
,
1000
0000
0100
0000
,
0010
0000
0001
0000
,
0100
0000
0100
0000
,
0010
0000
0010
0000
,
1000
0000
0010
0000
,
0100
0000
0001
0001
,
1000
0000
1000
0000
,
0010
0010
0010
0000
,
0100
0000
0100
0000
,
0001
0001
0001
0001
,
1000
0000
1000
0000
,
0100
0100
0100
0000
,
0010
0000
0010
0000
,
0001
0001
0001
0000
,
1000
0001
1000
0001
,
1000
0001
1000
0001
,
0010
0000
0010
0000
,
0100
0000
0100
0000
,
1000
0001
1000
0001
,
1000
0001
1000
0001
,
0010
0000
0010
0000
,
0100
0000
0100
0000
,
0010
0000
0010
0000
,
0100
0000
0100
0000
,
0010
0100
1000
0001
,
1000
0010
0100
0101
,
0002
0000
0000
0000
,
1000
0000
0000
0000
,
0010
0000
0000
0000
,
0100
0100
0100
0100
,
0010
0010
0010
0010
,
1000
1000
1000
1000
,
2000
0000
0000
3003
,
1000
0100
0010
0001
,
1001
1000
1000
0000
,
0001
0001
0001
0000
,
0010
0010
0010
0000
,
0100
0100
0100
0100
,
1000
1000
1000
0000
,
0001
0001
0001
0000
,
0010
0010
0010
0000
,
0100
0100
0100
0100
,
2000
0000
0000
0000
,
0000
0000
0000
0000
,
3000
0000
0000
0000
;

//---------------pump-single - Blank----------------
#NOTES:
     pump-single:
     :
     Easy:
     5:
     0.273,0.312,0.018,0.073,0.000,200.000,2.000,8.000,0.000,0.000,0.000,0.273,0.312,0.018,0.073,0.000,200.000,2.000,8.000,0.000,0.000,0.000: // measure 0
00000
00000
00000
00000
,  // measure 1
10000
00000
00000
00001
00000
10000
00000
00000
,  // measure 2
00010
10000
00010
10000
00000
00001
00001
00000
,  // measure 3
02000
03020
20030
30002
,  // measure 4
00103
00001
00100
00001
,  // measure 5
10000
00001
10000
00100
,  // measure 6
01000
00010
01000
00010
,  // measure 7
00100
00010
01000
10000
,  // measure 8
00010
00001
10000
01000
,  // measure 9
00100
00010
01000
00100
,  // measure 10
01000
01000
00010
00010
,  // measure 11
10000
00001
10000
00001
,  // measure 12
00010
00010
00100
00100
,  // measure 13
01000
00010
00100
00001
,  // measure 14
10000
10000
01000
01000
,  // measure 15
00001
00001
00010
01000
,  // measure 16
00100
00100
01000
00010
,  // measure 17
00100
00001
10000
00100
,  // measure 18
01000
01000
00010
00010
,  // measure 19
01000
00100
10000
00001
,  // measure 20
00010
00010
00100
00100
,  // measure 21
01000
01000
00100
00100
,  // measure 22
10000
00100
01000
00100
,  // measure 23
00010
00100
00001
00100
,  // measure 24
01000
00010
00100
00001
,  // measure 25
10000
00100
01000
00010
,  // measure 26
01000
01000
00010
00010
,  // measure 27
10000
00000
10000
00000
00001
10000
00001
00000
,  // measure 28
10000
00001
10000
00000
00001
10000
00001
00000
,  // measure 29
01000
00010
01000
00010
01000
00010
01000
00010
,  // measure 30
00100
00001
10000
00100
10000
00001
00100
00001
,  // measure 31
10000
01000
00100
00010
,  // measure 32
02000
00000
00000
00010
00000
00010
00000
00000
,  // measure 33
00100
00100
00001
00001
,  // measure 34
00010
00100
00001
03100
,  // measure 35
00010
00010
01000
01000
,  // measure 36
00001
00001
10000
10000
,  // measure 37
00200
01000
00010
01000
,  // measure 38
10000
00001
10000
00001
,  // measure 39
01000
01000
00010
00310
,  // measure 40
01010
00010
00100
00010
,  // measure 41
01000
00100
01000
00001
,  // measure 42
10000
00100
10000
00001
,  // measure 43
01000
00100
01000
00010
,  // measure 44
00100
00010
00001
00010
,  // measure 45
00100
01000
10000
01000
,  // measure 46
00100
01000
00001
00010
,  // measure 47
10000
00100
01000
00010
,  // measure 48
02020
00000
00000
00000
,  // measure 49
03030
00000
00000
00000
;
