#TITLE:Miracle Moon(L.E.D.LIGHT STYLE MIX);
#SUBTITLE:;
#ARTIST:Togo Project feat.Sana;
#TITLETRANSLIT:;
#SUBTITLETRANSLIT:;
#ARTISTTRANSLIT:;
#GENRE:Techno;
#CREDIT:;
#BANNER:Miracle Moon(L.E.D.LIGHT STYLE MIX).png;
#BACKGROUND:Miracle Moon(L.E.D.LIGHT STYLE MIX)-bg.png;
#JACKET:Miracle Moon(L.E.D.LIGHT STYLE MIX)-jacket.png;
#LYRICSPATH:;
#CDTITLE:;
#MUSIC:Miracle Moon(L.E.D.LIGHT STYLE MIX).mp3;
#OFFSET:-0.045;
#SAMPLESTART:26.100;
#SAMPLELENGTH:15.000;
#SELECTABLE:YES;
#DISPLAYBPM:138.000;
#BPMS:0.000=137.980
,40.000=138.010
;
#STOPS:40.000=1.300
;
#BGCHANGES:-0.489=Miracle Moon(L.E.D.LIGHT STYLE MIX).avi=1.000=0=0=0=StretchNoLoop====,
99999=-nosongbg-=1.000=0=0=0 // don't automatically add -songbackground-
;
#KEYSOUNDS:;
#ATTACKS:;

//---------------dance-single - Blank----------------
#NOTES:
     dance-single:
     :
     Challenge:
     14:
     0.733,0.719,0.565,0.060,0.600,447.000,56.000,6.000,0.000,0.000,0.000,0.733,0.719,0.565,0.060,0.600,447.000,56.000,6.000,0.000,0.000,0.000:
1000
0000
0010
1000
0000
1000
0001
0000
0010
0001
0000
0001
1000
0000
0100
0000
,
0010
0000
0001
0100
0000
0100
0010
0000
0010
1000
0000
1000
0100
0000
0010
0000
,
0110
0000
0000
0000
0100
0000
1000
0000
0001
0000
0000
0100
0000
0000
0010
0000
,
1010
0000
0000
0000
1000
0000
0100
0000
0001
0000
0000
0100
0000
0010
0001
0100
,
0010
0000
0000
0000
1000
0000
0010
0000
1000
0000
0000
0001
0000
0000
0100
0000
,
0110
0000
0000
0000
0010
0000
1000
0000
0100
0010
0100
0000
0100
0000
0100
0000
,
0010
0000
0000
0000
0011
0000
0001
0000
1000
0000
0000
0010
0000
0000
1000
0000
,
0100
0000
0000
0000
0010
0000
0001
0000
0010
0000
0000
0001
0000
1000
0001
0100
,
0010
0000
0000
0000
1000
0000
0010
0000
1000
0000
0000
0001
0000
0000
0100
0000
,
0010
1000
0001
0100
0010
1000
0100
0010
,
0002
0000
1003
0000
1100
1000
0001
1000
,
0001
0000
1000
0000
1001
0000
1000
0000
0100
0010
0000
0001
0000
0000
1000
0000
,
0100
0010
0000
0001
0000
0000
2000
0000
0000
0000
3000
0000
1001
0000
0002
0000
,
0000
0000
0000
0003
0000
0000
1001
0000
0000
1000
0000
0000
1100
0000
0000
0100
0000
0010
0100
0000
0010
0100
0000
0100
,
1000
0000
0000
0000
1000
0000
0001
0000
0000
0000
0000
0000
0100
0000
0000
0000
0000
0000
0001
0000
0000
0000
0000
0000
0010
0000
0000
0000
0000
0000
0100
0000
0000
1000
0000
0000
0000
0000
0000
0000
0000
0000
1000
0000
0000
0000
0000
0000
,
0100
0010
0000
0100
0000
0000
1000
0000
0010
0000
0001
0010
0000
0000
0100
0000
,
0001
0000
1000
0100
0000
0000
0010
0000
0001
0000
0100
0001
0000
0000
0001
0000
,
1000
0000
0100
1000
0020
0000
0000
0000
0000
0000
0130
0000
0000
0000
0100
0001
,
0100
0000
0010
0000
1010
0000
1000
0000
0100
0000
0000
0010
0000
0000
0100
0000
,
1000
0000
0001
0100
0000
0000
0010
0000
1000
0100
0000
0110
0000
0000
0010
0000
,
0001
0000
0000
0100
0000
0000
0000
0000
0000
0010
0000
0000
0000
0000
0000
0000
0000
0000
1000
0000
0010
0000
0100
0000
0001
0000
0000
0000
0000
0000
0000
0000
0000
1000
0000
0000
0000
0000
0000
0001
0000
0000
0000
0000
0000
0000
0000
0000
,
0010
0000
0000
0000
0000
0000
0100
0000
0000
1000
0000
0000
0000
0000
0000
0000
0000
0000
0001
0000
0010
0000
0100
0000
1000
0000
0000
0000
0000
0000
0000
0000
0000
0001
0000
0000
0000
0000
0000
1000
0000
0000
0001
0000
0000
0000
0000
0000
,
0000
0000
1000
0001
0100
0000
0010
0000
1000
0000
0100
1000
0000
0000
0010
0000
,
0100
0001
0000
0000
0011
0000
0001
0000
1000
0000
0001
0010
0000
0000
0100
0000
,
1000
0000
0001
0100
0000
0000
0010
0000
1000
0000
0010
0100
0000
0000
0001
0000
,
0010
0100
1000
0000
0001
0000
0010
0000
1000
0000
0001
0000
0010
0000
1000
0000
,
0010
1000
0010
1000
0100
0000
0010
0000
0001
0000
0100
0000
0000
0000
0101
0000
,
0001
1000
0001
0100
1000
0001
0100
1000
,
0100
0000
0000
1000
0000
0000
0100
0000
0000
1000
0000
0000
0010
0000
0000
0000
0000
0000
0100
0000
0000
0000
0000
0000
0001
0000
0000
0000
0000
0000
1000
0000
0000
0000
0000
0000
0000
0000
0000
0000
0000
0000
0001
0000
0000
0000
1000
0000
,
0001
0010
0100
1000
0010
0100
1000
0010
,
1000
0010
1000
0010
0001
0000
0100
0000
1000
0000
0001
0000
0000
0000
0010
0000
,
1000
0100
0010
0001
0100
0010
0001
0100
,
0001
0100
0001
0100
1000
0000
0010
0000
1000
0000
0010
0000
0000
0000
1000
0000
,
0001
1000
0100
0010
0001
0100
0010
0001
,
0010
0001
0010
0001
1000
0000
0100
0000
0010
0000
1000
0000
0001
0000
1000
0000
,
0010
0000
0110
0000
0100
0001
0000
0000
0010
0000
0100
0000
0110
0000
0000
0011
,
0000
0000
1100
0000
1000
0000
0001
0000
0100
0000
0001
0000
1000
0000
0010
1000
,
0000
1000
0100
0010
0001
1000
0000
0000
1010
0000
0010
0000
0110
0000
0000
0101
,
0000
0000
1010
0000
0000
0000
1000
0000
0100
0000
0010
0100
0000
1000
0001
0000
,
0100
0000
0010
0000
1000
0010
0000
0000
0110
0000
0100
0000
0101
0000
0000
1100
,
0000
0000
0011
0000
0000
0000
0010
0000
0100
0000
0001
0000
1000
0000
0100
0010
,
0000
0010
0100
1000
0001
0100
0000
0000
0101
0000
0100
0000
1100
0000
0000
0011
,
0000
0000
0000
1010
0000
0000
1000
0000
0100
0010
0000
0100
0010
0000
0010
0001
0000
0001
0100
0000
0100
0010
0000
0010
,
1000
0000
0000
0000
1000
0000
0100
0000
0000
0000
0000
0000
0010
0000
0000
0100
0000
0000
0000
0000
0000
0000
0000
0000
0110
0000
0000
0000
0000
0000
0010
0000
0000
0000
0000
0000
0011
0000
0000
0000
0000
0000
0000
0000
0000
1100
0000
0000
,
0000
0110
0000
0010
0001
0020
0000
1030
,
0001
0000
0100
0000
1000
0010
0000
0000
1010
0000
1000
0000
1001
0000
0000
0011
,
0000
1100
0000
0010
1000
0020
0000
0031
,
1000
0000
0100
0000
0001
0010
0000
0000
0100
0000
0010
0000
0011
0000
0000
1010
,
0000
0000
0101
0000
0000
0000
1000
0000
0100
0000
0001
0000
0100
0000
0010
0001
,
0000
0001
0010
0100
1000
0010
0000
0000
1010
0000
1000
0000
1001
0000
0000
0011
,
0000
0000
0000
1100
0000
0000
1000
0000
0001
1000
0000
0001
0100
0000
0001
1000
0000
0100
0010
0000
0010
0001
0000
0001
,
0100
0000
0000
0000
0100
0000
0010
0000
0000
0000
0000
0000
1000
0000
0000
0010
0000
0000
0000
0000
0000
0000
0000
0000
0100
0000
0000
0000
0000
0000
0001
0000
0000
0000
0000
0000
0011
0000
0000
0000
0000
0000
0000
0000
0000
1010
0000
0000
,
0000
0000
0011
0000
0001
0000
1000
0000
0010
0000
0100
0000
0010
0000
0000
1010
,
0000
1000
0100
1000
0001
0100
0000
0000
0010
0000
0100
0000
0110
0000
0000
0110
,
0000
0000
0000
0110
0000
0000
1001
0000
0000
0000
1001
0000
0000
0000
1001
0000
0000
1001
0000
0000
0000
1001
0000
0000
;

//---------------dance-single - Blank----------------
#NOTES:
     dance-single:
     :
     Easy:
     6:
     0.315,0.356,0.262,0.060,0.000,187.000,26.000,6.000,0.000,0.000,0.000,0.315,0.356,0.262,0.060,0.000,187.000,26.000,6.000,0.000,0.000,0.000:
0000
0000
0000
0000
,
0000
0000
0000
0000
,
1000
1000
0010
1000
,
0001
0001
0100
0010
,
1000
1000
0100
1000
,
0001
1000
0001
1000
,
1001
0001
0010
0001
,
0100
1000
0100
1000
,
1100
0100
0010
1000
,
0100
0100
0010
0010
,
0000
0000
1000
0100
,
1000
0000
0001
0100
,
0001
1001
1000
1010
,
0010
0110
0110
1001
,
1001
0001
0010
0001
,
0010
0100
1000
0010
,
0100
0001
0100
0001
,
0100
1001
0000
0000
,
0011
1100
1000
0010
,
1000
0100
0010
0001
,
0100
0010
0010
1000
,
0001
0010
0010
0001
,
1000
0100
1000
0010
,
0100
0001
0010
0100
,
1000
0100
0010
0100
,
0010
0220
0000
0000
,
0330
1000
0100
0001
,
0000
0220
0000
0000
,
0330
0001
0100
1000
,
1001
1000
0001
1000
,
0100
0001
1000
0001
,
0100
1000
0001
1000
,
0010
0001
1000
0001
,
0010
1000
0100
0010
,
0001
1000
1000
0001
,
0001
1001
1000
0100
,
1000
1001
0001
0100
,
0001
0011
0010
0100
,
0010
0100
0000
0100
,
0000
1100
1000
0001
,
1000
1001
0001
0010
,
0001
0110
0100
1000
,
0010
0100
0100
0100
,
0100
0001
1000
0001
,
1000
0000
0100
0000
0000
0020
0000
0000
,
0130
1000
0100
0010
,
0001
0000
1000
0000
0000
0002
0000
0000
,
0013
0100
1000
0010
,
0100
0001
0000
0100
,
0010
1000
0100
1000
,
0100
0010
0010
0100
,
0100
1100
0000
1001
,
0000
0101
0000
0011
,
0000
0110
0000
1100
,
0000
0100
0000
0000
;

//---------------dance-single - Blank----------------
#NOTES:
     dance-single:
     :
     Hard:
     10:
     0.517,0.444,0.232,0.060,0.171,330.000,23.000,6.000,0.000,0.000,0.000,0.517,0.444,0.232,0.060,0.171,330.000,23.000,6.000,0.000,0.000,0.000:
1000
0000
0000
0001
0000
0000
1000
0000
0000
0010
0000
0000
0100
0000
0010
0000
,
1000
0000
0000
0100
0000
0000
0001
0000
0000
0100
0000
0000
0010
0000
0001
0000
,
1000
0000
0000
0000
0010
0000
0010
0000
1000
0000
0000
0100
0000
0000
1000
0000
,
0010
0000
0000
0000
0100
0000
0010
0000
1000
0000
0000
0001
0000
0000
0100
0000
,
0001
0000
0000
0000
0010
0000
0010
0000
0100
0000
0000
1000
0000
0000
0010
0000
,
0100
0000
0001
0100
0010
1000
0010
1000
,
0100
0010
0110
1001
,
1000
0010
1000
0001
0010
0000
0100
1000
,
0001
0000
0000
0000
1000
0000
0010
0000
0100
0000
0000
0001
0000
0000
0010
0000
,
0100
1000
0010
0001
1000
0100
0010
1000
,
0200
0000
0310
0000
0100
1000
0001
0000
,
0100
0001
1000
0010
1000
0000
0001
0010
,
0001
1001
0000
0110
,
0000
1010
0101
0011
,
1100
0000
1000
0001
1000
0000
0010
0100
,
0001
0000
0001
1000
0001
0000
0010
0100
,
1000
0000
0010
0100
0010
0000
1000
0100
,
0001
0100
2000
0000
0000
3020
0000
0000
,
0130
0000
0001
0000
0101
0000
0001
0000
0010
0000
0000
0100
0000
0000
1000
0000
,
0001
0000
0000
0100
0000
0000
0010
0000
1000
0001
0000
0001
0000
0000
1000
0000
,
0100
0010
0001
0100
0100
0000
0001
0010
,
0001
0100
0010
1000
1000
0000
0100
1000
,
0001
0100
0010
1000
0001
0000
0010
0001
,
1000
0000
0000
0000
0100
0000
1000
0000
0001
0000
0000
0100
0000
0000
0010
0000
,
1000
0000
0100
0010
0000
0000
0100
0000
0100
0000
0000
0010
0000
0000
0001
0000
,
0010
0100
1000
0100
0001
0100
0000
0100
,
1000
0100
0010
0001
1000
0010
0000
0100
,
0010
1000
0001
0010
1000
0010
0000
0010
,
0001
0000
0010
0000
0100
0000
1000
0000
0100
0000
0001
0000
0000
0000
0100
0010
,
0100
1000
0010
0000
1010
0000
0001
0000
,
0011
0000
1000
0001
1000
0100
0000
0010
,
0100
1000
0001
0000
0101
0000
1000
0000
,
1010
0000
1000
0001
1000
0100
0000
0010
,
0010
0100
1000
0010
1000
0010
0100
0001
,
0100
0001
0010
0001
0010
0001
0100
0010
,
0100
0000
0010
0000
1000
0010
0000
0000
0100
0000
0000
0000
0010
0000
0000
0010
,
0000
0010
1000
0100
0010
0000
0001
0010
,
0100
0000
0000
0000
0000
0001
0000
0000
0100
0000
1000
0000
0100
0000
0000
1000
,
0000
0010
1000
0001
1000
0000
0001
0100
,
0001
0000
0000
0000
0000
0100
0000
0000
0010
0000
1000
0000
0001
0000
0000
0001
,
0000
0001
1000
0100
1000
0000
0100
0010
,
0001
0000
0000
0000
0000
1000
0000
0000
0001
0000
0100
0000
0001
0000
0000
0010
,
0000
0100
1000
0001
1000
0001
0100
0010
,
1000
0000
0001
0000
0100
0010
0000
0000
1000
0000
0001
0000
0100
0000
0000
0100
,
0000
0100
0000
0000
0000
2010
0000
0000
,
0001
0000
3001
0000
0000
0001
0000
0000
0100
0000
0010
0000
1000
0000
0000
1000
,
0000
1000
0000
0000
0000
0012
0000
0000
,
1000
0000
1003
0000
0000
0000
0100
0000
0010
0000
0100
0000
1000
0000
0000
0101
,
0000
0101
0000
0000
0000
0000
0001
1000
,
0001
0000
0000
0000
0000
0000
0100
0000
0010
0000
0100
0000
0001
0000
0000
1100
,
0000
1100
0100
0010
0001
1000
0100
0010
,
0001
0000
1000
0000
0010
0100
0000
0000
0001
0000
1000
0000
0100
0000
0000
0010
,
0000
0110
0100
0000
0010
0000
1001
0000
,
0110
0000
0000
0000
0100
0001
0000
0000
0010
0000
0010
0000
0100
0000
0000
0100
,
0000
0110
0020
0000
0000
0000
0000
0000
,
0000
0030
0000
0000
0000
0000
0000
0000
0000
0000
0000
0000
;

//---------------dance-single - Blank----------------
#NOTES:
     dance-single:
     :
     Beginner:
     3:
     0.111,0.273,0.121,0.040,0.000,61.000,12.000,4.000,0.000,0.000,0.000,0.111,0.273,0.121,0.040,0.000,61.000,12.000,4.000,0.000,0.000,0.000: // measure 0
0000
0000
0000
0000
,  // measure 1
0000
0000
0000
0000
,  // measure 2
1001
0000
0000
0000
,  // measure 3
0000
0000
0000
0000
,  // measure 4
1001
0000
0000
0000
,  // measure 5
0000
0000
0000
0000
,  // measure 6
1000
0000
1000
0000
,  // measure 7
1000
0000
0000
0000
,  // measure 8
0001
0000
0001
0000
,  // measure 9
0001
0000
0000
0000
,  // measure 10
0000
0000
0000
0000
,  // measure 11
0000
1001
0000
0000
,  // measure 12
0000
1001
0000
1001
,  // measure 13
0000
0110
0110
0110
,  // measure 14
0110
0000
0000
0100
,  // measure 15
0000
0000
0000
0100
,  // measure 16
0000
0000
0000
1000
,  // measure 17
0000
0001
0000
0000
,  // measure 18
0000
1000
0000
1000
,  // measure 19
0000
0100
0000
0100
,  // measure 20
0000
0010
0000
0010
,  // measure 21
0000
0001
0000
0001
,  // measure 22
0000
1000
0000
0000
,  // measure 23
0000
0010
0000
0000
,  // measure 24
0000
0100
0000
0000
,  // measure 25
0000
0002
0000
0000
,  // measure 26
0000
0000
0000
0000
,  // measure 27
0003
2000
0000
0000
,  // measure 28
0000
0000
0000
0000
,  // measure 29
3000
0100
0000
0100
,  // measure 30
0000
0100
0000
0100
,  // measure 31
0000
0010
0000
0010
,  // measure 32
0000
0010
0000
0010
,  // measure 33
0000
2002
0000
0000
,  // measure 34
0000
0000
0000
0000
,  // measure 35
3003
1000
0000
0000
,  // measure 36
0000
0100
0000
0000
,  // measure 37
0000
1000
0000
0000
,  // measure 38
0000
0010
0000
0000
,  // measure 39
0000
1000
0000
0000
,  // measure 40
0000
0001
0000
0000
,  // measure 41
0000
1000
0000
0000
,  // measure 42
0000
1000
0000
0000
,  // measure 43
0000
0001
0000
0000
,  // measure 44
0000
0010
0000
0000
,  // measure 45
0000
0001
0000
0000
,  // measure 46
0000
0100
0000
0000
,  // measure 47
0000
0001
0000
0000
,  // measure 48
0000
1000
0000
0000
,  // measure 49
0000
0001
0000
0000
,  // measure 50
0000
0001
0000
0000
,  // measure 51
0000
0010
0000
0000
,  // measure 52
0000
0110
0000
0000
,  // measure 53
0000
1000
0000
0000
,  // measure 54
0000
1001
0000
0000
;

//---------------dance-single - ----------------
#NOTES:
     dance-single:
     :
     Medium:
     7:
     0.334,0.331,0.071,0.050,0.000: // measure 1
0000
0000
0000
0000
,  // measure 2
0000
0000
0000
0000
,  // measure 3
1000
0010
0100
0001
,  // measure 4
0100
0000
0010
0000
1000
0100
0010
0000
,  // measure 5
0100
1000
0001
0100
,  // measure 6
0010
0010
0010
0010
,  // measure 7
0010
0000
1000
0000
0100
0001
0100
0000
,  // measure 8
1000
0000
0010
0000
0100
0001
0010
0000
,  // measure 9
0100
0000
0001
0000
0100
1000
0001
0000
,  // measure 10
0100
0000
1000
0000
0100
0010
1000
0001
,  // measure 11
0020
0000
0031
0000
0001
0000
0100
1000
,  // measure 12
0100
0000
0001
0000
0001
0000
0010
1000
,  // measure 13
0010
0001
0100
0010
,  // measure 14
1000
0100
0100
0100
,  // measure 15
0100
0000
1000
0000
0010
0000
0100
0001
,  // measure 16
1000
0000
0100
0000
0010
0000
0100
1000
,  // measure 17
0001
0000
0100
0000
0010
0000
1000
0001
,  // measure 18
0010
2002
0000
0000
,  // measure 19
3003
0000
1000
0000
0010
0000
0100
0001
,  // measure 20
0010
0000
0100
0000
1000
0000
0001
0100
,  // measure 21
0010
0000
0100
0000
0001
0010
0100
0000
,  // measure 22
1000
0000
0001
0000
0100
0010
0100
0000
,  // measure 23
0001
0000
0010
0000
0100
1000
0001
0000
,  // measure 24
0001
1000
0100
0000
0010
0001
0100
0000
,  // measure 25
0010
1000
0001
0000
0010
0000
0100
0000
,  // measure 26
1000
0002
0000
0000
,  // measure 27
0000
0013
0000
0100
,  // measure 28
0000
1000
0000
0001
,  // measure 29
0000
0100
0000
0010
,  // measure 30
0000
0100
0100
0001
,  // measure 31
0001
0000
0010
0000
0100
0000
1000
0001
,  // measure 32
0100
0000
0010
0000
0100
0000
0001
0010
,  // measure 33
0100
0000
1000
0000
0001
0000
0100
0010
,  // measure 34
0100
0001
0010
0100
,  // measure 35
1000
0001
0100
0010
,  // measure 36
1000
0000
0001
0000
0010
0000
0100
1000
,  // measure 37
0100
0010
0001
0100
,  // measure 38
0100
0000
0010
0000
0100
0000
0001
1000
,  // measure 39
0100
0010
0100
1001
,  // measure 40
1000
0000
0010
0000
0100
0000
0001
0010
,  // measure 41
0100
1000
0010
0100
,  // measure 42
1000
0100
0001
0000
1000
0100
0001
0000
,  // measure 43
0100
0010
0001
0100
,  // measure 44
0010
1001
0000
0010
,  // measure 45
1000
0100
1000
0010
,  // measure 46
0100
0101
0000
0001
,  // measure 47
0010
0000
0100
0000
0010
0000
0001
1000
,  // measure 48
0010
1010
0010
0100
,  // measure 49
0001
0000
0010
0000
0100
1000
0001
0000
,  // measure 50
0100
0110
0010
1000
,  // measure 51
0100
0000
1000
0000
0001
0100
0010
0000
,  // measure 52
0100
1001
0000
0010
,  // measure 53
0000
0100
0000
0001
,  // measure 54
0000
0010
0000
0100
,  // measure 55
0000
2000
0000
3000
;
