#VERSION:0.81;
#TITLE:Luna (DREAM Mode);
#SUBTITLE:;
#ARTIST:Eurobeat Brony;
#TITLETRANSLIT:;
#SUBTITLETRANSLIT:;
#ARTISTTRANSLIT:;
#GENRE:Eurobeat;
#ORIGIN:;
#CREDIT:;
#BANNER:Luna (DREAM Mode).png;
#BACKGROUND:Luna (DREAM Mode)-bg.png;
#PREVIEWVID:;
#JACKET:Luna (DREAM Mode)-jacket.png;
#CDIMAGE:;
#DISCIMAGE:;
#LYRICSPATH:;
#CDTITLE:;
#MUSIC:Luna (DREAM Mode).mp3;
#OFFSET:-0.060;
#SAMPLESTART:49.440;
#SAMPLELENGTH:15.000;
#SELECTABLE:YES;
#BPMS:0.000=145.000;
#STOPS:;
#DELAYS:;
#WARPS:;
#TIMESIGNATURES:0.000=4=4;
#TICKCOUNTS:0.000=4;
#COMBOS:0.000=1;
#SPEEDS:0.000=1.000=0.000=0;
#SCROLLS:0.000=1.000;
#FAKES:;
#LABELS:0.000=Song Start;
#BGCHANGES:;
#KEYSOUNDS:;
#ATTACKS:
;

//---------------dance-single - ----------------
#NOTEDATA:;
#CHARTNAME:;
#STEPSTYPE:dance-single;
#DESCRIPTION:;
#CHARTSTYLE:;
#DIFFICULTY:Hard;
#METER:9;
#RADARVALUES:0.485,0.397,0.593,0.194,0.022,242.000,55.000,18.000,0.000,0.000,0.000,0.000,0.000,0.485,0.397,0.593,0.194,0.022,242.000,55.000,18.000,0.000,0.000,0.000,0.000,0.000;
#CREDIT:;
#NOTES:
// measure 0
1000
0000
1000
0000
0010
0100
0001
1000
,  // measure 1
0100
0000
0100
0000
1010
0000
0010
0001
,  // measure 2
0100
0000
0100
0000
0010
1000
0010
1000
,  // measure 3
0001
0100
1000
0100
0010
1000
0001
0010
,  // measure 4
0100
1000
0000
1010
0000
0101
0000
0011
,  // measure 5
0000
2000
3001
1000
0000
0010
1000
0100
,  // measure 6
0001
0101
0000
1100
0000
1010
0000
0101
,  // measure 7
0000
0002
1003
0001
0000
0010
1000
0100
,  // measure 8
0010
0011
0000
1100
0000
0101
0000
0011
,  // measure 9
0000
0002
1003
0001
0000
0010
0100
1000
,  // measure 10
0001
1000
0010
1000
0000
0010
0100
0001
,  // measure 11
0011
0010
0100
1000
0000
0000
0000
0000
,  // measure 12
1000
0000
0000
0001
0000
0000
1000
0000
0010
0000
1000
0000
0001
0000
0100
0000
,  // measure 13
0010
0000
1010
1000
0000
0001
0000
0010
,  // measure 14
0000
0110
1001
0101
,  // measure 15
0020
0000
1000
1030
0000
0000
0000
0000
,  // measure 16
1001
0000
0001
0100
0000
0100
0010
0001
,  // measure 17
0000
0001
0010
1000
0100
0010
0000
0110
,  // measure 18
0000
1100
0000
0110
0000
0011
0000
0000
,  // measure 19
1001
0000
1000
0010
0000
0010
0100
0001
,  // measure 20
0101
0000
0000
0001
0000
0000
0010
0000
0100
0000
1000
0000
0001
0000
0100
0000
,  // measure 21
0010
0000
1000
1000
0000
1010
0000
0011
,  // measure 22
0000
0002
0203
2300
,  // measure 23
3010
0000
0001
0101
0000
0000
0000
0000
,  // measure 24
1001
0000
1000
0010
0000
0010
0100
0010
,  // measure 25
0110
0000
0000
0000
0100
0001
0000
0011
,  // measure 26
0000
1100
0000
0101
0000
0011
0000
0000
,  // measure 27
0110
0000
0100
1000
0000
1000
0010
0100
,  // measure 28
0102
1000
0010
1003
,  // measure 29
1000
0000
0000
0010
0000
0000
0100
0000
0101
0000
0001
0000
0101
0000
0002
0000
,  // measure 30
0000
1003
0000
2000
0000
3010
0000
0020
,  // measure 31
0000
0100
0000
0031
0000
0000
0001
0010
,  // measure 32
1000
0010
0000
2010
0000
3100
0000
0120
,  // measure 33
0000
1000
0000
1030
0000
0000
1000
0010
,  // measure 34
0001
0010
0000
0110
0000
0011
0000
0002
,  // measure 35
0000
1003
0000
1010
0000
0000
1000
0100
,  // measure 36
0010
0001
0000
1001
0000
1010
0000
0210
,  // measure 37
0000
0000
0301
0000
0000
0010
0000
0000
0100
0000
0010
0000
0001
0000
1000
0000
,  // measure 38
0010
0100
0000
0101
0000
0011
0000
2010
,  // measure 39
0000
0100
3100
0001
0000
0001
1000
0100
,  // measure 40
1000
0010
0000
1010
0000
0101
0000
0012
,  // measure 41
0000
0100
0100
1003
0000
0010
1000
0001
,  // measure 42
0010
0100
0000
0110
0000
1100
0000
0201
,  // measure 43
0000
1000
1000
0310
0000
0000
0010
0001
,  // measure 44
0100
0001
1000
0010
0100
0001
0010
0001
,  // measure 45
1000
0010
0100
0010
1000
0100
0010
0001
,  // measure 46
1001
0000
0000
0000
;

//---------------dance-single - Blank----------------
#NOTEDATA:;
#CHARTNAME:;
#STEPSTYPE:dance-single;
#DESCRIPTION:Blank;
#CHARTSTYLE:;
#DIFFICULTY:Medium;
#METER:8;
#RADARVALUES:0.371,0.397,0.237,0.119,0.000,208.000,22.000,11.000,0.000,0.000,0.000,0.000,0.000,0.371,0.397,0.237,0.119,0.000,208.000,22.000,11.000,0.000,0.000,0.000,0.000,0.000;
#CREDIT:;
#NOTES:
1000
0000
0001
0000
0100
0001
0010
0000
,
0100
0000
0010
0000
1000
0000
1000
0010
,
0001
0000
0100
0000
0001
1000
0100
0000
,
0010
0000
0010
0000
0100
1000
0100
1000
,
0010
0100
0000
0001
0000
0010
0000
0100
,
0000
1000
0100
0001
0000
0000
0010
0000
,
0010
0100
0000
0100
0000
1000
0000
0001
,
0000
0100
0001
0100
0000
0001
0010
0000
,
0110
0000
0000
0100
0000
1000
0000
0020
,
0000
0130
0001
0010
0000
0010
0100
0000
,
1000
0010
0100
0001
0010
0001
0100
0010
,
1000
0100
0010
0001
0000
0000
0000
0000
,
1001
0000
1000
0000
0010
0100
0010
0100
,
0001
0000
0001
0010
0000
0010
0000
0011
,
0000
0001
0100
1000
,
0100
0000
0010
0010
0000
0000
0000
0000
,
0001
1000
0000
0100
0000
0010
0000
0100
,
0000
0000
0000
0000
1000
0010
0000
0011
,
0000
0001
0000
0010
0000
1000
0000
0000
,
1001
0000
0000
0010
0000
0010
0000
0100
,
0010
0000
0010
0000
0100
1000
0010
0100
,
0001
0000
0010
0010
0000
0100
0000
0110
,
0000
1000
0100
0001
,
0100
0000
0010
0010
0000
0000
0000
0000
,
0011
0000
0001
0010
0000
0100
0000
1100
,
0000
0000
0000
0000
0001
0010
0000
1010
,
0000
1000
0000
0010
0000
0001
0000
0000
,
0010
0000
0010
0100
0000
0001
0000
2000
,
0000
0000
0000
0000
,
3001
0000
0001
0000
1000
0100
1000
0200
,
0000
0310
0000
0010
0000
0011
0000
0001
,
0000
2000
0000
3010
0000
0000
1000
0010
,
0100
0000
0000
0002
0000
0013
0000
0010
,
0000
0110
0000
0110
0000
0000
0100
1000
,
0001
0010
0000
1010
0000
1000
0000
0020
,
0000
0031
0000
0101
0000
0000
0001
0100
,
0010
1000
0000
0100
0000
0100
0000
0010
,
0100
0000
0100
0000
1000
0001
1000
0001
,
0100
0001
0000
0011
0000
0010
0000
0210
,
0000
0301
0100
1000
0000
1000
0010
0000
,
0010
0100
0000
0010
0000
1000
0000
0002
,
0000
0013
0100
1000
0000
0010
0100
0001
,
1000
0100
0000
0110
0000
0001
0000
0200
,
0000
0310
0100
1000
0000
0000
0010
1000
,
0001
0100
0000
0010
0000
0010
0000
0110
,
0000
1001
0000
0011
0000
1100
0000
2002
,
3003
0000
0000
0000
;

//---------------dance-single - Blank----------------
#NOTEDATA:;
#CHARTNAME:;
#STEPSTYPE:dance-single;
#DESCRIPTION:Blank;
#CHARTSTYLE:;
#DIFFICULTY:Beginner;
#METER:2;
#RADARVALUES:0.105,0.099,0.097,0.032,0.000,56.000,9.000,3.000,0.000,0.000,0.000,0.000,0.000,0.105,0.099,0.097,0.032,0.000,56.000,9.000,3.000,0.000,0.000,0.000,0.000,0.000;
#CREDIT:N. Muriel;
#NOTES:
1000
0000
0000
0000
,
0010
0000
0000
0000
,
1000
0000
0000
0000
,
0001
0000
0001
0000
,
0100
0000
0000
0000
,
0010
0000
0000
0000
,
1000
0000
0000
0000
,
0001
0000
0000
0000
,
0010
0000
0000
0000
,
0001
0000
0000
0000
,
0100
0000
0000
0000
,
1000
0000
0000
0000
,
0100
0000
0100
0000
,
0010
0000
0000
0000
,
1010
0000
0000
0000
,
0101
0000
0000
0000
,
0001
0000
0000
0000
,
0011
0000
0000
0000
,
0001
0000
0000
0000
,
1100
0000
0000
0000
,
1000
0000
0000
0000
,
0001
0000
0001
0000
,
0001
0000
0000
0000
,
1000
0000
1000
0000
,
1000
0000
0000
0000
,
0010
0000
0010
0000
,
0010
0000
0000
0000
,
0100
0000
0100
0000
,
0100
0000
0000
0000
,
1001
0000
0000
0000
,
1000
0000
0010
0000
,
1000
0000
0000
0000
,
0001
0000
0001
0000
,
0001
0000
0000
0000
,
0001
0000
0010
0000
,
0001
0000
0000
0000
,
1000
0000
1000
0000
,
1000
0000
0000
0000
,
2010
0000
0000
0000
,
0000
0000
0000
3000
,
0012
0000
0000
0000
,
0000
0000
0000
0003
,
2100
0000
0000
0000
,
0000
0000
0000
3000
,
0001
0000
0001
0000
,
0100
0000
0100
0000
,
0101
0000
0000
0000
;

//---------------dance-single - Blank----------------
#NOTEDATA:;
#CHARTNAME:;
#STEPSTYPE:dance-single;
#DESCRIPTION:Blank;
#CHARTSTYLE:;
#DIFFICULTY:Easy;
#METER:5;
#RADARVALUES:0.234,0.198,0.216,0.011,0.000,131.000,20.000,1.000,0.000,0.000,0.000,0.000,0.000,0.234,0.198,0.216,0.011,0.000,131.000,20.000,1.000,0.000,0.000,0.000,0.000,0.000;
#CREDIT:N. Muriel;
#NOTES:
1000
0000
1000
0000
,
0010
0000
0010
0000
,
0100
0000
0100
0000
,
0001
0010
0100
1000
,
0010
0000
1010
0000
,
1000
0000
1100
0000
,
0010
0000
0011
0000
,
0001
0000
0101
0000
,
1000
0000
1001
0000
,
0001
0000
0011
0000
,
0010
0100
1000
0010
,
0100
0001
0200
0000
,
0301
0001
1000
1000
,
0010
1000
0001
0100
,
0001
0000
1000
1000
,
0100
0010
0001
1000
,
0001
0000
0001
0000
,
0100
0001
0010
0100
,
0010
0000
0010
0000
,
0100
1000
0010
0100
,
0001
0000
0001
0000
,
1001
1000
0010
1000
,
0100
0000
0100
0000
,
0110
0010
0001
0010
,
0100
0000
0100
0000
,
1000
0100
0001
0100
,
1000
0010
0001
0010
,
1000
0100
0001
0100
,
0110
0000
0000
0000
,
0010
0001
1000
0010
,
0100
0000
0100
0000
,
0110
0000
1001
0000
,
1000
0010
0100
1000
,
0100
0001
0010
0000
,
0110
0000
1001
0000
,
0110
0000
0010
0000
,
0100
1000
0010
0001
,
0010
1000
0100
0001
,
0100
0000
0110
0000
,
0010
0000
0011
0000
,
0100
0000
0110
0000
,
0010
0000
1010
0000
,
1000
0000
1001
0000
,
0100
0000
0110
0000
,
0010
0001
0100
1000
,
0100
0001
0010
1000
,
0010
0000
0000
0000
;

//---------------dance-double - ----------------
#NOTEDATA:;
#CHARTNAME:;
#STEPSTYPE:dance-double;
#DESCRIPTION:;
#CHARTSTYLE:;
#DIFFICULTY:Easy;
#METER:5;
#RADARVALUES:0.219,0.255,0.000,0.043,0.000,138.000,0.000,4.000,0.000,0.000,0.000,0.000,0.000,0.219,0.255,0.000,0.043,0.000,138.000,0.000,4.000,0.000,0.000,0.000,0.000,0.000;
#CREDIT:;
#NOTES:
00001000
00000000
00010000
00000000
,
00000100
00001000
00000000
00000001
,
00000100
00000000
00000010
00000000
,
00001000
00000100
00010000
00000000
,
00001000
00010000
00001000
00000000
,
01000000
00000000
01000000
00000000
,
01000000
00100000
10000000
00000000
,
00010000
00000000
00010000
00000000
,
00010000
00100000
00001000
00000000
,
00001000
00000000
00001000
00000000
,
00010000
00000010
00010000
00000010
,
00000100
00000001
00002000
00000000
,
00000000
00003000
00000000
00000000
,
00000001
00000100
00001000
00000000
,
00010000
00000000
00010000
00000000
,
00010000
01000000
10000000
00000000
,
10000000
00010000
10000000
00010000
,
00100000
00000000
00001000
00001000
,
00010000
00010000
00000100
00000100
,
00001000
00000010
00010000
00001000
,
00200000
00000000
00000000
00300000
,
10000000
00100000
00010000
00000000
,
00001000
00000000
00001000
00000000
,
00001000
00000010
00000001
00000000
,
00000001
00001000
00000001
00001000
,
00000100
00000000
00010000
00010000
,
00001000
00001000
00100000
00100000
,
00010000
01000000
00001000
00010000
,
00002000
00000000
00000000
00003000
,
00010000
00000000
00000100
00000000
00001000
00000000
00000000
00000010
,
00000000
00000010
00000000
00000100
00000000
00000100
00000000
00000001
,
00000000
00001000
00000000
00000001
00000000
00000000
00000100
00000000
,
00000100
00000010
00000000
00010000
00000000
00010000
00000000
00001000
,
00000000
00001000
00000000
01000000
00000000
00000000
01000000
00000000
,
01000000
00010000
00000000
00100000
00000000
00010000
00000000
00010000
,
00000000
10000000
00000000
10000000
00000000
00000000
00010000
00000000
,
01000000
00000000
00100000
00000000
,
10000000
00010000
01000000
00001000
,
00010000
00001000
00010000
00000000
,
00000010
00000000
00000010
00000000
,
00000010
00000100
00000001
00000000
,
00001000
00000000
00001000
00000000
,
00001000
00000100
00010000
00000000
,
00010000
00000000
00010000
00001000
,
00010000
00001000
00000000
00000100
00000000
00000001
00000000
00000010
,
00000000
00000100
00000000
00001000
00000000
00000001
00000000
00002000
,
00000000
00000000
00000000
00000000
,
00000000
00003000
00000000
00000000
,
00000000
00000000
00000000
00000000
,
00000000
00000000
00000000
00000000
,
00000000
00000000
00000000
00000000
,
00000000
00000000
00000000
00000000
,
00000000
00000000
00000000
00000000
,
00000000
00000000
00000000
00000000
,
00000000
00000000
00000000
00000000
,
00000000
00000000
00000000
00000000
;

//---------------dance-double - ----------------
#NOTEDATA:;
#CHARTNAME:;
#STEPSTYPE:dance-double;
#DESCRIPTION:;
#CHARTSTYLE:;
#DIFFICULTY:Medium;
#METER:8;
#RADARVALUES:0.384,0.456,0.356,0.075,0.000,209.000,33.000,7.000,0.000,0.000,0.000,0.000,0.000,0.384,0.456,0.356,0.075,0.000,209.000,33.000,7.000,0.000,0.000,0.000,0.000,0.000;
#CREDIT:;
#NOTES:
// measure 0
00001000
00000000
00101000
00000000
00100000
01000000
10000000
00000000
,  // measure 1
00010000
01010000
00000000
00010000
,  // measure 2
00010010
00000000
00000100
00000000
00000001
00000010
00000100
00001000
,  // measure 3
00000001
00000000
00000000
00000000
00000000
00000010
00000100
00001000
,  // measure 4
00000010
00000100
00000000
00000001
00000000
00000010
00000000
00001000
,  // measure 5
00000000
00010000
00100000
00010000
00000000
00010000
00001000
00100000
,  // measure 6
01000000
10000000
00000000
00010000
00000000
01000000
00000000
00001000
,  // measure 7
00000000
00000100
00001000
00100000
00000000
01000000
00100000
00010000
,  // measure 8
01000000
00100000
00000000
10000000
00000000
01000000
00000000
00010000
,  // measure 9
00000000
00001000
00000100
00001000
00000000
00001000
00010000
00000100
,  // measure 10
00000010
00000001
00000100
00001000
00000000
00100000
00000000
00001000
,  // measure 11
00000000
00000100
00000001
00000200
00000000
00000000
00000000
00000000
,  // measure 12
00000300
00000000
00000000
00000000
,  // measure 13
00000001
00000100
00000000
00000110
00000000
00000101
00000000
00001100
,  // measure 14
00000000
00000100
00010000
00001000
,  // measure 15
00100000
00000000
01000000
20000000
00000000
00000000
30100000
00000000
,  // measure 16
01000000
00010000
00000000
01100000
00000000
01010000
00000000
00101000
,  // measure 17
00000000
00000000
00000000
00000000
00010000
00000100
00000000
00000011
,  // measure 18
00000000
00001001
00000000
00000110
00000000
00001010
00000000
00000000
,  // measure 19
00001000
00000000
00001000
01000000
00000000
10000000
00000000
00020000
,  // measure 20
00000000
00000000
00030000
00000000
,  // measure 21
10000000
00000000
00010000
00100000
00000000
10100000
00000000
00110000
,  // measure 22
00000000
00100000
00001000
00010000
,  // measure 23
00000100
00000000
00000010
00000002
00000000
00000000
00000103
00000000
,  // measure 24
00000010
00000000
00001000
00000100
00000000
00001010
00000000
00010100
,  // measure 25
00000000
00000000
00000000
00000000
00010000
00000100
00000000
00000011
,  // measure 26
00000000
00001001
00000000
00000110
00000000
00001010
00000000
00000000
,  // measure 27
00001000
00000000
00001000
01000000
00000000
10000000
00000000
00020000
,  // measure 28
00000000
00000000
00030000
00000000
,  // measure 29
01100000
00000000
00000000
00000000
00000000
00000000
00000000
00010000
,  // measure 30
10000000
01000000
00000000
00100000
00001000
01000000
00000000
00001000
,  // measure 31
00010000
00000100
00000010
00000001
00001000
00000000
00001000
00000100
,  // measure 32
00100000
00000000
00100000
00010000
10000000
00000000
10000000
00010000
,  // measure 33
01000000
00010000
00100000
01000000
10000000
00000000
00010000
01000000
,  // measure 34
00010000
00100000
00000000
00001000
00010000
00000100
00000000
00000010
,  // measure 35
00000001
00000100
00000000
00000010
00001000
00000000
00000001
00000100
,  // measure 36
00001000
00010000
00000000
01100000
00000000
10100000
00000000
11000000
,  // measure 37
00000000
00110000
00000000
00011000
00000000
00000010
00000100
00001000
,  // measure 38
00000010
00000100
00000000
00000001
00000000
00000010
00000000
00001000
,  // measure 39
00000000
00010000
00100000
00010000
00000000
00010000
00001000
00100000
,  // measure 40
01000000
10000000
00000000
00010000
00000000
01000000
00000000
00001000
,  // measure 41
00000000
00000100
00001000
00100000
00000000
01000000
00100000
00010000
,  // measure 42
01000000
00100000
00000000
10000000
00000000
01000000
00000000
00010000
,  // measure 43
00000000
00001000
00000100
00001000
00000000
00001000
00010000
00000100
,  // measure 44
00000010
00000001
00000100
00001000
00000000
00101000
00000000
00011000
,  // measure 45
00000000
00010100
00000000
00001100
00000000
00110000
00000000
00022000
,  // measure 46
00000000
00000000
00000000
00000000
,  // measure 47
00033000
00000000
00000000
00000000
;

//---------------dance-double - ----------------
#NOTEDATA:;
#CHARTNAME:;
#STEPSTYPE:dance-double;
#DESCRIPTION:;
#CHARTSTYLE:;
#DIFFICULTY:Hard;
#METER:10;
#RADARVALUES:0.522,0.459,0.291,0.183,0.054,295.000,27.000,17.000,0.000,0.000,0.000,0.000,0.000,0.522,0.459,0.291,0.183,0.054,295.000,27.000,17.000,0.000,0.000,0.000,0.000,0.000;
#CREDIT:;
#NOTES:
00001000
00100000
00010000
01000000
00001000
00000100
00000010
00001000
,
00000100
00001001
00000010
00000011
,
00001100
00000000
00011000
00000000
00010000
01000000
10000000
01000000
,
00010000
00000000
00001000
00010000
00000000
00000100
00010000
00000000
00000100
00000000
00001000
00000000
00000010
00000000
00000100
00000000
,
00000100
00000001
00000100
00001000
00000100
00000010
00010000
00001000
,
00010000
01000000
10000000
00020000
00030000
00010000
01000000
00100000
,
00100000
10000000
00010000
01000000
00001000
00100000
00010000
01000000
,
00001000
00000100
00000001
00002000
00003000
00001000
00000010
00000100
,
00000100
00000001
00000100
00001000
00000100
00000010
00010000
00001000
,
00010000
01000000
10000000
00020000
00030000
00010000
01000000
00100000
,
00100000
10000000
00010000
01000000
00001000
00100000
00010000
02000000
,
03000000
00100000
00001000
00000020
00000000
00000000
00000000
00000000
,
00000030
00000000
00010000
00001000
00000000
00100000
00001000
00000000
00010000
00000100
00001000
00000100
00001000
00000000
00000000
00000000
,
00000001
00000000
00000110
00000000
00000010
00000100
00001000
00000000
,
00000001
00000100
00000010
00000000
00010000
00001000
00100000
00000000
,
00010000
01000000
00100000
00000000
10000000
00010000
01000000
00000000
,
00001000
00010000
01000000
00100000
00010000
00000010
00000001
00000100
,
00000110
00000000
00001000
00000000
00000001
00000100
00000010
00000100
,
00001000
00000100
00000001
00000010
00001000
00010000
01000000
00000000
,
10100000
00000000
01000000
00100000
00000000
00011000
00000000
00202000
,
00000000
00000000
00000000
00303000
,
10000000
00000000
01100000
00000000
01000000
00100000
00010000
00000000
,
10000000
00100000
01000000
00000000
00001000
00010000
00000100
00000000
,
00001000
00000010
00000100
00000000
00000001
00001000
00000010
00000000
,
00010000
00001000
00000010
00000100
00001000
00100000
10000000
01000000
,
01100000
00000000
00010000
00000000
10000000
00100000
01000000
00100000
,
00010000
00100000
10000000
01000000
00010000
00001000
00000010
00000000
,
00000101
00000000
00000010
00000100
00000000
00011000
00000000
00202000
,
00000000
00000000
00000000
00303000
,
00010000
00000000
00001000
00010000
00000000
00000100
00010000
00000000
00001000
00100000
00001000
00100000
00010000
00000000
10000000
00000000
,
00010000
01000000
00010000
00100000
00010000
00001000
00010000
01000000
,
00100000
10000000
00010000
02000000
00000000
03000000
00010000
00000010
,
00010000
00000100
00010000
00001000
00010000
01000000
10000000
00010000
,
00100000
00001000
00010000
00000200
00000000
00000300
00000001
00000100
,
00001000
00000100
00000001
00000010
00000100
00001000
00000001
00000100
,
00001000
00010000
00100000
20000000
00000000
30000000
00010000
01000000
,
00100000
01000000
00000000
01010000
00000000
00110000
00000000
00101000
,
00000000
00001100
00000000
00000011
00000000
00001010
00000010
00000100
,
00000100
00000001
00000100
00001000
00000100
00000010
00010000
00001000
,
00010000
01000000
10000000
00020000
00030000
00010000
01000000
00100000
,
00100000
10000000
00010000
01000000
00001000
00100000
00010000
01000000
,
00001000
00000100
00000001
00002000
00003000
00001000
00000010
00000100
,
00000100
00000001
00000100
00001000
00000100
00000010
00010000
00001000
,
00010000
01000000
10000000
00020000
00030000
00010000
01000000
00001000
,
00010000
00000100
00000000
00011000
00000000
00010100
00000000
00101000
,
00000000
00001100
00000000
00000011
00000000
00001001
00000000
00022000
,
00000000
00000000
00000000
00000000
,
00000000
00033000
00000000
00000000
,
00000000
00000000
00000000
00000000
,
00000000
00000000
00000000
00000000
,
00000000
00000000
00000000
00000000
,
00000000
00000000
00000000
00000000
,
00000000
00000000
00000000
00000000
,
00000000
00000000
00000000
00000000
,
00000000
00000000
00000000
00000000
,
00000000
00000000
00000000
00000000
;

//---------------pump-single - ----------------
#NOTEDATA:;
#CHARTNAME:;
#STEPSTYPE:pump-single;
#DESCRIPTION:;
#CHARTSTYLE:;
#DIFFICULTY:Hard;
#METER:9;
#RADARVALUES:0.404,0.388,0.151,0.108,0.075,238.000,14.000,10.000,0.000,0.000,0.000,0.000,0.000,0.404,0.388,0.151,0.108,0.075,238.000,14.000,10.000,0.000,0.000,0.000,0.000,0.000;
#CREDIT:;
#NOTES:
// measure 0
01001
00000
00110
00000
00010
10000
00100
01000
,  // measure 1
00100
10000
00010
00100
,  // measure 2
00001
00000
00010
00000
00100
01000
00001
00100
,  // measure 3
00020
00000
00000
00000
00000
10030
00100
10000
,  // measure 4
00010
00100
00000
00100
00010
10000
00000
10001
,  // measure 5
00000
00001
00010
00100
00000
00100
01000
00010
,  // measure 6
00001
00010
00000
00100
00000
00001
00000
00010
,  // measure 7
00000
00100
01000
00001
00000
00001
10000
00010
,  // measure 8
00100
00010
00000
01000
00100
01000
00000
00010
,  // measure 9
00000
00100
00001
10000
00000
00100
00010
00100
,  // measure 10
01000
00001
00100
00010
00100
00001
01000
00100
,  // measure 11
00000
00100
10000
00020
00000
00000
00000
00000
,  // measure 12
00130
00000
00001
00000
00000
01000
00000
00000
00010
00000
00100
00000
00001
00000
10000
00000
,  // measure 13
00001
00010
00000
00110
00000
01100
00000
01010
,  // measure 14
00000
00110
00101
10001
,  // measure 15
10100
00000
00100
01000
00000
01000
00100
00000
,  // measure 16
10000
00010
00000
00100
00000
00001
00000
00010
,  // measure 17
00100
00000
01000
00000
00001
10000
00000
00010
,  // measure 18
00000
00100
00000
00010
00000
01000
00000
00000
,  // measure 19
00200
00000
10000
01300
00000
00010
00000
00200
,  // measure 20
00000
00000
00001
00000
00000
00001
00000
00000
00001
00000
00000
00000
00301
00000
00000
00000
,  // measure 21
00010
00000
00001
00000
00000
00000
00001
00000
00100
00000
00000
00010
00000
00000
00100
00000
,  // measure 22
00000
00001
01000
00000
00000
00000
01000
00000
00100
00000
00000
10000
00000
00000
00010
00000
,  // measure 23
00000
00100
00001
00000
00000
00000
01000
00000
00100
00000
00000
00010
00000
00000
00100
00000
,  // measure 24
00000
01000
00000
00001
00000
00000
10000
00000
00010
00000
00000
00000
01000
00000
00001
00000
,  // measure 25
00010
00000
00001
00000
00000
00000
10000
00000
01000
00000
00000
00001
00000
00000
01000
00000
,  // measure 26
10000
00000
00010
00000
00000
00000
01000
00000
00001
00000
00000
00010
00000
00000
10000
00000
,  // measure 27
00010
00000
00000
00001
00000
00000
01000
00000
00100
00000
00000
10000
00000
00000
00010
00000
,  // measure 28
00100
00001
01000
00100
,  // measure 29
20200
00000
00000
00000
00000
00000
30300
00010
,  // measure 30
01000
00100
00000
10000
00000
00010
00000
00100
,  // measure 31
00000
00001
00000
00010
00000
00000
00010
00001
,  // measure 32
01000
00010
00000
00100
00000
00001
00000
10000
,  // measure 33
00000
00100
00000
00010
00000
00000
00010
00100
,  // measure 34
01000
00010
00000
00100
00000
00001
00000
00011
,  // measure 35
00000
01001
00000
00110
00000
00000
00010
00100
,  // measure 36
00001
00000
01000
00100
00000
10000
00000
00020
,  // measure 37
00000
00000
10000
00000
00000
10000
00000
00000
10030
00000
00100
00000
01000
00000
00010
00000
,  // measure 38
00100
00001
00000
00010
00100
01000
00000
00010
,  // measure 39
00000
00100
00001
10000
00000
00100
10000
00010
,  // measure 40
00100
00001
00000
01000
00000
00100
00000
10000
,  // measure 41
00000
00010
00100
00001
00000
00001
00010
00100
,  // measure 42
00010
00001
00000
01000
00010
00100
00000
01000
,  // measure 43
00000
10000
00010
01000
00000
00001
00010
00100
,  // measure 44
01000
00010
00000
00100
00000
00001
00000
02000
,  // measure 45
00000
00100
00000
03010
00000
20000
00000
00002
,  // measure 46
00000
00000
00000
00000
,  // measure 47
00000
00000
00000
00000
,  // measure 48
30003
00000
00000
00000
;
