#TITLE:Love is in Bloom (Remix);
#SUBTITLE:;
#ARTIST:The Aviators;
#TITLETRANSLIT:;
#SUBTITLETRANSLIT:;
#ARTISTTRANSLIT:;
#GENRE:Electro-Pop;
#CREDIT:;
#BANNER:Love is in Bloom (Remix).png;
#BACKGROUND:Love is in Bloom (Remix)-bg.png;
#LYRICSPATH:;
#CDTITLE:;
#MUSIC:Love is in Bloom (Remix).mp3;
#OFFSET:-0.064;
#SAMPLESTART:79.380;
#SAMPLELENGTH:15.000;
#SELECTABLE:YES;
#BPMS:0.000=124.000
;
#STOPS:
;
#BGCHANGES:;
#KEYSOUNDS:;
#ATTACKS:;

//---------------dance-single - ----------------
#NOTES:
     dance-single:
     :
     Hard:
     11:
     0.532,0.538,0.268,0.173,0.252,416.000,34.000,22.000,0.000,0.000,0.000,0.532,0.538,0.268,0.173,0.252,416.000,34.000,22.000,0.000,0.000,0.000:
1000
0000
0000
1000
0000
0000
0010
0000
0000
0010
0000
0000
0000
0000
0000
0000
,
0100
0000
0000
0100
0000
0000
0001
0000
0000
0001
0000
0000
0000
0000
0000
0000
,
0010
0000
0000
0010
0000
0000
0100
0000
0000
0100
0000
0000
0000
0000
0000
0000
,
1000
0000
0000
0001
0000
0000
0100
0000
0000
0010
0100
0000
0001
0000
0010
0000
,
0100
0000
0000
0100
0000
0000
1000
0000
0000
1000
0000
0000
0000
0000
0000
0000
,
0010
0000
0000
0010
0000
0000
0100
0000
0000
0100
0000
0000
0000
0000
0000
0000
,
0001
0000
0000
0001
0000
0000
0010
0000
0000
0010
0000
0000
0000
0000
0000
0000
,
0100
0000
0000
1000
0000
0000
0010
0000
0000
0100
0001
0000
1000
0000
0100
0000
,
0001
0100
0000
0110
0000
0011
0000
1001
,
1000
0000
0000
0010
1000
0000
0100
0000
0000
0000
1000
0000
0010
0100
0001
0000
,
0000
0011
0000
0000
0100
0010
0000
0100
,
0000
1000
0000
0002
0000
0103
0100
0010
,
0000
0000
1010
1000
0000
0001
0000
0010
,
0100
0000
0000
0100
0000
0000
1000
0000
0001
0000
1000
0000
0100
0000
0001
0000
,
0000
0100
0010
0001
0000
1000
0000
1010
,
0000
0000
1001
0000
0000
0000
0101
0000
0000
0000
0001
0000
0001
0000
1000
0010
,
0200
0000
0301
0100
0020
0000
1030
0100
,
0001
0000
0200
0000
0000
0000
0000
0000
0310
0000
0000
0000
0110
0000
0100
1000
,
0001
0100
0001
0010
0000
0100
0010
0100
,
0000
0000
0110
0000
0000
0000
1001
0000
0000
0000
1000
0000
0100
0000
0010
0100
,
2000
0000
3010
0010
0200
0000
0310
0001
,
2000
0000
0000
0000
0001
0000
0000
0000
3001
0000
0000
0000
0110
0000
0010
1000
,
0100
1000
0001
0100
0000
0001
0010
0001
,
0000
0000
0100
0000
0010
0000
0100
0000
0000
0000
0010
0000
1000
0000
0100
0010
,
0001
0000
0000
0100
0000
0000
0001
0000
1000
0000
0100
0000
1000
0000
0000
0000
,
0010
0000
0000
0010
0000
0000
0100
0000
0010
0000
1000
0000
0100
0000
1000
0100
,
0010
0000
0000
0001
0000
0000
0100
0000
0010
1000
0000
0000
0100
0000
0000
0000
,
0020
0000
0000
0031
0000
0000
1000
0000
0001
0000
0100
0000
0001
0000
0010
0100
,
1000
0000
0000
1010
0000
0000
1000
0000
0100
0000
0001
0000
0100
0000
0000
0000
,
0010
0000
0000
0011
0000
0000
0001
0000
0100
0000
1000
0000
0100
0000
0010
0100
,
0001
0000
0000
1000
0000
0000
0100
0000
1000
0010
0000
0000
0110
0000
0000
0000
,
0010
0000
0000
0100
0000
0000
0010
0000
1000
0000
0100
0000
0010
0000
0010
0100
,
0001
0001
0000
0100
0000
1100
0000
1010
,
0010
0000
0000
0010
0000
0000
0100
0000
0000
0000
0001
0000
1000
0000
0100
0000
,
0010
0001
0010
0002
0000
0103
0000
0010
,
1000
0000
0100
0010
0000
0000
0010
0000
0110
0000
0100
0000
1000
0000
0001
0000
,
0100
0001
0010
0011
0000
0110
0000
0000
,
0100
1000
0010
0200
0000
1300
0000
0000
,
1000
0100
0001
0010
0100
1000
0010
0100
,
0001
0000
1000
0000
0001
0000
2000
0000
0000
0000
3010
0000
1000
0000
0100
0010
,
0200
0000
0000
0000
,
0310
0000
0001
0010
0011
0000
0010
0100
,
1000
0010
0000
0100
2000
0000
3200
0000
,
0301
1000
0100
0001
0100
1000
1000
0010
,
0100
0000
0001
0000
0100
0000
0010
0000
1000
0000
0100
0000
0010
0000
0100
1000
,
0001
0000
0100
0001
0101
0000
0001
0010
,
0011
0110
2000
3020
,
0130
0010
1000
0010
0100
0001
0010
0100
,
0000
0000
0110
0000
0000
0000
1001
0000
0000
0000
1000
0000
0100
0000
0010
0100
,
0010
0000
1000
0010
1010
0000
0100
0010
,
0001
0000
1000
0000
0000
0000
0010
0000
1000
0000
0100
0000
1000
0000
0001
0100
,
0001
0010
0100
0010
0000
0100
1000
0001
,
0000
0000
0100
0000
0001
0000
0101
0000
0000
0000
0001
0000
0100
0000
0010
1000
,
0100
0000
1000
0100
0110
0000
0010
0001
,
0100
0000
0001
0000
1000
0000
0000
0000
1100
0000
0000
0000
1100
0000
1000
0100
,
0010
0100
0010
0001
0000
0100
0010
1000
,
0000
0001
1000
0001
0000
1000
0010
0100
,
0001
0010
0001
0000
1000
0001
1000
0000
0010
1000
0010
0000
1000
0100
1000
0000
,
0100
0010
0100
0000
0010
0100
0010
0000
0100
1000
0100
0000
1000
0001
1000
0001
,
0200
0000
0000
0000
0320
0000
1030
0001
,
0100
0001
0100
0000
0001
0010
0001
0000
0100
1000
0100
0000
1000
0010
1000
0001
,
0200
0000
0001
0302
1000
0000
1003
0010
,
1000
1100
0020
0130
,
1000
0100
0010
0001
1000
0000
0000
0000
0001
0100
0010
1000
0001
0000
0000
0000
,
2000
3010
0100
0000
0101
0000
0001
0010
,
0110
0000
0000
0000
;

//---------------dance-single - ----------------
#NOTES:
     dance-single:
     :
     Medium:
     7:
     0.360,0.384,0.189,0.134,0.004,279.000,24.000,17.000,0.000,0.000,0.000,0.360,0.384,0.189,0.134,0.004,279.000,24.000,17.000,0.000,0.000,0.000:
1000
0000
0000
0010
0000
0000
0000
0000
,
0010
0000
0000
0100
0000
0000
0000
0000
,
0001
0000
0000
0010
0000
0000
0000
0000
,
0010
0000
0000
0100
0000
0000
1000
0000
0000
0000
0000
0000
1001
0000
0000
0000
,
0001
0000
0000
0010
0000
0000
0000
0000
,
0010
0000
0000
0100
0000
0000
0000
0000
,
1000
0000
0000
0010
0000
0000
0000
0000
,
0010
0000
0000
0100
0000
0000
0010
0000
,
0100
0001
1000
0100
,
0010
0010
0010
0000
,
0100
1000
0001
0100
,
0010
0000
0010
0000
0010
0000
1000
0010
,
0000
0000
0100
0001
0000
0010
0000
0001
,
0000
0000
0000
0000
0000
0000
0010
0100
,
0000
0000
0100
0001
0000
0010
0000
0100
,
0000
1000
0000
0001
0000
1000
0010
0000
,
0200
0000
0302
0000
,
0023
0000
0100
0000
0100
0000
0130
1000
,
0010
0100
0001
0010
0000
0100
0000
0110
,
0000
0011
0000
1100
0000
1000
0010
0000
,
0200
0000
2300
0000
,
3020
0000
0100
0000
0100
0000
0130
0010
,
0001
1000
0001
1000
0000
1010
0000
0101
,
0000
0011
0000
1100
0000
0000
1000
0001
,
1000
0000
0000
0001
0010
0100
1000
0000
,
0001
0000
0000
1000
0010
0100
0001
0000
,
0010
0000
0000
0100
1000
0001
0010
0000
,
0100
0100
0010
0110
,
1000
0000
0000
0001
0100
0010
1000
0000
,
0001
0000
0000
1000
0010
0100
0001
0000
,
0010
0000
0000
0100
1000
0010
0001
0000
,
0010
0010
0010
0110
,
0100
0000
0000
0001
0000
0000
0000
0000
,
0001
0000
0000
0010
0000
0000
0000
0000
,
0010
0100
0010
0100
0000
1000
0000
0000
,
0001
0100
0001
0100
0000
0000
0000
0000
,
0000
1000
0010
0100
0000
0001
0000
0000
,
1000
0100
0010
0200
0000
0310
0000
0000
,
0000
0010
0100
2000
0000
3001
0000
0000
,
0010
0010
1000
0001
0000
0101
0000
0000
,
0200
0000
0000
0000
,
0310
1010
1001
0001
,
0101
0000
0001
0010
0100
0000
1000
0010
,
1000
0010
0100
0001
0000
0011
0000
1100
,
0000
1010
0000
0101
0000
0001
1000
0000
,
0010
0110
0101
0100
,
0001
0000
1000
0001
1000
0000
0001
0000
,
1000
0001
0010
0001
0000
1000
0000
0010
,
0000
1000
0000
0100
0000
0000
0010
0100
,
1000
0000
0001
0001
0100
0000
0010
0000
,
1000
0000
0001
0001
0010
0000
0100
0000
,
1000
0010
1000
0010
0000
0100
0000
0010
,
0000
0100
0000
1000
0000
0000
0100
0001
,
0010
0000
0100
0100
1000
0000
0010
0010
,
0100
0000
0001
0001
1000
0001
1000
0001
,
0010
0100
1000
0010
0000
1000
0000
0001
,
0000
1000
0000
1100
0000
0000
0100
0010
,
0001
0010
0001
0000
0001
0100
0010
1000
,
0100
1000
0100
0000
0100
1000
0010
0100
,
0002
0000
1000
0000
2003
0000
0010
3010
,
1010
1000
0100
0010
,
0002
0000
0000
2003
0000
0000
3010
1000
,
0100
0010
0000
0000
0200
0000
0320
0000
,
0031
0100
1000
0100
0001
0010
0100
1000
,
0010
1000
0100
0000
0110
0000
2002
0000
,
3003
0000
0000
0000
;

//---------------dance-single - Bleh----------------
#NOTES:
     dance-single:
     Bleh:
     Easy:
     4:
     0.190,0.205,0.213,0.095,0.000,130.000,27.000,12.000,0.000,0.000,0.000,0.190,0.205,0.213,0.095,0.000,130.000,27.000,12.000,0.000,0.000,0.000:
1010
0000
0000
0000
,
0011
0000
0000
0000
,
0101
0000
0000
0000
,
1100
0000
0000
0000
,
1000
0000
0000
0000
,
0110
0000
0000
0000
,
0002
0000
0000
0000
,
0100
0000
0100
0000
,
1003
0100
0000
0000
,
0001
0010
0000
0000
,
1000
0000
1000
0000
,
0001
0000
0001
0000
,
0100
0000
0010
0000
,
1000
0000
0001
0000
,
0101
0000
0000
0000
,
1010
0000
0000
0000
,
1000
0000
0100
0000
,
1000
0000
0010
0000
,
0100
0000
0001
0000
,
0010
0010
0010
0010
,
1000
0000
0100
0000
,
1000
0000
0001
0000
,
0010
0000
0001
0000
,
0101
0000
1010
0000
,
2000
3000
0200
0300
,
0020
0030
0002
0003
,
0200
0300
0020
0030
,
2000
3000
0002
0003
,
1000
0000
0100
1000
,
0100
0000
0010
0001
,
0011
0000
1100
0000
,
0110
0000
1001
0000
,
0001
0000
0000
0000
,
0100
0000
0000
0000
,
0010
0000
0000
0000
,
1000
0000
0000
0000
,
0100
0000
1000
0001
,
0010
0000
0001
1000
,
0100
0000
1000
0100
,
0001
0000
0100
1000
,
0010
0000
0000
0000
,
0100
0000
0001
1000
,
0000
0100
0010
1000
,
0000
0001
0010
0100
,
1000
0000
1100
0000
,
1000
0000
0100
0000
,
0010
0010
0010
0001
,
0100
0000
1000
0000
,
0001
0001
0001
0001
,
1000
0000
0100
0000
,
1010
0000
0000
0110
,
0000
1001
0000
0101
,
0010
0101
0000
1100
,
0000
0011
0000
0000
,
1100
0000
0000
0000
,
0110
0000
1001
0000
,
0101
0000
1010
1000
,
1000
0000
0000
0100
,
0010
0000
0000
0001
,
0010
0000
0000
0001
,
0100
0000
0010
0000
,
1000
0000
0100
0000
,
0010
0000
0002
0003
,
0200
0000
0000
0000
,
0020
0000
0000
0330
,
0110
0000
0000
0000
;

//---------------dance-single - Blank----------------
#NOTES:
     dance-single:
     :
     Beginner:
     3:
     0.119,0.154,0.213,0.032,0.000,75.000,27.000,4.000,0.000,0.000,0.000,0.119,0.154,0.213,0.032,0.000,75.000,27.000,4.000,0.000,0.000,0.000: // measure 0
0000
0000
0000
0000
,  // measure 1
0000
0000
0000
0000
,  // measure 2
0000
0000
0000
0000
,  // measure 3
0000
0000
0000
0000
,  // measure 4
2000
0000
0000
0000
,  // measure 5
0000
0000
0000
0000
,  // measure 6
3002
0000
0000
0000
,  // measure 7
0000
0000
0000
0000
,  // measure 8
1003
0000
0000
0000
,  // measure 9
1000
0000
0000
0000
,  // measure 10
0001
0000
0000
0000
,  // measure 11
0001
0000
0000
0000
,  // measure 12
0010
0000
0000
0000
,  // measure 13
0010
0000
0000
0000
,  // measure 14
0100
0000
0000
0000
,  // measure 15
0100
0000
0000
0000
,  // measure 16
0110
0000
0000
0000
,  // measure 17
1001
0000
0000
0000
,  // measure 18
0011
0000
0000
0000
,  // measure 19
1100
0000
0000
0000
,  // measure 20
0110
0000
0000
0000
,  // measure 21
1001
0000
0000
0000
,  // measure 22
1010
0000
0000
0000
,  // measure 23
0101
0000
0000
0000
,  // measure 24
0001
0000
0001
0000
,  // measure 25
0001
0000
0000
0000
,  // measure 26
1000
0000
1000
0000
,  // measure 27
1000
0000
0000
0000
,  // measure 28
1010
0000
0010
0000
,  // measure 29
0010
0000
0000
0000
,  // measure 30
0100
0000
0100
0000
,  // measure 31
0100
0000
0000
0000
,  // measure 32
0001
0000
0001
0000
,  // measure 33
1000
0000
0000
0000
,  // measure 34
1000
0000
1000
0000
,  // measure 35
0010
0000
0000
0000
,  // measure 36
0010
0000
0010
0000
,  // measure 37
0100
0000
0000
0000
,  // measure 38
0100
0000
0100
0000
,  // measure 39
0001
0000
0000
0000
,  // measure 40
2002
0000
0000
3003
,  // measure 41
1001
0000
0000
0000
,  // measure 42
0110
0000
0000
0000
,  // measure 43
1100
0000
0000
0000
,  // measure 44
0011
0000
0000
0000
,  // measure 45
1001
0000
0000
0000
,  // measure 46
0110
0000
0000
0000
,  // measure 47
0101
0000
0000
0000
,  // measure 48
1010
0000
0000
0000
,  // measure 49
1001
0000
0000
0000
,  // measure 50
0110
0000
0000
0000
,  // measure 51
0011
0000
0000
0000
,  // measure 52
1010
0000
0000
0000
,  // measure 53
1001
0000
0000
0000
,  // measure 54
0110
0000
0000
0000
,  // measure 55
1100
0000
0000
0000
,  // measure 56
0101
0000
0000
0000
,  // measure 57
0001
0000
0010
0000
,  // measure 58
0100
0000
1000
0000
,  // measure 59
0100
0000
0010
0000
,  // measure 60
0001
0000
0000
0000
,  // measure 61
1000
0000
0010
0000
,  // measure 62
0100
0000
0001
0000
,  // measure 63
0100
0000
0010
0000
,  // measure 64
1000
0000
0001
0000
,  // measure 65
1001
0000
0000
0000
;
