#VERSION:0.81;
#TITLE:Love Bloom;
#SUBTITLE:;
#ARTIST:Foozogz;
#TITLETRANSLIT:;
#SUBTITLETRANSLIT:;
#ARTISTTRANSLIT:;
#GENRE:Happy Hardcore;
#ORIGIN:;
#CREDIT:;
#BANNER:Love Bloom.png;
#BACKGROUND:Love Bloom-bg.png;
#PREVIEWVID:;
#JACKET:Love Bloom-jacket.png;
#CDIMAGE:;
#DISCIMAGE:;
#LYRICSPATH:;
#CDTITLE:;
#MUSIC:Love Bloom.mp3;
#OFFSET:-7.206;
#SAMPLESTART:25.590;
#SAMPLELENGTH:15.000;
#SELECTABLE:YES;
#BPMS:0.000=170.020;
#STOPS:;
#DELAYS:;
#WARPS:;
#TIMESIGNATURES:0.000=4=4;
#TICKCOUNTS:0.000=4;
#COMBOS:0.000=1;
#SPEEDS:0.000=1.000=0.000=0;
#SCROLLS:0.000=1.000;
#FAKES:;
#LABELS:0.000=Song Start;
#BGCHANGES:;
#KEYSOUNDS:;
#ATTACKS:
;

//---------------dance-single - ----------------
#NOTEDATA:;
#CHARTNAME:;
#STEPSTYPE:dance-single;
#DESCRIPTION:;
#CHARTSTYLE:;
#DIFFICULTY:Easy;
#METER:6;
#RADARVALUES:0.284,0.242,0.019,0.086,0.000,198.000,2.000,9.000,0.000,0.000,0.000,0.000,0.000,0.284,0.242,0.019,0.086,0.000,198.000,2.000,9.000,0.000,0.000,0.000,0.000,0.000;
#CREDIT:;
#NOTES:
2000
0000
0000
0000
,
3020
0000
0000
0000
,
0230
0000
0000
0000
,
0302
0000
0000
0000
,
1003
0100
0000
0100
,
1000
0010
0000
0010
,
0100
0001
0000
0001
,
0010
0100
0000
0100
,
0010
0001
0010
0001
,
1000
0100
1000
0100
,
0010
0001
0100
1000
,
0020
0000
0000
0030
,
2002
0000
0000
0000
,
3003
0000
0000
0000
,
1000
0100
1000
0010
,
0100
0010
0001
0010
,
0100
1000
0010
0100
,
0001
0010
0100
0010
,
1000
0100
1000
0000
,
0001
0010
0001
0000
,
0001
0100
0001
0000
,
1000
0010
0001
0100
,
0001
0010
0100
1000
,
0001
0100
0010
1000
,
0010
1000
0100
0001
,
0010
0001
0100
1000
,
0010
0100
0001
1000
,
0100
0010
0100
1000
,
0001
0100
0010
1000
,
0001
0010
1000
0100
,
0001
0100
0001
0100
,
0010
1000
0010
1000
,
0010
0100
0010
0100
,
0001
1000
0001
1000
,
0001
0010
0100
0010
,
0001
1000
0010
0100
,
0010
1000
0100
0010
,
0001
1000
0010
0100
,
0001
0000
1000
0000
,
0001
1000
0001
1000
,
0001
0001
0010
0010
,
0100
1000
0010
0100
,
0001
0000
0010
0000
,
0100
0100
1000
1000
,
0010
0100
0001
0100
,
0010
1000
0001
0010
,
0100
0000
0010
0000
,
0001
0000
0100
0000
,
0010
0000
1000
0000
,
0100
0000
0100
0000
,
1000
0100
1000
0000
,
0001
0000
0010
0000
,
0100
0000
0010
0000
,
0001
0000
0001
0000
,
0100
0010
0100
0010
,
1000
0001
1000
0001
,
1000
0100
0010
0001
,
1000
0010
0100
0100
,
0010
1000
0010
0000
,
0100
0001
0100
0000
,
0001
0010
0001
0010
,
0100
0000
1000
0001
,
2002
0000
0000
0000
,
0000
0000
3003
0000
;

//---------------dance-single - ----------------
#NOTEDATA:;
#CHARTNAME:;
#STEPSTYPE:dance-single;
#DESCRIPTION:;
#CHARTSTYLE:;
#DIFFICULTY:Medium;
#METER:9;
#RADARVALUES:0.398,0.363,0.038,0.029,0.000,286.000,4.000,3.000,0.000,0.000,0.000,0.000,0.000,0.398,0.363,0.038,0.029,0.000,286.000,4.000,3.000,0.000,0.000,0.000,0.000,0.000;
#CREDIT:;
#NOTES:
1000
0000
0010
0000
,
0100
0000
0001
0000
,
0010
0000
0100
0000
,
1000
0000
0001
0000
,
0100
0000
0010
0000
0000
0010
1000
0000
,
0100
0000
1000
0000
0000
1000
0100
0000
,
0010
0000
0001
0000
0000
0001
0100
0000
,
0010
0000
1000
0100
0000
1000
0001
0000
,
0100
0000
0010
0000
0000
0010
1000
0000
,
0100
0000
1000
0000
0000
1000
0001
0000
,
0100
0000
0010
0000
0000
1000
0001
0000
,
0010
0000
0100
1000
0000
1000
0001
0000
,
2002
0000
0000
0000
,
0000
0000
3003
0000
,
1000
0000
0010
0100
0000
0100
0010
0000
,
1000
0000
0001
1000
0000
1000
0001
0000
,
0010
0000
0100
1000
0000
1000
0001
0000
,
0100
0000
0010
1000
0000
1000
0010
0000
,
0100
0000
0001
0010
0000
0010
0001
0000
,
0100
0000
0010
1000
0000
1000
0100
0000
,
0010
0000
0001
0100
0000
0100
0010
0000
,
1000
0001
0000
0010
0000
0100
0000
1000
,
0001
0000
0100
0001
0000
0001
0100
0000
,
0010
0000
1000
0100
0000
0100
1000
0000
,
0001
0000
0100
0010
0000
0010
0100
0000
,
0001
0000
0010
0100
0000
0100
1000
0000
,
0010
0000
0100
0001
0000
0001
0100
0000
,
0010
0000
1000
0001
0000
0001
0010
0000
,
0100
0000
1000
0001
0000
0001
0100
0000
,
0010
0000
1000
0100
0000
1000
0001
0000
,
0100
0000
0010
0000
1000
0100
1000
0000
,
0001
0000
0100
0000
0010
1000
0001
0000
,
0010
0000
0100
0000
1000
0010
0100
0000
,
0010
0000
1000
0100
0000
1000
0000
0001
,
0100
0000
0010
0000
1000
0001
0010
0000
,
0100
0000
0010
0000
0001
0100
0010
0000
,
1000
0000
0001
0000
0010
0100
1000
0000
,
0001
0100
0010
1000
,
0001
0000
0010
0001
0000
0001
0100
0000
,
0010
0000
1000
0100
0000
0100
1000
0000
,
0010
0000
0100
0001
0000
0001
0100
0000
,
0010
0000
1000
0100
0000
1000
0000
0001
,
0100
0000
0010
1000
0000
1000
0001
0000
,
0010
0000
0100
1000
0000
1000
0100
0000
,
0010
0000
0001
0100
0000
0100
0010
0000
,
1000
0100
0000
1000
0000
0001
0100
0000
,
0010
0000
1010
0000
0000
1000
0001
0000
,
0100
0000
0110
0000
0000
0010
1000
0000
,
0100
0000
1100
0000
1000
0100
0010
0001
,
0100
0010
0000
0000
0010
1000
0000
0100
,
1000
0001
0100
0010
,
1000
0000
0001
0000
0010
0100
0010
0000
,
0001
0000
0100
0000
0010
1000
0001
0000
,
0010
0100
1000
0001
,
0100
0010
0100
0010
0100
0000
0010
0000
,
1000
0100
1000
0100
1000
0000
0100
0000
,
0010
0001
0010
0000
0100
1000
0100
0000
,
1000
0010
0000
0000
0100
0000
0001
0000
,
0010
0001
0010
0001
0010
0000
0100
0000
,
1000
0010
1000
0010
1000
0000
0001
0000
,
0100
0010
0100
0000
0001
1000
0001
0000
,
1000
0010
0000
0000
0100
0100
0001
0001
,
2000
0000
0000
0000
,
0000
0000
3000
0000
;

//---------------dance-single - ----------------
#NOTEDATA:;
#CHARTNAME:;
#STEPSTYPE:dance-single;
#DESCRIPTION:;
#CHARTSTYLE:;
#DIFFICULTY:Beginner;
#METER:3;
#RADARVALUES:0.150,0.148,0.010,0.029,0.000,106.000,1.000,3.000,0.000,0.000,0.000,0.000,0.000,0.150,0.148,0.010,0.029,0.000,106.000,1.000,3.000,0.000,0.000,0.000,0.000,0.000;
#CREDIT:;
#NOTES:
1000
0000
0000
0000
,
0010
0000
0000
0000
,
0100
0000
0000
0000
,
0001
0000
0000
0000
,
0000
0010
0000
0010
,
0000
0100
0000
0100
,
0000
0001
0000
0001
,
0000
1000
0000
1000
,
0000
0010
0000
0010
,
0000
0100
0000
0100
,
0000
0001
0000
0001
,
0000
1000
1000
1000
,
2000
0000
0000
0000
,
3000
0000
0000
0000
,
0000
1000
0000
1000
,
0000
0001
0000
0001
,
0000
0100
0000
0100
,
0000
0010
0000
0010
,
0000
1000
0000
0001
,
0000
1000
0000
0001
,
0000
0100
0000
0010
,
0000
0100
0000
0010
,
0000
1000
0000
0100
,
0000
0010
0000
0001
,
0000
0001
0000
0010
,
0000
0100
0000
1000
,
0000
0010
0000
1000
,
0000
0100
0000
0010
,
0000
0001
0000
0100
,
0000
0010
0000
1000
,
1000
0000
0000
0000
,
0010
0000
0010
0000
,
0100
0000
0100
0000
,
0001
0000
0000
0000
,
0010
0000
0000
0000
,
0001
0000
0001
0000
,
0100
0000
0100
0000
,
0020
0000
0030
0000
,
0010
0000
0000
0000
,
1000
0000
1000
0000
,
0100
0000
0100
0000
,
0010
0000
0000
0000
,
0001
0000
0000
0000
,
0010
0000
0010
0000
,
0100
0000
0100
0000
,
2000
0000
3000
0000
,
0000
1000
0000
0000
,
0000
1000
0000
0000
,
0000
0001
0000
0000
,
0000
0001
0001
0001
,
0000
0001
0000
0000
,
0000
0100
0000
0000
,
0000
0010
0000
0000
,
0000
1000
1000
1000
,
1000
0000
1000
0000
,
1000
0000
0000
0000
,
0001
0000
0001
0000
,
0001
0001
0000
0000
,
0100
0000
0100
0000
,
0010
0000
0010
0000
,
1000
0000
1000
0000
,
0001
0000
1000
0000
,
1001
0000
0000
0000
;

//---------------dance-single - ----------------
#NOTEDATA:;
#CHARTNAME:;
#STEPSTYPE:dance-single;
#DESCRIPTION:;
#CHARTSTYLE:;
#DIFFICULTY:Challenge;
#METER:16;
#RADARVALUES:0.717,0.761,0.466,0.162,0.452,461.000,49.000,17.000,0.000,0.000,0.000,0.000,0.000,0.717,0.761,0.466,0.162,0.452,461.000,49.000,17.000,0.000,0.000,0.000,0.000,0.000;
#CREDIT:;
#NOTES:
// measure 0
0000
0000
0010
0000
0000
1000
0000
0000
0010
0000
0000
0100
0000
0000
0110
0000
,  // measure 1
0000
0000
0100
0000
0000
0001
0000
0000
0010
0000
0000
0001
0000
0000
0101
0000
,  // measure 2
0000
0000
0100
0000
0000
0010
0000
0000
1000
0000
0000
0010
0000
0000
0110
0000
,  // measure 3
0200
0000
0302
0023
,  // measure 4
0130
0000
1000
0000
0001
0000
1000
0100
1000
0100
1000
0000
0001
0000
0100
0000
,  // measure 5
0010
0000
1000
0000
0100
0000
0010
0100
0010
0100
0010
0000
0100
0000
1000
0000
,  // measure 6
0001
0000
0100
0000
1000
0000
0001
0010
0001
0010
0001
0000
0010
0000
0100
0000
,  // measure 7
0001
0000
1000
0000
0100
0000
1000
0010
1000
0010
1000
0000
0100
0000
0010
0000
,  // measure 8
0001
0000
1000
0000
0100
0000
1000
0010
1000
0010
0100
0000
0001
0000
0010
0000
,  // measure 9
0100
0000
1000
0000
0010
0000
0100
0001
0100
0001
0010
0000
0100
0000
0001
0000
,  // measure 10
0100
0000
1000
0000
0010
0000
1000
0010
1000
0010
0100
0000
0010
0000
1000
0000
,  // measure 11
0100
0000
0100
0000
0010
0000
0010
0000
0001
0010
0100
0010
0001
1000
0010
0100
,  // measure 12
0002
0000
0000
0000
,  // measure 13
0000
1000
0000
0000
0000
0010
0000
0000
0000
0100
0000
0000
0000
1000
0003
0000
,  // measure 14
1001
0000
0000
1000
0000
0000
0010
0000
0000
1000
0000
0000
0100
0000
0000
0000
,  // measure 15
0010
0000
0000
0001
0000
0000
0100
0000
0000
0000
0101
0000
0100
0010
0100
0010
,  // measure 16
1000
0000
0000
0001
0000
0000
0010
0000
0000
0100
0000
0000
0001
0000
0000
0000
,  // measure 17
0101
0000
0000
0100
0000
0000
1000
0000
0000
0010
0000
0000
1000
0000
0100
0000
,  // measure 18
0010
0000
0000
0100
0000
0000
1000
0000
0000
0010
0000
0000
1010
0000
0000
0000
,  // measure 19
1000
0000
0000
0001
0000
0000
1000
0000
0000
0000
0101
0000
0001
0010
0001
0010
,  // measure 20
0100
0000
0000
1000
0000
0000
0010
0000
0000
0100
0000
0000
0001
0000
0000
0000
,  // measure 21
0010
0000
0110
0000
0000
0000
1001
0000
0000
0000
0011
0000
0010
0100
0010
0100
,  // measure 22
1000
0000
0000
0010
0000
0000
1000
0000
0000
0100
0000
0000
0110
0000
0000
0000
,  // measure 23
0010
0000
0000
0001
0000
0000
0100
0000
0000
0000
0010
0000
1000
0100
1000
0100
,  // measure 24
0010
0000
0000
0001
0000
0000
1000
0000
0000
0010
0000
0000
0100
0000
0000
0000
,  // measure 25
0001
0000
0000
0100
0000
0000
0001
0000
0000
0000
1000
0000
0100
0000
0010
0000
,  // measure 26
0100
0000
0000
1000
0000
0000
0010
0000
0000
0100
0000
0000
0110
0000
0000
0000
,  // measure 27
0100
0000
0000
0001
0000
0000
0010
0000
0000
0000
0100
0000
1000
0001
1000
0001
,  // measure 28
0100
0000
0000
0010
0000
0000
0001
0000
0000
1000
0000
0000
0100
0000
0000
0000
,  // measure 29
0010
0000
0110
0000
0000
0000
1001
0000
0000
0000
0011
0000
0010
0100
0010
0100
,  // measure 30
1000
0001
0100
0001
1000
0020
0100
0001
,  // measure 31
0130
0010
1000
0100
0001
0200
1000
0301
,  // measure 32
0001
0100
1000
0010
0100
0020
1000
0100
,  // measure 33
1030
0010
1010
1001
0000
0011
0000
0110
,  // measure 34
0100
1000
0010
0100
0001
0020
0100
1000
,  // measure 35
0130
0010
0001
1001
0000
1010
0000
0101
,  // measure 36
0000
0011
0000
1100
0000
1000
0001
0000
,  // measure 37
0010
0000
0110
0000
0000
0000
1001
0000
0000
0000
1010
0000
1000
0010
1000
0010
,  // measure 38
0100
0001
0010
0100
0010
0002
1000
0100
,  // measure 39
1003
0001
0010
0100
1000
0020
0100
0001
,  // measure 40
0130
0010
1000
0100
0010
0002
0100
0013
,  // measure 41
0001
1000
0010
0100
0001
2000
0010
0001
,  // measure 42
3100
1000
0001
0010
0001
0200
0010
1300
,  // measure 43
0100
0001
0010
0110
0000
0011
0000
1100
,  // measure 44
0000
1001
0000
0101
0000
0001
0011
0000
,  // measure 45
0210
0000
0000
1000
0000
0000
0301
0100
,  // measure 46
1000
0000
1010
0000
1000
0010
1000
0000
,  // measure 47
0001
0000
0011
0000
0001
0100
0001
0000
,  // measure 48
1000
0000
0000
0000
1010
0000
0000
0000
1000
0000
0001
0000
1000
0001
0010
0000
,  // measure 49
0100
0110
1001
0000
0001
0001
0010
0200
,  // measure 50
0301
0000
0001
0000
0100
0000
1000
0000
0010
1000
0010
0000
1000
0000
0100
0000
,  // measure 51
0010
0000
0010
0000
0100
0000
1000
0000
0001
0100
0001
0000
0010
0000
0100
0000
,  // measure 52
1000
0000
0000
0000
1001
0000
0000
0000
0001
0000
1000
0000
0001
1000
0010
0000
,  // measure 53
0100
0110
1001
0000
0001
0001
0010
0100
,  // measure 54
1000
0010
0100
0001
1000
0100
0010
0000
0001
0000
0001
0000
1000
0000
0100
0000
,  // measure 55
0010
0001
0100
0001
1000
0100
1000
0000
0010
0000
1000
0000
0100
0000
0001
0000
,  // measure 56
0100
0010
0100
0010
0001
0010
0100
0000
1000
0010
1000
0010
1000
0100
0010
0000
,  // measure 57
0001
1001
0110
0000
0010
0010
1000
0001
,  // measure 58
0010
0001
0010
0100
1000
0010
1000
0000
0100
0000
1000
0000
0001
0000
0100
0000
,  // measure 59
0010
1000
0010
0100
1000
0100
0010
0000
1000
0000
1000
0000
0001
0000
0010
0000
,  // measure 60
0001
1000
0001
1000
0100
0010
0100
0000
0010
0001
0010
0001
0100
0010
1000
0000
,  // measure 61
0001
0000
1001
0000
0110
0000
0000
0000
1000
0000
1000
0000
0001
1000
0001
1000
,  // measure 62
2002
0000
0000
0000
,  // measure 63
0000
0000
0000
3003
,  // measure 64
0110
0000
0000
0000
;

//---------------dance-single - ----------------
#NOTEDATA:;
#CHARTNAME:;
#STEPSTYPE:dance-single;
#DESCRIPTION:;
#CHARTSTYLE:;
#DIFFICULTY:Hard;
#METER:12;
#RADARVALUES:0.525,0.514,0.228,0.038,0.076,358.000,24.000,4.000,0.000,0.000,0.000,0.000,0.000,0.525,0.514,0.228,0.038,0.076,358.000,24.000,4.000,0.000,0.000,0.000,0.000,0.000;
#CREDIT:;
#NOTES:
1000
0000
0010
0000
0000
0000
0010
0000
1000
0000
0000
0100
0000
0000
0001
0000
,
0100
0000
0001
0000
0000
0000
0001
0000
1000
0000
0000
0001
0000
0000
0100
0000
,
1000
0000
0001
0000
0000
0000
0100
0000
0010
0000
0000
1000
0000
0000
0001
0000
,
0100
0010
0000
1000
0100
0000
1000
0000
,
0010
0000
1000
0100
0000
0100
1000
0010
,
0100
0000
0001
0010
0000
0010
0001
0100
,
0010
0000
1000
0001
0000
0010
0100
1000
,
0001
0100
0000
0100
0010
0000
0010
1000
,
0100
1000
0000
1000
0010
0000
0100
0001
,
0010
0100
0000
0100
0010
0000
0001
0100
,
0010
1000
0000
1000
0001
0000
0010
0000
,
0100
1000
0001
0010
0100
0010
0001
0000
,
2002
0000
0000
0000
,
0000
0000
0000
3003
,
0100
0000
0000
0010
0000
0000
1000
0000
0000
0001
0000
0000
0011
0000
0000
0000
,
0010
0000
0000
0100
0000
0000
1000
0000
0000
0000
1000
0000
0001
0000
0100
0000
,
0010
0000
0000
0100
0000
0000
0001
0000
0000
1000
0000
0000
0100
0000
0000
0000
,
0010
0000
0000
0001
0000
0000
1000
0000
0000
0010
0000
0000
0100
0000
0001
0000
,
1000
0000
0000
0000
0100
0000
0010
0000
0000
0100
0000
0000
1100
0000
0000
0000
,
1000
0000
0000
0001
0000
0000
0100
0000
0000
0000
0010
0000
0100
0000
0001
0000
,
1000
0000
0000
0100
0000
0000
0010
0000
0000
0001
0000
0000
0100
0000
0000
0000
,
0010
0100
0000
0001
0000
0010
0000
0100
,
1000
0010
0100
0010
1000
0010
0100
0010
,
0001
0010
0100
0010
1000
0010
0100
0010
,
1000
0100
0010
0100
0001
0100
0010
0100
,
1000
0100
0010
0100
0001
0100
0010
0100
,
1000
0010
1000
0001
1000
0010
1000
0001
,
1000
0010
0100
0010
1000
0010
0100
0010
,
1000
0001
0010
0100
0010
0001
0100
0010
,
0100
0101
0000
1001
0000
1100
0000
1001
,
1000
0100
0001
0100
1000
0010
0001
0010
,
0000
0100
0000
0001
0000
0010
0000
0100
,
0000
1000
0000
0001
0000
0100
0010
0100
,
0000
0100
0001
1000
0000
0100
0000
0110
,
0000
0010
0000
0001
0000
1000
0010
0100
,
0000
0000
0100
0001
0000
0001
0000
1000
,
0000
0100
0000
1000
0000
0001
0100
0000
,
0010
0010
0000
1010
0000
1001
0000
0001
,
0100
0010
0100
0001
0010
1000
0001
0100
,
0000
1000
0000
0010
0000
0001
1000
0100
,
0000
0010
0000
1000
0000
0001
0010
0100
,
0000
0100
1000
0001
0000
0100
0000
0010
,
0100
0001
0010
0100
1000
0001
0100
0010
,
0000
0010
0100
0001
0000
1000
0000
1100
,
0000
1001
0000
0101
0000
0100
0110
0000
,
1010
0000
0000
1001
0000
0000
0101
0000
,
1000
0000
1100
0000
0000
1000
0010
0000
,
0100
0000
0101
0000
0000
0001
0100
0000
,
0010
0000
0000
0000
1001
0000
0000
0000
1000
0000
0001
0000
0100
0010
0100
0000
,
0001
0010
0010
0000
0100
0100
1000
0001
,
0100
0000
0110
0000
0000
0010
1000
0000
,
0100
0000
1100
0000
0000
1000
0001
0000
,
0100
0000
0000
0000
0101
0000
0000
0000
0001
0000
0010
0000
0100
1000
0100
0000
,
1000
0010
0010
0000
0100
0010
1000
0001
,
1000
0010
0100
1000
0001
0000
0010
0000
,
0100
0001
0010
0100
1000
0000
0001
0000
,
0100
0010
1000
0100
0001
1000
0010
0100
,
1000
0010
0010
0000
0100
0001
0100
0010
,
1000
0100
0001
1000
0010
0000
0001
0000
,
0100
0010
0001
1000
0100
0000
0001
0000
,
0010
0100
1000
0001
0100
1000
0001
0010
,
0100
0001
0001
0000
0010
0010
0100
1000
,
2002
0000
0000
0000
,
0000
0000
3003
0000
;
