#TITLE:Livin' la Vida Loca;
#SUBTITLE:;
#ARTIST:Ricky Martin;
#TITLETRANSLIT:;
#SUBTITLETRANSLIT:;
#ARTISTTRANSLIT:;
#GENRE:Latin;
#CREDIT:;
#BANNER:Livin' la Vida Loca.png;
#BACKGROUND:Livin' la Vida Loca-bg.png;
#LYRICSPATH:;
#CDTITLE:;
#MUSIC:Livin' la Vida Loca.mp3;
#OFFSET:-0.048;
#SAMPLESTART:51.240;
#SAMPLELENGTH:15.000;
#SELECTABLE:YES;
#BPMS:0.000=178.000
;
#STOPS:
;
#BGCHANGES:-0.500=Livin' la Vida Loca.avi=1.000=0=0=0=StretchNoLoop====,
99999=-nosongbg-=1.000=0=0=0 // don't automatically add -songbackground-
;
#KEYSOUNDS:;
#ATTACKS:;

//---------------dance-single - Blank----------------
#NOTES:
     dance-single:
     :
     Hard:
     12:
     0.768,0.801,1.000,0.180,0.052,442.000,107.000,19.000,0.000,0.000,0.000,0.768,0.801,1.000,0.180,0.052,442.000,107.000,19.000,0.000,0.000,0.000:
0100
0000
0011
0000
0011
0000
0001
1000
,
0010
0100
0000
0110
0000
0010
1000
0001
,
1000
0000
0101
0000
0101
0000
0001
1000
,
0100
0110
0000
0011
0000
0101
0000
0000
,
0010
0000
1100
0000
1100
0000
1000
0001
,
1000
1010
0000
0101
0000
0011
0010
0010
,
0100
0000
1010
0000
1010
0000
1000
0001
,
0100
0000
0110
0000
0000
0000
1010
0000
0000
0000
0100
0010
0100
0000
0010
0000
,
2000
0000
3002
0000
2003
0000
3010
1000
,
0100
0110
0000
0011
0000
0001
0100
0010
,
1000
0000
1001
0000
0011
0000
0010
0100
,
1000
0010
0000
2010
0000
3001
1000
0001
,
0100
0000
0101
0000
0110
0000
0010
1000
,
0001
0100
0000
0110
0000
0010
1000
0001
,
0010
0000
0110
0000
0110
0000
0100
1000
,
0001
0100
0000
0110
0000
0010
1000
0010
,
0200
0000
0310
0100
0010
0100
0000
0102
,
0000
0000
0013
0001
0000
0010
0001
0100
,
0010
0000
1000
0010
1000
0001
0000
0001
,
1000
0001
1000
0001
1000
0100
1000
0100
0010
0100
0010
0100
1000
0100
1000
0100
,
0010
0000
0001
0000
0011
0000
0001
0010
,
0001
0100
0000
0110
0000
1010
0000
0000
,
1000
0000
1001
0000
0110
0000
0010
1000
,
0100
0010
0000
0011
0000
0001
1000
0010
,
0100
0000
1010
0000
0011
0000
0001
1000
,
0010
0100
0000
0101
0000
1010
1000
0001
,
0100
0110
0110
1001
,
0001
0010
0000
0110
0000
0100
1000
0010
,
0001
0000
0001
0010
0000
1000
0000
1000
,
0000
0001
0000
0001
0000
1001
0000
0110
,
0000
0000
0000
0001
0000
0010
0000
0100
0000
1000
0000
0000
,
0000
0010
1000
0100
0010
0001
0010
0011
,
0000
0110
0000
1100
0000
1001
0000
0011
,
0000
0101
0000
1010
0000
1000
0001
2000
,
0000
0000
3001
1000
0000
1010
0000
0101
,
0000
0001
0010
0001
0100
0010
1000
1010
,
0000
0101
0101
0000
0011
0000
0000
1100
,
1000
0000
0001
0001
1000
0010
1010
0000
,
0110
0000
0100
0001
0000
0001
0010
0000
,
0010
0100
0000
0100
1000
0100
0010
0001
,
0100
0100
0010
0100
0000
0101
0000
1010
,
0000
0001
0010
0001
0010
1000
0100
0010
,
0110
0000
0100
1100
0000
1000
1001
0000
,
0001
0101
0000
0100
0010
0100
0010
0000
,
1000
0010
1000
0001
0000
1001
0000
0011
,
0000
0001
1000
0010
0100
0010
1010
0000
,
0011
0000
0010
1010
0000
1000
1100
0000
,
0100
0101
0000
0110
0000
0000
0010
0001
,
0100
0010
0100
0010
0000
1000
0010
1010
,
0000
0101
0000
0101
0000
0101
0000
0000
,
0011
0000
0010
0110
0000
0100
1100
0000
,
1000
1001
0000
0001
1000
0100
0010
0000
,
0100
1000
0100
2000
0000
3001
0000
1001
,
0000
0101
0100
0010
0000
0000
0110
0100
,
0001
0001
1000
0001
0000
0010
0000
0110
,
0000
1100
1000
0001
0000
0100
0100
0001
,
0100
0100
0010
0100
0000
0110
0000
0020
,
0000
1030
0010
0100
0001
1000
1000
1000
,
0001
1000
0001
1000
0100
0010
0100
0010
,
0000
0100
0100
0000
0010
0000
0011
0000
,
0001
0000
1000
0001
1000
1010
0000
0101
,
0000
0001
2000
3010
2000
3001
2000
3100
,
1000
0000
0010
1000
0001
0010
0100
1000
,
0000
0000
0001
1000
0001
0010
0100
0010
,
0001
0000
0100
0001
0100
0110
0000
1010
,
0000
1000
0002
0013
0002
1003
0002
0103
,
0001
0000
1000
0000
0001
1000
0001
0020
,
0000
0030
0010
0010
0000
0010
0000
0010
,
0000
0110
0000
0110
0000
0110
0000
1001
,
0000
1000
0010
1000
0000
0100
1000
0010
,
0100
0000
0001
0100
0001
0010
0100
0010
,
0000
0001
0010
0100
0000
0100
0001
0100
,
1000
1000
0010
1010
0000
1010
0000
1001
,
0000
0011
0002
1003
0002
0013
0002
0103
,
0001
0001
0010
0010
0001
0001
0010
0011
,
0000
1010
0000
0101
0000
0110
0000
0000
,
0010
0001
1000
0001
0010
0100
1000
1001
;

//---------------dance-single - Blank----------------
#NOTES:
     dance-single:
     :
     Beginner:
     4:
     0.188,0.219,0.123,0.142,0.000,111.000,13.000,15.000,0.000,0.000,0.000,0.188,0.219,0.123,0.142,0.000,111.000,13.000,15.000,0.000,0.000,0.000:
0000
0000
0010
0000
,
0020
0000
0000
0000
,
0030
0000
0001
0000
,
0002
0000
0000
0000
,
0003
0000
1000
0000
,
2000
0000
0000
0000
,
3000
0000
0100
0000
,
0200
0000
0000
0000
,
0300
0000
0010
0000
,
0020
0000
0000
0000
,
0030
0000
0100
0000
,
0200
0000
0000
0000
,
0300
0000
1000
0000
,
2000
0000
0000
0000
,
3000
0000
0001
0000
,
0002
0000
0000
0000
,
1003
0000
0000
0000
,
1000
0000
0000
0000
,
0001
0000
0000
0000
,
0002
0000
0000
0000
,
0003
0000
0100
0000
,
0200
0000
0000
0000
,
0300
0000
0010
0000
,
0020
0000
0000
0000
,
0030
0000
1000
0000
,
2000
0000
0000
0000
,
3000
0000
0001
0000
,
0002
0000
0000
0000
,
0013
0000
0001
0000
,
0010
0000
0000
0000
,
0100
0000
1000
0000
,
0100
0000
0000
0000
,
0010
0000
0100
0000
,
1000
0000
0000
0000
,
0010
0000
0100
0000
,
0001
0000
0000
0000
,
1000
0000
0001
0000
,
1000
0000
0000
0000
,
1010
0000
0000
1010
,
0000
0000
1010
0000
,
1000
0000
0001
0000
,
1000
0000
0001
0000
,
0011
0000
0000
0011
,
0000
0000
0011
0000
,
0001
0000
1000
0000
,
0001
0000
1000
0000
,
1100
0000
0000
1100
,
0000
0000
1100
0000
,
1000
0000
0001
0000
,
1000
0000
0001
0000
,
0101
0000
0000
0101
,
0000
0000
0101
0000
,
0001
0000
1000
0000
,
0001
0000
1000
0000
,
0100
0000
0010
0000
,
0100
0000
0010
0000
,
0001
0000
1000
0000
,
0001
0000
1000
0000
,
0200
0000
0000
0000
,
0000
0000
0000
0310
,
0000
0010
0000
0000
,
0000
0001
1000
0001
,
1000
0000
0000
0000
,
0100
0000
0000
0000
,
0010
0000
0000
0000
,
0001
1000
0001
1000
,
0100
0000
0010
0000
,
0200
0000
0000
1000
0000
0000
0000
1000
,
0000
0000
0000
1000
0000
0000
0000
1300
,
0000
1000
0001
1000
,
0100
0000
0000
0000
,
0010
0000
0000
0000
,
0001
0000
0000
0000
,
1000
0000
0000
0000
,
0010
0000
0000
0000
,
0100
0000
0000
0000
,
0001
0000
1000
0000
,
1001
0000
0000
0000
;

//---------------dance-single - Blank----------------
#NOTES:
     dance-single:
     :
     Easy:
     7:
     0.381,0.404,0.312,0.170,0.000,231.000,33.000,18.000,0.000,0.000,0.000,0.381,0.404,0.312,0.170,0.000,231.000,33.000,18.000,0.000,0.000,0.000:
0000
0010
0010
0000
,
0001
0010
0100
0000
,
0000
0010
0010
0000
,
0001
1000
0001
0000
,
0000
0100
0100
0000
,
0010
0100
0001
0000
,
0000
0100
0100
0000
,
0001
1000
0001
0000
,
0000
1000
0100
0000
,
0010
0100
1000
0000
,
0000
0001
1000
0000
,
0001
0010
0100
0000
,
0000
1000
0010
0000
,
1000
0001
1000
0000
,
0000
0001
0010
0000
,
0001
1000
0001
0000
,
1000
1000
0010
0010
,
1000
1000
0001
0001
,
0100
0100
0010
0010
,
1000
0010
0100
0001
,
1001
1000
0100
0000
,
0010
0001
0010
0000
,
0000
0001
0100
0000
,
0010
1000
0010
0000
,
0000
1000
0001
0000
,
0010
0100
0010
0000
,
0000
0100
0010
0000
,
0001
1000
0001
0000
,
2000
0000
3010
0000
,
0020
0000
0031
0000
,
0002
0000
0103
0000
,
0200
0000
1300
0000
,
2000
0000
3010
0000
,
2000
0000
3100
0000
,
2000
0000
3001
0000
,
0002
0000
1003
0000
,
0002
0000
0013
0000
,
0002
0000
0103
0000
,
0101
0000
0000
0101
0000
0000
0101
0000
,
0000
0101
0000
0101
0000
0000
0000
0000
,
0001
0010
0100
1000
,
0001
0000
0000
1000
,
1100
0000
0000
1100
0000
0000
1100
0000
,
0000
1100
0000
0000
1100
0000
0000
0000
,
1000
0100
0010
0001
,
0100
0000
0000
0010
,
1010
0000
0000
1010
0000
0000
1010
0000
,
0000
1010
0000
1010
0000
0000
1000
0000
,
0001
0010
0100
1000
,
0010
0010
0010
0010
,
0011
0000
0000
0011
0000
0000
0011
0000
,
0000
0011
0000
0011
0000
0000
0000
0000
,
0010
1000
0100
0010
,
0110
0000
1001
0000
,
0010
0001
0100
0010
,
0110
0000
1001
0000
,
1000
0100
0010
0001
,
1000
0001
1000
0010
,
0100
0100
0001
0001
,
0010
0010
0000
0110
,
0100
1000
0100
1000
,
0010
2000
3002
2003
,
3001
1000
0100
1000
,
0010
0100
0001
0100
,
0001
1000
0100
1000
,
0100
0020
0130
0010
,
0001
0010
0100
1000
,
0001
0000
0000
0010
0000
0010
0000
0010
,
0000
0010
0000
0010
0000
0110
0000
1001
,
0000
1000
0100
1000
,
0010
0010
1000
0001
,
1000
0001
0010
0100
,
0010
0000
0010
0000
0001
0000
0000
0011
,
0000
0020
0230
0320
,
0130
0000
0100
0000
1000
0000
0000
1100
,
0000
1100
0000
1100
0000
1100
0000
0000
,
1000
0000
0001
0000
1000
0000
0001
0200
,
0000
0000
0300
0000
;

//---------------dance-single - Blank----------------
#NOTES:
     dance-single:
     :
     Medium:
     10:
     0.575,0.582,0.568,0.019,0.000,363.000,60.000,2.000,0.000,0.000,0.000,0.575,0.582,0.568,0.019,0.000,363.000,60.000,2.000,0.000,0.000,0.000: // measure 0
0000
0000
1001
0000
1001
0000
0000
0001
,  // measure 1
0010
0100
0000
0010
0000
0001
0000
0000
,  // measure 2
0000
0000
1001
0000
1001
0000
0000
0100
,  // measure 3
0100
1000
0000
1000
0000
0100
0000
0000
,  // measure 4
0000
0000
0110
0000
0110
0000
0000
0001
,  // measure 5
0010
0100
0000
0010
0000
0001
0000
0000
,  // measure 6
0000
0000
0110
0000
0110
0000
0000
0100
,  // measure 7
0100
1000
0000
1000
0000
0100
0000
0000
,  // measure 8
1000
0000
0001
0000
1000
0000
0000
0100
,  // measure 9
0010
0100
0000
0010
0000
0001
0000
0000
,  // measure 10
0000
1001
1001
1000
,  // measure 11
0100
0010
0000
0200
0000
0000
0000
0000
,  // measure 12
1300
0000
0100
0000
1000
0000
0000
0010
,  // measure 13
1000
0010
0000
0100
0000
0001
0000
0000
,  // measure 14
0010
0000
0010
0000
0010
0000
0100
1000
,  // measure 15
0001
0100
0000
0010
0000
0000
0000
0000
,  // measure 16
1000
0000
0010
0000
1000
0000
0010
1000
,  // measure 17
0000
0000
1000
0001
0000
0001
0010
0001
,  // measure 18
0100
0000
0100
0000
0100
0000
0000
0010
,  // measure 19
0000
1000
0010
1000
0001
1000
0100
0000
,  // measure 20
0010
0000
0001
0000
1000
0000
0000
0001
,  // measure 21
1000
0001
0000
0100
0000
0100
0000
0000
,  // measure 22
0000
0000
0110
0000
0110
0000
1000
0001
,  // measure 23
1000
0001
0000
0110
0000
0010
1000
0100
,  // measure 24
0000
0000
0010
0000
0010
0000
0000
0001
,  // measure 25
1000
0001
0000
0100
0000
0110
0000
0000
,  // measure 26
0010
1000
0100
0010
,  // measure 27
0001
1000
0000
0010
0000
0010
0010
1000
,  // measure 28
0100
0000
0000
0110
0000
0011
0000
0110
,  // measure 29
0000
0110
0000
1100
0000
0110
0000
0011
,  // measure 30
0000
1100
1001
0101
,  // measure 31
1010
0000
1000
0000
0001
0000
1000
0100
,  // measure 32
0000
0110
0000
0011
0000
1010
0000
0011
,  // measure 33
0000
1010
0000
0011
0000
0001
0100
0001
,  // measure 34
0000
0000
0100
0010
0000
1000
0000
0001
,  // measure 35
0000
0000
0000
0000
0000
1000
0100
1000
,  // measure 36
0000
0010
0010
0000
0010
0000
0000
0010
,  // measure 37
0010
0010
0000
0110
,  // measure 38
0100
0000
0001
0100
0000
0100
0001
0000
,  // measure 39
0001
1000
0000
1000
0001
0000
1000
0000
,  // measure 40
0100
0010
0100
0010
0000
0110
0000
0110
,  // measure 41
0000
1001
0000
0000
0000
0000
1000
0000
,  // measure 42
0010
0000
1000
0010
0000
0010
1000
0000
,  // measure 43
1000
0001
0000
0001
1000
0000
0100
0000
,  // measure 44
0010
0100
0010
0100
0000
0110
0000
0011
,  // measure 45
0000
1001
0000
0000
0000
0000
1000
0000
,  // measure 46
0010
0000
0100
0001
0000
0001
0100
0000
,  // measure 47
0100
0010
0000
0010
0100
0000
0010
1000
,  // measure 48
0010
0000
1000
0001
0000
0100
0001
0100
,  // measure 49
0000
0110
0000
0110
0000
0110
0000
0010
,  // measure 50
1000
0000
1000
0001
0000
0001
1000
0000
,  // measure 51
0001
0100
0000
0100
1000
0000
0100
0000
,  // measure 52
0010
0100
0010
0100
0000
0101
0000
1010
,  // measure 53
0000
0101
0000
0000
0000
0000
1001
0000
,  // measure 54
0010
0100
0010
0100
0000
1100
0000
0011
,  // measure 55
0000
1100
0000
0000
0000
0000
1001
0000
,  // measure 56
0100
0010
0100
0010
0000
1000
0000
0001
,  // measure 57
0000
1000
0100
1000
0100
0010
0100
0010
,  // measure 58
0001
0010
0001
0010
0100
1000
0100
1000
,  // measure 59
0010
1000
0010
1000
0001
1000
0001
0000
,  // measure 60
1000
0000
0100
1000
0001
0100
0000
0010
,  // measure 61
0000
1000
0010
0000
0110
0000
0110
0000
,  // measure 62
0100
0001
0100
0001
0010
0001
0010
0001
,  // measure 63
1000
0001
1000
0001
1000
0010
1000
0010
,  // measure 64
0100
0000
0010
0100
0010
0100
0000
0110
,  // measure 65
0000
0010
1000
0001
1000
0100
1000
0001
,  // measure 66
1000
0000
0010
0000
1000
0100
0010
0002
,  // measure 67
0000
0000
0000
1000
0000
1000
0000
1000
,  // measure 68
0000
1000
0000
1000
0000
1003
0000
0011
,  // measure 69
0000
0010
0100
0010
0000
0100
1000
0010
,  // measure 70
0100
0000
0001
0100
0001
1000
0000
0100
,  // measure 71
0000
0000
0001
0100
1000
0010
0100
0000
,  // measure 72
0010
1000
0010
1000
0000
0011
0000
0011
,  // measure 73
0000
0010
1000
0010
1000
0001
1000
0100
,  // measure 74
0010
0001
0010
0100
1000
0010
0000
1010
,  // measure 75
0000
1001
0000
0101
0000
0011
0000
0000
,  // measure 76
0001
0010
0100
1000
0010
0100
0001
1001
;
