#TITLE:Little Star;
#SUBTITLE:;
#ARTIST:REDALiCE feat. Ayumi Nomiya;
#TITLETRANSLIT:;
#SUBTITLETRANSLIT:;
#ARTISTTRANSLIT:;
#GENRE:Techno;
#CREDIT:;
#BANNER:Little Star.png;
#BACKGROUND:Little Star-bg.png;
#LYRICSPATH:;
#CDTITLE:;
#MUSIC:Little Star.mp3;
#OFFSET:0.027;
#SAMPLESTART:36.700;
#SAMPLELENGTH:15.000;
#SELECTABLE:YES;
#BPMS:0.000=183.000
;
#STOPS:
;
#BGCHANGES:;
#KEYSOUNDS:;
#ATTACKS:;

//---------------dance-single - ----------------
#NOTES:
     dance-single:
     :
     Easy:
     7:
     0.403,0.589,0.126,0.301,0.000,286.000,15.000,36.000,0.000,0.000,0.000,0.403,0.589,0.126,0.301,0.000,286.000,15.000,36.000,0.000,0.000,0.000:
0000
0000
0000
0000
,
1000
0100
1000
0000
,
0001
0001
0001
0000
,
0100
0001
0100
0000
,
0010
0010
0010
0000
,
1000
0001
1000
0000
,
0100
0100
0100
0000
,
0010
0001
0100
0010
,
1000
1000
1000
0000
,
0001
0000
0001
0000
,
0011
0000
0010
0100
,
1000
0000
1000
0000
,
0010
0010
1000
1000
,
0001
0000
0001
0000
,
0101
0000
0100
0010
,
1000
0000
1000
0000
,
0001
0001
0010
0010
,
0100
1000
0100
0000
,
1000
0010
1000
0000
,
0100
0001
0100
0000
,
0010
0001
0010
0000
,
0100
1000
0010
0000
,
0100
0001
0010
0000
,
0100
0100
0100
0000
,
0010
0010
0010
0000
,
0001
0001
0001
0000
,
1000
0000
0001
0000
1000
0000
0000
0020
,
0000
0000
0000
0000
,
0130
0010
1000
0001
,
0010
0010
0100
0010
,
0100
0100
0010
0100
,
1000
0001
1000
0001
,
2002
0000
3003
0001
,
0100
0010
0100
0100
,
0010
0100
0010
0010
,
1000
0000
0000
0000
1001
0000
0000
0001
,
0000
0010
0000
0100
0000
0000
0000
0000
,
0010
0100
0010
0010
,
0100
0010
0100
0100
,
1000
1000
0001
0001
,
2002
0000
3003
0001
,
0010
0000
0000
0010
0000
0000
0010
0000
,
0000
0010
0000
0000
0100
0000
0100
0000
,
2000
0000
0000
3001
,
0001
0010
0100
1000
,
0010
0100
0020
0000
,
2030
0000
0000
3001
,
2000
0000
3200
0000
,
0310
0100
1000
0001
,
0200
0000
0310
0000
,
0120
0000
0000
1030
,
2000
0000
3001
0000
,
0001
0010
0100
1000
,
0010
0000
0000
0010
0000
0000
0010
0000
,
0200
0001
0001
0301
,
0002
1000
1000
1003
,
2000
3200
0320
0032
,
2003
0010
0010
3010
,
0020
0100
0100
0130
,
0200
0001
0001
0301
,
0002
0023
0230
2300
,
3020
0230
0320
0230
,
0300
0001
0100
0010
,
0100
0010
0100
0100
,
0010
0100
0010
0010
,
1000
1000
0001
0001
,
2002
0000
3003
0001
,
0010
0100
0010
0010
,
0100
0010
0100
0100
,
1000
0000
0000
1000
0000
0100
0000
0010
,
0000
0001
0000
1001
0000
0000
1000
0000
,
0100
0010
0100
0100
,
0010
0100
0010
0010
,
0001
0001
1000
1000
,
2002
0000
3003
1001
,
1010
0000
0000
0101
0000
0000
0011
0000
,
0000
1100
0000
0000
1000
0000
0001
0000
,
1000
0001
1000
0001
,
0010
0100
1000
0010
,
0100
0001
0100
0001
,
0010
1000
0010
1000
,
0001
0100
0001
0100
,
1000
0100
1000
0100
,
0010
0001
0010
0001
,
1000
1000
0010
1000
,
0001
0001
0010
0001
,
0010
0010
0100
0010
,
0001
1000
2002
0000
,
3003
0000
0000
0000
;

//---------------dance-single - ----------------
#NOTES:
     dance-single:
     :
     Beginner:
     5:
     0.189,0.293,0.050,0.201,0.000,128.000,6.000,24.000,0.000,0.000,0.000,0.189,0.293,0.050,0.201,0.000,128.000,6.000,24.000,0.000,0.000,0.000:
0000
0000
0000
0000
,
1000
0000
0000
0000
,
1000
0000
0000
0000
,
0001
0000
0000
0000
,
0001
0000
0000
0000
,
0010
0000
0000
0000
,
0010
0000
0000
0000
,
0100
0000
0000
0000
,
1001
0000
0000
0000
,
1000
0000
1000
0000
,
1000
0000
0000
0000
,
0010
0000
0010
0000
,
0010
0000
0000
0000
,
0100
0000
0100
0000
,
0100
0000
0000
0000
,
0001
0000
0001
0000
,
0001
0000
0000
0000
,
1000
0000
1000
0000
,
0010
0000
0000
0000
,
0010
0000
0010
0000
,
0001
0000
0000
0000
,
0001
0000
0001
0000
,
0100
0000
0000
0000
,
0100
0000
0100
0000
,
1000
0000
1000
0000
,
0010
0000
0010
0000
,
0001
0000
0001
0000
,
1001
0000
0000
0000
,
0000
0000
0000
0000
,
1000
0000
1000
0000
,
1000
0000
0000
0000
,
1000
0000
0001
0000
,
1000
0000
0000
0000
,
0001
0000
0001
0000
,
0001
0000
0000
0000
,
0001
0000
0100
0000
,
0001
0000
0000
0000
,
0100
0000
0100
0000
,
0100
0000
0000
0000
,
0100
0000
0010
0000
,
0100
0000
0000
0000
,
0010
0000
0010
0000
,
0010
0000
0010
0000
,
0110
0000
0000
0000
,
0110
0000
0000
0000
,
1001
0000
0000
0000
,
2000
0000
0000
0000
,
3200
0000
0000
0000
,
0320
0000
0032
0000
,
0023
0000
0230
0000
,
2300
0000
0000
0000
,
3020
0000
0000
0000
,
0230
0000
0302
0000
,
0203
0000
0320
0000
,
2030
0000
0000
0000
,
3002
0000
0000
0000
,
0023
0000
0230
0000
,
0320
0000
0032
0000
,
2003
0000
0000
0000
,
3002
0000
0000
0000
,
0203
0000
0320
0000
,
0230
0000
0302
0000
,
0003
0000
0000
0000
,
1000
0000
1000
0000
,
0010
0000
0000
0000
,
0010
0000
0010
0000
,
0001
0000
0000
0000
,
0001
0000
0001
0000
,
0100
0000
0000
0000
,
0100
0000
0100
0000
,
1000
0000
0000
0000
,
1000
0000
1000
0000
,
0100
0000
0000
0000
,
0100
0000
0100
0000
,
0001
0000
0000
0000
,
0001
0000
0001
0000
,
0010
0000
0000
0000
,
0010
0000
0010
0000
,
1000
0000
0000
0000
,
1001
0000
0000
0000
,
1000
0000
1000
0000
,
1000
0000
1000
0000
,
0001
0000
0001
0000
,
0001
0000
0001
0000
,
1000
0000
0100
0000
,
1000
0000
0100
0000
,
0010
0000
0001
0000
,
0010
0000
0001
0000
;

//---------------dance-single - ----------------
#NOTES:
     dance-single:
     :
     Hard:
     17:
     0.924,1.000,0.761,0.201,0.498,658.000,91.000,24.000,0.000,0.000,0.000,0.924,1.000,0.761,0.201,0.498,658.000,91.000,24.000,0.000,0.000,0.000:
0000
0000
0100
0000
0000
0000
0100
0000
0010
0100
0010
0000
0100
0000
1000
0000
,
0001
0000
0000
0000
0100
0000
0001
0000
0000
0000
0100
0000
0010
0000
1000
0010
,
1000
0000
0000
0000
1001
0000
0000
0000
0001
0000
0000
0000
0010
0000
0001
0010
,
0100
0000
0000
0100
0000
0000
1000
0000
0100
0000
0000
0000
1000
0000
0010
0000
,
0110
0000
0000
0110
0000
0000
0100
0000
0001
0000
0000
0000
1000
0001
1000
0001
,
1000
0000
0000
0000
0100
0000
1000
0000
0000
0000
0100
0000
0010
0000
0100
1000
,
0010
0000
0000
0000
0110
0000
0000
0000
0010
0000
0100
0000
0001
0000
0100
0010
,
1000
0001
1000
0001
1000
0001
1000
0001
0010
0100
0010
0100
0010
0100
0010
0100
,
0010
0000
0000
0110
0000
0000
0100
0000
1000
0000
0000
0000
0100
0010
0100
0010
,
0100
0000
1000
0100
0000
0100
0010
0000
,
0110
0000
0000
0010
0100
0000
1000
0000
0010
0000
0001
0000
0010
0000
0100
0000
,
0001
0000
1000
0001
0000
0001
0100
0010
,
1000
0000
0000
1000
0000
0000
1000
0000
0000
0000
0000
0000
1001
0000
0000
0000
0001
1000
0001
0000
0000
0010
0000
0000
,
0100
0000
1000
0100
0000
0100
0010
0000
,
0110
0000
0000
0100
0010
0000
0001
0000
0100
0000
1000
0000
0100
0000
0010
0000
,
0001
0000
0010
1000
0000
1000
0001
0010
,
0110
0000
0000
0110
0000
0000
0110
0000
1000
0000
0000
0000
0100
0000
0010
0000
,
0100
1000
0100
1000
0001
1000
0001
1000
,
0001
0100
0001
0100
0010
0100
0010
1000
,
0001
0010
0001
0010
0100
1000
0100
1000
,
1001
0000
0000
0000
1001
0000
0101
0000
0000
0000
0100
0000
0001
0010
0001
0010
,
0100
0010
0100
0010
0001
0100
0001
0100
,
0010
1000
0010
1000
0010
1000
0010
1000
0100
0010
0100
0010
0100
0010
0100
0010
,
0100
0000
0000
0110
0000
0000
0010
0000
0001
0010
0001
0010
0100
0010
0100
0000
,
0110
0000
0000
0110
0000
0000
0010
0000
0001
0100
0001
0100
0010
1000
0010
0000
,
0110
0000
0000
0110
0000
0000
0100
0000
0010
0100
0010
0100
0001
0100
0001
0000
,
1000
0100
0010
0110
0000
0100
1000
0001
,
0100
0010
0100
0010
1000
0001
1000
0001
,
1001
0011
1100
1001
,
1000
0010
0001
0011
0000
0010
1000
0100
,
0001
1000
0010
0011
0000
0001
0101
0000
,
0110
0000
0010
1000
0000
1000
0001
0010
,
0100
0000
1000
0100
1000
0000
0100
0000
1000
0001
0100
0001
0100
0000
0001
0000
,
0100
1000
0001
0011
0000
0010
1000
0001
,
0100
1000
0001
0011
0000
0010
1000
0000
,
1001
0000
0011
0110
0000
0011
0000
1001
,
0000
1010
0000
0110
0000
0100
0010
0100
,
0001
0010
0100
1100
0000
1000
0010
0001
,
0010
0100
1000
1100
0000
0100
0001
0000
,
1001
0000
1000
1100
0000
0100
0010
0100
,
1000
0000
0100
1000
0100
0000
1000
0000
0010
1000
0010
1000
0001
0000
0000
0000
,
1001
1001
0000
1010
1010
0000
0110
0110
,
0000
0100
0001
0010
0100
0000
0010
0100
,
0010
0000
0010
0010
0100
0100
0010
0010
,
0001
0010
0001
0010
0100
1000
0100
1000
0001
1000
0001
1000
0100
0010
0100
0010
,
0100
0000
0100
1000
0010
0100
0001
0100
0001
0000
0000
0000
2000
0000
0000
0000
,
3002
0000
0000
0023
,
0230
0000
2300
0000
,
3020
2030
3200
0320
,
0230
0000
2300
3000
,
2002
0000
3003
0101
,
2020
3030
2002
3003
,
0022
0000
0000
0000
0000
0000
0000
0000
0000
0000
0000
0000
0033
0000
0010
0100
,
1000
0000
1001
0000
0000
0000
0001
0000
1001
0000
0000
0000
1000
0000
0010
1000
,
0010
1000
0010
1000
0001
1000
0001
1000
,
0100
0010
0100
0010
0001
0010
0001
0011
,
0200
1000
0320
0001
0230
1000
0310
0011
,
0110
0000
0000
0000
0110
0000
0000
0000
1001
0000
0000
0000
1000
0010
0100
0001
,
1000
1000
0100
0100
1000
1000
0001
0001
,
0100
0100
0010
0010
1000
1000
0001
0001
,
0010
0001
0010
0001
0010
0001
0010
0001
1000
0100
1000
0100
1000
0100
1000
0100
,
1000
0010
1000
0010
0100
0010
0100
0010
0100
0001
0100
0001
1000
0001
1000
0001
,
1000
1010
0101
0011
,
0010
0100
1000
1100
0000
1000
1000
0100
,
0001
0010
0100
1100
0000
1000
0010
0000
,
0110
0000
0100
1000
0000
1000
0001
0100
,
0010
0000
1000
0010
1000
0000
0010
0000
0100
0010
0100
0001
0010
0000
0100
0000
,
0010
0001
0100
0101
0000
0001
1000
0010
,
0001
0100
0001
0101
0000
0010
0100
0000
,
0110
0000
1010
0101
0000
0011
0000
1001
,
0000
0110
0000
1001
0000
1000
0010
1000
,
0001
0000
0010
0100
0010
0000
0110
0000
0000
0000
0100
0000
1000
0000
0010
0000
,
0100
1000
0001
0011
0000
0010
1000
0000
,
1001
0000
1000
1100
0000
0100
0010
0100
,
1000
0000
0100
0010
0001
0000
0010
0000
0100
1000
0001
0100
0010
0000
0100
0000
,
0110
0110
0000
1001
1001
0000
1010
1010
,
0000
0010
1000
0001
0010
0010
0100
0010
,
0100
0100
1000
1000
0100
0100
0010
0010
,
0001
0010
0001
0010
0100
1000
0100
1000
0001
1000
0001
1000
0010
0100
0010
0100
,
0010
0000
1000
0010
0100
0001
0100
0001
2000
0000
0000
0000
3001
0000
0000
0000
,
1010
0000
0000
0000
0010
0000
0100
0010
0100
0000
0000
0010
0000
0000
0010
0000
,
1000
0010
1000
0000
0001
0000
1001
0000
0000
0000
1000
0000
0100
0000
0010
0000
,
0110
0000
0000
0110
0000
0000
0100
0000
1000
0000
0000
0100
1000
0000
0010
0000
,
0110
0000
0000
0110
0000
0000
0100
0000
0001
0000
0000
0000
1000
0001
1000
0001
,
1000
1000
0100
0100
0010
0010
0001
0001
,
1000
1000
0010
0010
0100
0100
0001
0001
,
1000
0001
1000
0001
0010
0100
0010
0100
1000
0100
1000
0100
0010
0001
0010
0001
,
0100
0000
0000
0110
0000
0000
0100
0000
0002
0000
0000
0000
0003
0000
0000
0000
;

//---------------dance-single - ----------------
#NOTES:
     dance-single:
     :
     Medium:
     10:
     0.516,0.514,0.151,0.234,0.042,386.000,18.000,28.000,0.000,0.000,0.000,0.516,0.514,0.151,0.234,0.042,386.000,18.000,28.000,0.000,0.000,0.000: // measure 0
0000
0010
0000
0010
0000
0010
0100
0010
,  // measure 1
0001
0000
0001
1000
0000
1000
0000
0010
,  // measure 2
1000
0100
0010
0100
,  // measure 3
1000
0000
0000
1000
0000
0000
1000
0000
0001
0000
0000
0000
0100
0000
0001
0000
,  // measure 4
0100
0000
0000
0100
0000
0000
0100
0000
0010
0000
0000
0000
0000
0000
0000
0000
,  // measure 5
1000
0000
0010
1000
0000
0001
0000
1000
,  // measure 6
0100
0000
0010
0000
0100
1000
0000
1000
,  // measure 7
0010
0100
0010
1000
,  // measure 8
0001
0000
0000
0001
0000
0000
0001
0000
2000
0000
0000
0000
0000
0000
0000
0000
,  // measure 9
3100
0000
0000
1000
0000
0000
0010
0000
,  // measure 10
0100
0000
0000
0000
0010
1000
0100
1000
,  // measure 11
0010
0000
0000
0100
0000
0000
0010
0100
,  // measure 12
0010
1000
0010
0000
1000
0000
0001
1000
,  // measure 13
0001
0000
0000
0010
0000
0000
0100
0000
,  // measure 14
0010
0000
0000
0000
0001
0100
0010
0100
,  // measure 15
0001
0000
0001
0010
0000
0010
0100
1000
,  // measure 16
0010
0000
0000
0010
0000
0000
0010
0000
1000
0000
0000
0000
0001
0000
1000
0000
,  // measure 17
0001
0000
1000
0100
0000
0000
0010
0100
,  // measure 18
0010
0000
0100
1000
0000
0000
0010
0100
,  // measure 19
0010
0000
1000
0010
0000
0000
0100
0000
,  // measure 20
0010
0000
0100
0001
0000
0000
0010
0001
,  // measure 21
0010
0000
0010
0100
0000
0000
0100
1000
,  // measure 22
0100
0000
1000
0010
0000
0000
0100
0000
,  // measure 23
0010
0000
0000
0010
0000
0000
0010
0000
1000
0000
0000
0000
0001
0000
0000
0000
,  // measure 24
0010
0000
0000
0010
0000
0000
0010
0000
0100
0000
0000
0000
1000
0000
0000
0000
,  // measure 25
0100
0000
0000
0100
0000
0000
0100
0000
1000
0000
0000
0000
0001
0000
0000
0000
,  // measure 26
0100
0000
0100
0010
0000
0010
1000
0002
,  // measure 27
0000
0000
0000
0000
,  // measure 28
1003
0001
0010
0100
,  // measure 29
1000
0100
0000
0001
0000
0100
1000
0000
,  // measure 30
0010
1000
0000
0100
0000
1000
0010
0000
,  // measure 31
0100
0000
0010
0100
0000
0010
0100
0010
,  // measure 32
1000
0001
1000
0001
,  // measure 33
0010
0001
0000
0100
0000
0001
0010
0000
,  // measure 34
0100
0010
0000
0001
0000
0010
0100
0000
,  // measure 35
1100
0000
0000
1001
0000
0101
0000
0110
,  // measure 36
0000
1010
0000
1001
0000
1000
0001
1000
,  // measure 37
0100
1000
0000
0010
0000
1000
0100
0000
,  // measure 38
0010
0100
0000
1000
0000
0100
0010
0000
,  // measure 39
0100
0000
0100
1000
0000
1000
0001
0200
,  // measure 40
0000
0001
0001
0301
,  // measure 41
0100
0100
0000
0010
0010
0000
0100
0100
,  // measure 42
0000
0001
0100
1000
0100
0000
0010
0100
,  // measure 43
0020
0000
0000
2030
,  // measure 44
3020
0000
0230
0000
0301
0100
0000
0100
,  // measure 45
0020
0000
0000
0000
,  // measure 46
2030
0000
0000
3001
,  // measure 47
2000
0000
3100
0000
,  // measure 48
2000
3200
2300
3020
,  // measure 49
2030
0000
3002
0000
,  // measure 50
0203
0000
0000
1300
,  // measure 51
0200
0000
0301
0000
,  // measure 52
0200
0320
0230
2300
,  // measure 53
3100
0000
0000
0100
0000
0000
0100
0000
,  // measure 54
0010
0010
0010
1000
,  // measure 55
0001
0001
1000
1000
,  // measure 56
0200
2300
3020
0230
,  // measure 57
0301
0001
0100
0100
,  // measure 58
0101
0001
1000
0001
,  // measure 59
1001
1000
0100
1000
,  // measure 60
1100
0100
0010
0100
,  // measure 61
0110
0010
0001
0010
,  // measure 62
0000
0011
0011
0011
,  // measure 63
0010
0100
0000
0001
0000
0100
0010
0000
,  // measure 64
0001
0010
0000
0100
0000
0010
0001
0000
,  // measure 65
1000
0000
0001
1000
0000
0010
1000
0010
,  // measure 66
0100
0010
1000
0001
,  // measure 67
0010
1000
0000
0001
0000
1000
0010
0000
,  // measure 68
0100
1000
0000
0001
0000
1000
0100
0000
,  // measure 69
0010
0000
0100
0010
0000
0001
0000
1000
,  // measure 70
0000
0100
0000
1000
0000
0001
1000
0000
,  // measure 71
0010
0001
0000
1000
0000
0001
0010
0000
,  // measure 72
0100
0001
0000
1000
0000
0001
0100
0000
,  // measure 73
0001
0000
0001
0010
0000
0010
0100
1000
,  // measure 74
0001
0001
0100
0100
,  // measure 75
0010
0100
0000
0010
0100
0000
0010
0100
,  // measure 76
0000
0010
1000
0001
0010
0000
0100
0010
,  // measure 77
0100
1000
0100
1000
,  // measure 78
0010
0000
1000
0000
0001
0010
0000
0010
,  // measure 79
0200
0000
0000
0000
,  // measure 80
1300
0000
0100
1000
0000
1000
0000
1000
,  // measure 81
0001
0100
0010
1000
,  // measure 82
0001
0000
0000
0001
0000
0000
0001
0000
1000
0000
0000
0000
0100
0000
1000
0000
,  // measure 83
0010
0000
0000
0010
0000
0000
0010
0000
0100
0000
0000
0000
0010
0000
0000
0000
,  // measure 84
1000
0000
0010
1000
0000
0001
0000
0010
,  // measure 85
0100
0000
0010
0000
0001
1000
0000
1000
,  // measure 86
0010
0110
1010
0101
,  // measure 87
1001
0000
0000
1001
0000
0000
0001
0000
2000
0000
0000
0000
3000
0000
0000
0000
;
