#TITLE:LUV CAN SAVE U;
#SUBTITLE:;
#ARTIST:Hideki Naganuma;
#TITLETRANSLIT:;
#SUBTITLETRANSLIT:;
#ARTISTTRANSLIT:;
#GENRE:Techno;
#CREDIT:;
#BANNER:LUV CAN SAVE U.png;
#BACKGROUND:LUV CAN SAVE U-bg.png;
#LYRICSPATH:;
#CDTITLE:;
#MUSIC:LUV CAN SAVE U.mp3;
#OFFSET:-0.155;
#SAMPLESTART:89.300;
#SAMPLELENGTH:15.000;
#SELECTABLE:YES;
#BPMS:0.000=140.000
;
#STOPS:
;
#BGCHANGES:;
#KEYSOUNDS:;
#ATTACKS:;

//---------------dance-single - ----------------
#NOTES:
     dance-single:
     :
     Easy:
     5:
     0.231,0.244,0.094,0.141,0.000,176.000,12.000,18.000,0.000,0.000,0.000,0.231,0.244,0.094,0.141,0.000,176.000,12.000,18.000,0.000,0.000,0.000:
0000
0000
0000
0000
,
0000
0000
0000
0000
,
0000
0000
0000
0000
,
0100
0100
0000
0010
,
0100
0000
1000
0001
,
0100
0000
0001
1000
,
0100
0000
0010
0100
,
1000
0000
0010
0100
,
0001
0000
1000
1000
,
0010
0000
1000
0010
,
0100
0000
0001
0010
,
0100
0000
0010
0100
,
0010
0010
0010
0000
,
0001
0010
0100
0000
,
0000
1000
1000
1000
,
0001
1000
0001
1000
,
0010
0010
0010
0000
,
1000
0010
0100
0000
,
0000
0010
0100
0010
,
1000
0001
1000
0000
,
0002
0000
0010
0000
,
0100
0000
0013
0000
,
0020
0000
0100
0000
,
1000
1030
0000
0110
,
0100
1000
0000
0110
,
0100
0001
0000
1001
,
1000
0100
0000
1001
,
0001
0100
0010
1010
,
1000
0001
0000
0011
,
0001
1000
0000
0001
,
1000
0000
0000
1000
0000
0000
1000
0000
,
0001
0000
0001
1000
,
0020
0000
1000
0000
,
2030
0000
0000
3010
0000
0000
1000
0000
,
0002
0000
0010
0000
,
2003
0000
0000
3100
0000
0000
1000
0000
,
0020
0000
0100
0000
,
0230
0000
0301
0100
,
0002
0000
2003
0000
,
3020
0000
0100
0000
,
0130
0000
0000
0000
0000
0010
0000
0000
,
0010
0000
0000
0000
0000
1000
0000
0000
,
1000
0000
0000
0001
0000
0000
1000
0000
,
0100
0100
0100
0010
,
0100
0000
0000
0000
0000
1000
0000
0000
,
1000
0000
0000
0000
0000
0001
0000
0000
,
0001
0000
0000
0100
0000
0000
0001
0000
,
2000
0000
0001
0000
,
3002
0000
0010
0000
,
0100
0000
0013
0000
,
0020
0000
0001
0000
,
0100
0000
1000
0000
,
0000
1030
0000
0110
,
0100
1000
0000
0110
,
0100
0001
0000
1001
,
0001
0100
0000
1001
,
1000
0100
0010
0011
,
0001
0000
0000
1000
0000
0000
0000
0001
,
0000
0001
0000
0000
0000
0000
0010
0000
,
0100
0000
0000
0100
0000
0100
0000
0000
,
0100
0000
1000
0000
,
0200
0000
1000
0000
,
0010
0000
0001
0000
,
2300
0000
0010
0000
,
0001
0000
0100
0000
,
3002
0000
0010
0000
,
1000
0000
0100
0000
,
0023
0000
0100
0000
,
1000
1000
0000
0031
,
0011
0000
0000
0000
;

//---------------dance-single - ----------------
#NOTES:
     dance-single:
     :
     Medium:
     8:
     0.399,0.352,0.141,0.165,0.184,317.000,18.000,21.000,0.000,0.000,0.000,0.399,0.352,0.141,0.165,0.184,317.000,18.000,21.000,0.000,0.000,0.000:
1000
0000
0000
0100
0000
0000
1000
0000
0000
0000
0001
0000
0000
0001
0000
0000
,
0010
0000
0000
0010
0000
0000
0100
0000
0000
0000
0010
0000
0000
0010
0000
0000
,
0001
0000
0000
0100
0000
0000
0001
0000
0000
0000
0100
0000
0000
0100
0000
0000
,
0010
0010
1000
0001
,
1000
0000
0100
0000
1000
0100
1000
0000
,
0010
0000
1000
0000
0010
1000
0010
0000
,
0100
0000
0001
0000
0100
0001
0100
0000
,
0001
0000
0010
0000
0001
0010
0001
0000
,
0010
0000
0010
0000
0100
1000
0001
0000
,
0100
0000
0100
0000
0010
1000
0001
0000
,
1000
0000
0000
1000
0000
0000
1000
0000
0000
0000
0001
0000
0000
0001
0000
0000
,
0010
0000
0000
0010
0000
0000
0010
0000
0000
0000
0000
0000
0110
0000
0000
0000
,
0000
0010
0002
0000
0203
0000
0310
0000
,
0000
0000
0100
0000
0000
0001
0000
0000
1000
0000
0000
0000
1001
0000
0000
0000
,
0000
0000
0000
0000
1000
0000
0000
0000
0010
0000
0000
0100
0000
0000
0110
0000
,
0000
0100
0001
0000
0010
0001
0100
0000
,
0000
0010
0200
0000
0302
0000
1003
0000
,
0000
0000
0001
0000
0000
0010
0000
0000
0100
0000
0000
0000
0110
0000
0000
0000
,
0000
0000
0100
0000
0000
1000
0000
0000
0100
0000
0000
0010
0000
0000
0001
0000
,
0100
0000
0000
0100
0000
0000
0110
0000
0000
0000
0000
0000
0010
0000
0000
0000
,
2000
0010
0010
0001
,
3002
0100
0100
1003
,
2000
0010
0010
0001
,
3001
0000
0000
0000
0110
0000
0000
0000
0000
0000
0010
0000
0000
1000
0000
0000
,
0010
0000
0000
0100
0000
0000
0000
0000
0000
0000
0100
0000
0000
0001
0000
0000
,
0010
0000
0000
0110
0000
0000
0000
0000
0000
0000
0100
0000
0000
1000
0000
0000
,
0010
0000
0000
0100
0000
0000
0000
0000
0000
0000
0010
0000
0000
1000
0000
0000
,
0001
0000
0000
0010
0000
0000
0100
0000
0000
0000
0010
0000
0000
0100
0000
0000
,
1000
0000
0000
0001
0000
0000
0000
0000
0000
0000
0100
0000
0000
0001
0000
0000
,
0010
0000
0000
0110
0000
0000
0000
0000
0000
0000
0010
0000
0000
0001
0000
0000
,
0100
0000
0000
0100
0000
0000
0110
0000
0000
0000
0010
0000
1000
0000
0000
0000
,
1001
0000
0001
0000
0010
0100
0010
0000
,
0200
0000
0000
0000
1000
0010
0000
0000
,
2300
0000
0000
3002
0000
0000
0203
0000
,
0320
0000
0000
0000
1000
0100
0000
0000
,
0230
0000
0000
0302
0000
0000
2003
0000
,
3200
0000
0000
0000
0010
0001
0000
0000
,
0320
0000
0000
0000
0001
0100
0000
0000
,
0032
0000
0000
0000
1000
0010
0000
0000
,
0203
0010
0010
0000
0000
0010
0310
0000
,
1001
0000
1000
0000
1000
0010
0100
0001
,
1000
0000
1000
0000
1000
0100
0010
0001
,
1000
0000
0000
1010
0000
0000
0110
0000
,
0100
0000
0100
0000
0100
0001
0010
0100
,
1000
0000
1000
0000
1000
0001
1000
0100
,
0010
0000
0010
0000
0010
0100
1000
0001
,
1000
0000
1000
0000
1000
0010
0100
0001
,
1000
0001
0001
0000
0100
0010
0010
0000
,
0000
0000
0000
0000
1000
0000
0010
0000
0100
0000
0000
0001
0000
0000
0010
0000
,
0100
0000
0000
1000
0000
0000
0010
0000
0100
0000
0000
0001
0000
0000
0000
0000
,
0000
0000
0000
0000
1000
0000
0100
0000
0010
0000
0000
0001
0000
0000
0100
0000
,
0010
0000
0000
1000
0000
0000
0100
0000
0010
0000
0001
0000
0100
0000
0000
0000
,
0010
0000
1000
0000
1001
0000
0000
0000
0000
0000
0001
0000
0000
0010
0000
0000
,
0100
0000
0000
0010
0000
0000
0000
0000
0000
0000
0001
0000
0000
0010
0000
0000
,
0100
0000
0000
1100
0000
0000
0000
0000
0000
0000
1000
0000
0000
0001
0000
0000
,
0100
0000
0000
0001
0000
0000
0000
0000
0000
0000
0010
0000
0000
0100
0000
0000
,
1000
0000
0000
0010
0000
0000
0110
0000
0000
0000
0100
0000
0000
0100
0000
0000
,
0002
0000
0000
1000
0000
1000
0000
0010
,
0000
0000
0010
0000
0000
0000
0000
0000
1003
0000
0001
0000
0000
0001
0000
0000
,
0100
0000
0000
0100
0000
0000
0110
0000
0000
0000
0100
0000
0000
0100
0000
0000
,
0110
0000
0010
0000
0010
1000
0001
0010
,
0100
0000
1000
0000
0100
1000
0100
0000
,
1000
0000
0010
0000
1000
0010
1000
0000
,
0100
0000
0010
0000
0100
0010
0100
0000
,
1000
0100
0010
0000
0001
1000
0001
0000
,
0100
0000
0001
0000
0100
0001
0100
0000
,
0001
0000
0010
0000
0001
0010
0001
0000
,
0000
0000
0010
0000
0100
0000
1000
0000
0001
0000
0000
0001
0000
0000
0001
0000
,
2000
0010
0000
0100
,
3001
0000
0000
0000
;

//---------------dance-single - ----------------
#NOTES:
     dance-single:
     :
     Beginner:
     3:
     0.122,0.162,0.039,0.126,0.000,88.000,5.000,16.000,0.000,0.000,0.000,0.122,0.162,0.039,0.126,0.000,88.000,5.000,16.000,0.000,0.000,0.000:
0000
0000
0000
0000
,
0000
0000
0000
0000
,
0000
0000
0000
0000
,
0000
0010
0000
0000
,
1000
0000
0000
0000
,
1000
0000
0000
0000
,
0001
0000
0000
0000
,
0001
0000
0000
0000
,
0010
0000
0000
0000
,
0001
0000
0000
0000
,
0100
0000
0000
0000
,
0010
0000
0000
0000
,
1000
0000
1000
0000
,
1000
0000
0000
0000
,
0001
0000
0000
0000
,
0001
0000
0000
0000
,
1000
0000
1000
0000
,
1000
0000
0000
0000
,
0100
0000
0000
0000
,
0100
0000
0000
0000
,
0020
0000
0000
0000
,
0032
0000
0000
0000
,
0203
0000
0000
0000
,
0300
0010
0000
0000
,
1000
0000
0000
0000
,
1000
0000
0000
0000
,
0001
0000
0000
0000
,
0001
0000
0000
0000
,
0010
0000
0000
0000
,
0010
0000
0000
0000
,
0100
0000
0100
0000
,
0100
0000
0000
0000
,
2000
0000
0000
0000
,
3001
0000
0000
0001
0000
0000
0000
0000
,
0002
0000
0000
0000
,
0013
0000
0000
0010
0000
0000
0000
0000
,
0020
0000
0000
0000
,
0230
0000
0000
0000
,
2300
0000
0000
0000
,
3020
0000
0000
0000
,
0030
0000
0000
0000
,
0110
0000
0000
0000
,
1001
0000
0001
1000
,
0000
0000
0000
0000
,
1001
0000
0000
0000
,
0110
0000
0000
0000
,
0110
0000
0010
0000
,
0200
0000
0000
0000
,
0302
0000
1003
0000
,
0002
0000
1003
0000
,
0200
0000
0310
0000
,
0200
0000
0310
0000
,
0000
0010
0000
0000
,
1000
0000
1000
0000
,
1000
0000
0000
0000
,
0001
0000
0001
0000
,
0001
0000
0000
0000
,
0020
0000
0000
0000
,
0230
0000
0000
0000
,
1300
0000
1000
0001
,
0001
0000
0000
0001
,
0010
0000
0010
0000
,
0010
0000
0000
0000
,
0100
0000
0100
0000
,
0100
0000
0000
0000
,
1000
0000
1000
0000
,
1000
0000
0000
0000
,
0001
0000
0001
0000
,
0001
0010
0000
0010
,
0100
0000
0000
0000
;

//---------------dance-single - ----------------
#NOTES:
     dance-single:
     :
     Hard:
     17:
     0.852,0.785,0.416,0.149,0.989,688.000,53.000,19.000,0.000,0.000,0.000,0.852,0.785,0.416,0.149,0.989,688.000,53.000,19.000,0.000,0.000,0.000: // measure 0
1000
0000
0010
1000
0001
0000
0010
0000
0100
0010
0100
0000
0010
0100
1000
0000
,  // measure 1
0001
0000
1000
0001
0010
0000
0100
0000
0010
0001
0010
0000
0001
0100
0001
0000
,  // measure 2
0100
0000
0010
0100
0001
0000
1000
0000
0001
1000
0001
0000
0010
0001
0010
0000
,  // measure 3
0100
0000
0010
0001
0200
0000
0000
0000
0310
0000
0010
0000
0100
0010
1000
0000
,  // measure 4
0001
1000
0001
1000
0001
1000
0001
1000
0010
0100
0001
0000
1000
0001
0010
0000
,  // measure 5
0100
0010
0100
0010
0100
0010
0100
0010
0001
0100
0010
0000
0100
0010
0100
0000
,  // measure 6
0010
0100
0010
0100
0010
0100
0010
0100
0001
0010
0100
0000
0010
1000
0001
0000
,  // measure 7
1000
0001
1000
0001
1000
0001
1000
0001
0100
1000
0010
0000
0100
0010
0000
0010
,  // measure 8
1000
0100
1000
0100
1000
0100
1000
0100
0010
0100
1000
0000
1000
0001
0000
0001
,  // measure 9
0100
0001
0100
0001
0100
0001
0100
0001
0010
0100
1000
0000
0010
0100
0000
0010
,  // measure 10
0110
0000
0000
0110
0000
0000
0110
0000
0000
0000
0010
0000
1000
0010
0100
0000
,  // measure 11
0110
0000
0000
0110
0000
0000
0110
0000
0000
0000
0100
0000
0001
0100
0010
1000
,  // measure 12
0001
0000
0001
0000
0001
1000
0000
1000
0000
1000
0010
0000
0000
0000
0100
0000
,  // measure 13
0010
0000
0010
0000
0010
1000
0000
1000
0000
1000
0100
0000
0000
0000
0010
0000
,  // measure 14
0100
0000
0100
0000
0100
0010
0000
0010
0000
0010
0001
0000
0000
0000
0100
0000
,  // measure 15
0001
0000
0001
0000
0001
1000
0000
1000
0010
0000
0010
0000
0010
0100
0000
0100
,  // measure 16
0010
0000
0010
0000
0010
1000
0000
1000
0000
1000
0001
0000
0000
0000
0001
0000
,  // measure 17
0100
0000
0100
0000
0100
1000
0000
1000
0000
1000
0001
0000
0000
0000
0001
0000
,  // measure 18
0010
0000
0010
0000
0010
1000
0000
1000
0000
1000
0001
0000
0000
0000
0010
0000
,  // measure 19
0100
0000
0100
0000
0100
1000
0000
1000
0010
0000
0010
0000
0010
0100
0000
0100
,  // measure 20
0001
0000
1000
0001
1000
0000
0001
1000
0010
0100
0010
0000
0010
0100
0001
0000
,  // measure 21
0001
0000
0010
0001
0010
0000
0001
0010
0100
1000
0001
0000
0001
0100
0010
0000
,  // measure 22
1000
0000
0010
1000
0010
0000
0100
0001
0010
0100
1000
0000
1000
0010
0100
0001
,  // measure 23
0100
0000
0010
0100
0002
0000
0000
0000
1003
0000
1010
0000
0000
0010
0000
0000
,  // measure 24
0100
0010
0100
0010
0100
0010
0100
0010
0100
0001
0010
0000
0000
0110
0000
0000
,  // measure 25
0100
1000
0100
1000
0100
1000
0100
1000
0100
0010
0001
0000
0000
1001
0000
0000
,  // measure 26
1000
0010
1000
0010
1000
0010
1000
0010
0100
0010
0001
0000
0000
0011
0000
0000
,  // measure 27
0010
1000
0010
1000
0100
1000
0001
0000
0100
0000
0101
0000
0000
1001
0000
0000
,  // measure 28
1000
0010
1000
0010
1000
0010
1000
0010
1000
0100
0010
0000
0000
0011
0000
0000
,  // measure 29
0001
0100
0001
0100
0001
0100
0001
0100
0001
0010
0100
0000
0000
0110
0000
0000
,  // measure 30
0011
0000
0000
0011
0000
0000
0011
0000
0000
0000
0010
0000
0100
1000
0010
0000
,  // measure 31
1010
0000
0000
0000
1001
0000
0000
0000
0001
0000
0010
0001
0100
0010
1000
0001
,  // measure 32
0020
0000
0100
0000
0100
1000
0000
1000
0000
1000
0130
0000
0000
0000
0010
0000
,  // measure 33
0002
0000
1000
0000
1003
0001
0020
0100
0000
0100
1030
0000
0002
0000
0000
0000
,  // measure 34
2003
0000
0010
0000
0010
0001
0000
0001
0000
0001
3100
0000
0000
0000
1000
0000
,  // measure 35
0020
0000
0100
0000
0130
0010
2000
0001
0000
0001
3100
0000
0200
1000
0000
1000
,  // measure 36
0320
0000
0001
0000
0001
0100
0000
0100
0000
0100
0031
0000
0000
0000
0010
0000
,  // measure 37
0200
0000
1000
0000
1000
0010
0000
0010
0000
0010
1300
0000
0000
0000
0100
0000
,  // measure 38
2000
0000
0001
0000
0001
0010
0000
0010
0000
0010
3100
0000
0000
0000
1000
0000
,  // measure 39
0200
0000
0010
0000
0010
1300
0000
0000
2000
0000
0001
0000
0001
3010
0000
0000
,  // measure 40
1000
0010
1000
0001
0010
0100
1000
0100
,  // measure 41
1000
0000
0010
0000
0000
0110
0000
0000
0100
0000
0001
0000
0010
0000
0100
0000
,  // measure 42
0110
0010
0001
0011
0001
0100
0101
0100
,  // measure 43
0010
0000
1000
0000
0010
1000
0000
1000
0001
0000
0010
0000
0100
0000
1000
0000
,  // measure 44
1100
0000
1000
0000
0001
0100
0000
0100
0000
0000
0010
0000
1000
0000
0100
0000
,  // measure 45
0010
0000
0001
0000
0010
0001
0000
0001
0000
0000
0100
0000
0001
0000
0010
0000
,  // measure 46
0100
0000
0110
0000
0000
0110
0000
0000
0100
0000
0000
1100
0000
0000
1001
0000
,  // measure 47
0201
0000
0001
0000
0001
0010
0000
0000
0010
0000
0010
0000
0010
1300
0000
0000
,  // measure 48
0010
0000
0010
0100
0001
0000
0100
0001
0100
0000
0001
0100
0001
0000
1000
0001
,  // measure 49
1000
0000
0001
1000
0001
0000
1000
0100
1000
0000
0100
1000
0100
0000
1000
0010
,  // measure 50
0100
0000
0010
0100
0010
0000
0100
0001
0100
0000
0001
0100
0001
0000
1000
0001
,  // measure 51
1000
0000
0001
1000
0001
0000
1000
0010
1000
0010
1000
0000
0010
0100
0001
0000
,  // measure 52
1000
0000
1000
0001
0020
0000
0000
0000
0130
0000
0110
0000
0000
0011
0000
0000
,  // measure 53
0001
0100
0001
0100
0001
0100
0001
0100
0001
0010
0100
0000
0000
0110
0000
0000
,  // measure 54
0010
0100
0010
0100
0010
0100
0010
0100
0010
0001
0100
0000
0000
0101
0000
0000
,  // measure 55
0100
0010
0100
0010
0100
0010
0100
0010
1000
0010
0100
0000
0000
0110
0000
0000
,  // measure 56
0100
0001
0100
0001
0010
0001
1000
0000
0010
0100
0010
0000
0100
0010
0000
0010
,  // measure 57
1000
0001
1000
0001
1000
0001
0010
0100
0010
0100
1000
0100
1000
0100
0010
0100
,  // measure 58
0010
0100
1000
0001
1000
0000
0001
0010
0100
1000
0001
0000
0000
0100
0000
0000
,  // measure 59
0101
0000
0000
1010
0000
0000
0101
0000
0000
0000
0011
0000
0000
1100
0000
0000
,  // measure 60
0011
0000
0001
1000
0001
0000
1000
0000
0010
0000
0100
0000
0010
1000
0001
0000
,  // measure 61
1000
0000
0001
0010
0001
0000
0010
0001
0010
0001
0010
0000
0001
0010
0100
0000
,  // measure 62
1000
0000
0010
1000
0010
0000
1000
0010
1000
0010
1000
0000
0010
1000
0100
0000
,  // measure 63
0010
0000
0100
1000
0100
0000
1000
0100
1000
0100
1000
0000
0100
1000
0001
0000
,  // measure 64
0100
0000
0001
0100
0002
0000
1000
0000
0103
0001
0100
0000
0001
0010
0100
0000
,  // measure 65
1100
0000
0000
1100
0000
0000
1001
0000
0000
0000
1001
0000
0000
1001
0000
0000
,  // measure 66
0101
0000
0000
0101
0000
0000
0110
0000
0000
0000
0110
0000
0000
0110
0000
0000
,  // measure 67
0010
0000
1000
0000
0001
0000
0010
0000
0100
0000
0000
0110
0000
0000
0110
0000
,  // measure 68
0010
0000
0001
0100
0020
0000
0000
0000
1030
0000
1000
0000
1000
0010
0000
0000
,  // measure 69
0110
0000
0000
0000
;
