#VERSION:0.81;
#TITLE:LOVE ME!;
#SUBTITLE:;
#ARTIST:Dj D-dog;
#TITLETRANSLIT:;
#SUBTITLETRANSLIT:;
#ARTISTTRANSLIT:;
#GENRE:Hardcore;
#ORIGIN:;
#CREDIT:;
#BANNER:LOVE ME!.png;
#BACKGROUND:LOVE ME!-bg.png;
#PREVIEWVID:;
#JACKET:LOVE ME!-jacket.png;
#CDIMAGE:;
#DISCIMAGE:;
#LYRICSPATH:;
#CDTITLE:;
#MUSIC:LOVE ME!.mp3;
#OFFSET:-5.360;
#SAMPLESTART:32.000;
#SAMPLELENGTH:15.000;
#SELECTABLE:YES;
#BPMS:0.000=180.000;
#STOPS:;
#DELAYS:;
#WARPS:;
#TIMESIGNATURES:0.000=4=4;
#TICKCOUNTS:0.000=4;
#COMBOS:0.000=1;
#SPEEDS:0.000=1.000=0.000=0;
#SCROLLS:0.000=1.000;
#FAKES:;
#LABELS:0.000=Song Start;
#BGCHANGES:;
#KEYSOUNDS:;
#ATTACKS:
;

//---------------dance-single - ----------------
#NOTEDATA:;
#CHARTNAME:;
#STEPSTYPE:dance-single;
#DESCRIPTION:;
#CHARTSTYLE:;
#DIFFICULTY:Beginner;
#METER:4;
#RADARVALUES:0.230,0.310,0.030,0.277,0.000,132.000,3.000,28.000,0.000,0.000,0.000,0.000,0.000,0.230,0.310,0.030,0.277,0.000,132.000,3.000,28.000,0.000,0.000,0.000,0.000,0.000;
#CREDIT:;
#NOTES:
1000
0001
0000
0000
,
1000
0000
0000
0010
,
1000
0001
0000
0000
,
1000
0000
0000
0010
,
1000
0100
0000
0000
,
0010
0000
0000
0001
,
0100
0010
0000
0000
,
1000
0000
0000
0010
,
1000
0001
0000
0000
,
0100
0000
0001
0001
,
0100
0000
0000
0000
,
1000
0000
0000
0010
,
1000
0000
0000
0000
,
0001
0000
0100
0100
,
0001
0000
0000
0000
,
1000
0000
0000
0001
,
1000
0000
0000
0000
,
0100
0000
1000
0001
,
0200
0000
0000
0000
,
0000
0000
0000
0000
,
0310
0010
0010
0000
,
2000
3000
0000
0000
0200
0300
0000
0000
,
0002
0003
0000
0000
0000
0000
0010
0000
,
0000
0000
2000
3000
,
0000
0010
0010
0010
,
2000
3000
0000
0000
0200
0300
0000
0000
,
0022
0003
0000
0000
0000
0000
0000
0000
,
0032
0000
1000
0000
,
0103
0100
0000
1000
,
0100
0100
0000
0001
,
0100
0100
0000
0010
,
1000
1000
0001
0001
,
0100
0000
1000
1000
,
0010
0000
0001
0001
,
0100
0000
0001
0000
,
2000
0000
0000
0000
3200
0300
0000
0000
,
0020
0031
0000
0001
,
0000
0001
0000
0001
,
0000
0100
0000
0100
,
0000
0100
0000
0100
,
0000
1000
0000
0001
,
0000
1000
0000
0001
,
0000
0100
0100
0010
,
0000
1000
0001
1000
,
0020
0000
0030
0000
,
0000
0000
0000
0000
,
0000
0000
0000
0000
,
0000
0000
0000
0000
,
0020
0000
0030
0000
,
0000
0000
0000
0000
,
0000
0000
1000
0000
0000
0001
0000
0000
,
1000
1000
1000
1000
,
1001
0000
0000
0000
,
0010
0000
1000
1000
,
0200
0000
0000
0000
0302
0003
0000
0000
,
2200
3000
0000
0000
0310
0000
0000
0000
,
2000
0000
0000
3000
0000
0000
0000
0000
,
0001
0000
1000
1000
,
0002
0000
0000
0000
0000
0000
0000
0000
0000
0000
0000
0000
0000
0000
0000
0000
0000
0000
0000
0000
0000
0000
0000
0000
0000
0000
0000
0000
0000
0000
0000
0000
0000
0000
0000
0000
0000
0000
0000
0000
0000
0000
0000
0000
0000
0000
0000
0000
0203
0000
0000
0000
0000
0000
0000
0300
0000
0000
0000
0000
0000
0000
0000
0000
0000
0000
0000
0000
0000
0000
0000
0000
0000
0000
0000
0000
0000
0000
0000
0000
0000
0000
0000
0000
0000
0000
0000
0000
0000
0000
0000
0000
0000
0000
0000
0000
,
0020
0000
0000
0000
0230
0300
0000
0000
,
2000
0000
0000
3000
0000
0000
0000
0000
,
0100
0000
0001
0001
,
0010
0000
0000
0000
,
1000
0000
0001
1000
,
0002
0003
0000
0000
,
0010
0000
0010
1000
,
0200
0000
0000
0000
,
0000
0000
0000
0000
,
0002
0300
0000
0000
0000
0000
0000
0000
,
0000
0000
0000
0000
0000
0003
0000
0000
,
0000
0000
0000
0000
,
0000
0000
0000
0000
;

//---------------dance-single - ----------------
#NOTEDATA:;
#CHARTNAME:;
#STEPSTYPE:dance-single;
#DESCRIPTION:;
#CHARTSTYLE:;
#DIFFICULTY:Easy;
#METER:6;
#RADARVALUES:0.301,0.269,0.030,0.079,0.000,202.000,3.000,8.000,0.000,0.000,0.000,0.000,0.000,0.301,0.269,0.030,0.079,0.000,202.000,3.000,8.000,0.000,0.000,0.000,0.000,0.000;
#CREDIT:;
#NOTES:
1000
0010
0000
0010
,
0100
0001
0000
0001
,
0010
0100
0000
0100
,
2000
0000
0000
0000
,
3010
1000
0000
1000
,
0100
0010
0000
0010
,
0100
1000
0000
1000
,
0002
0000
0000
0000
,
0103
0010
0000
0010
,
1000
0001
0000
0001
,
0010
0100
0000
0100
,
2000
0000
0000
0000
,
3010
1000
0100
0001
,
0010
0001
0100
1000
,
0010
1000
0001
0100
,
0010
0010
0020
0000
,
1030
0001
0100
0010
,
0100
0001
1000
0100
,
0020
0000
0000
0000
,
0001
0000
0031
0000
,
0001
0100
0000
0100
,
0010
1000
0000
1000
,
0100
1000
0000
0010
,
0100
0001
1001
0000
,
0010
1000
0000
1000
,
0100
0001
0000
0001
,
0100
1000
0000
1000
,
0010
0010
0010
0010
,
0010
1000
0100
1000
,
0010
0100
0001
0100
,
0010
1000
0001
1000
,
0010
1000
0001
0100
,
0010
1000
0100
1000
,
0010
0100
0001
0100
,
0010
1000
0001
0100
,
0010
1000
0001
1000
,
0010
1000
0100
0010
,
0001
1000
0010
0100
,
0001
0010
0001
0010
,
0100
1000
0100
1000
,
0010
0100
0001
0010
,
0100
0010
0001
1000
,
0010
0100
0001
0010
,
0100
0000
1000
0000
,
0010
0000
0000
0000
,
0100
0000
0000
0000
,
0001
0000
0000
0000
,
1000
0000
0000
0000
,
1010
0000
0000
0000
,
0010
0000
0000
0000
,
0100
0000
0000
0000
,
0001
0001
0001
0001
,
0010
0001
0000
0100
,
0010
1000
0000
0100
,
1000
0001
0000
0100
,
0020
0000
0000
0000
,
1030
0100
0000
0100
,
1000
0010
0000
0010
,
0100
0001
0000
0001
,
0020
0000
0000
0000
,
0031
0100
0010
1000
,
0001
0010
0100
0010
,
0001
1000
0010
0100
,
0001
1000
0100
0010
,
0001
0010
0100
1000
,
0010
0100
0001
0010
,
0200
0000
0000
0000
,
0010
0000
0310
0000
,
1001
0000
0000
0000
,
0000
0000
0000
0000
,
0000
0000
0000
0000
,
0000
0000
0000
0000
;

//---------------dance-single - ----------------
#NOTEDATA:;
#CHARTNAME:;
#STEPSTYPE:dance-single;
#DESCRIPTION:;
#CHARTSTYLE:;
#DIFFICULTY:Medium;
#METER:9;
#RADARVALUES:0.390,0.471,0.079,0.020,0.000,266.000,8.000,2.000,0.000,0.000,0.000,0.000,0.000,0.390,0.471,0.079,0.020,0.000,266.000,8.000,2.000,0.000,0.000,0.000,0.000,0.000;
#CREDIT:;
#NOTES:
1000
0100
0000
0100
,
1000
0010
0000
0010
,
0100
0001
0000
0001
,
0010
0000
0000
0010
0000
0000
0001
0000
,
0100
0000
0010
0000
0000
0010
1000
0000
,
0100
0000
1000
0000
0000
1000
0001
0000
,
0100
0010
1000
0001
,
0010
0000
0000
0010
0000
0000
0001
0000
,
0100
0000
0000
0100
0000
0000
0001
0000
,
0010
0000
0000
0010
0000
0000
0100
0000
,
1000
0000
0000
1000
0000
0000
0001
0000
,
0100
0000
0001
1000
0000
1000
0001
0000
,
0010
0000
0001
0100
0000
0000
0010
0000
,
1000
0000
0100
1000
0000
0000
0010
0000
,
0100
0000
0001
0010
0000
0000
0001
0000
,
0100
0000
0000
0100
0000
0000
0010
0000
,
1000
0000
0100
1000
0000
1000
0100
0000
,
0010
0000
0001
0010
0000
0010
0001
0000
,
2000
0000
0000
0000
,
0001
0000
0000
0001
3000
0000
0000
0000
,
1000
0001
0000
0001
,
0100
0010
1000
0100
,
1000
0010
0000
0010
,
1000
0000
0100
0000
0001
0001
0000
0000
,
0100
0010
1000
0001
,
0010
0000
0010
0000
,
0001
0100
1000
0010
,
0100
0001
0100
0001
1000
0010
1000
0010
,
1000
1100
0001
0101
,
1000
1010
0001
0011
,
0001
0100
0010
1000
0001
0010
0100
0000
,
0010
0001
0100
0010
1000
0001
0010
0000
,
0001
0011
1000
1010
,
0001
0101
1000
1100
,
1000
0010
0100
0001
0100
0010
1000
0000
,
0001
0010
0100
1000
0100
0010
0001
0000
,
0100
0000
0001
0000
0100
0010
1000
0000
,
0001
0000
0010
0000
0100
1000
0100
0000
,
0010
0000
0001
0000
1000
0010
0100
0000
,
0001
0000
0010
0000
0100
1000
0001
0000
,
0100
0000
0010
0000
1000
0001
0010
0000
,
0100
0000
0010
0000
0001
1000
0010
0000
,
0100
0000
0001
0000
0010
0100
1000
0000
,
0100
0000
0010
0001
1000
0000
0010
0000
,
0100
0000
0000
0000
,
0001
0000
0000
0000
,
0010
0000
0000
0000
,
0100
0000
0000
0000
,
1000
1000
0000
0000
0000
0000
0000
0000
,
0010
0000
0000
0000
,
0100
0000
0100
0000
,
0001
0100
0001
0100
0010
1000
0010
1000
,
0010
0000
1000
0000
0000
1000
0010
0000
,
0100
0000
0001
0000
0000
0001
0100
0000
,
0010
0000
1000
0000
0000
1000
0001
0000
,
0010
0000
0100
0000
0000
0100
0010
0000
,
0001
0000
0100
0000
0000
0010
1000
0000
,
0010
0000
0100
0000
0000
0100
0001
0000
,
0010
0000
0001
0000
0000
1000
0100
0000
,
1000
0000
0010
0000
0000
0100
0001
0000
,
0010
0001
0100
0010
,
1000
0000
0100
0000
1000
0010
0100
0000
,
0001
0010
0100
0010
,
0001
0000
0100
0000
0010
1000
0100
0000
,
0010
0001
0100
1000
,
0100
0000
0001
0000
0010
0100
1000
0000
,
0002
0000
0000
0000
,
0103
0000
0010
0000
,
1000
0001
0000
0000
0000
0000
0000
0000
,
0000
0000
0000
0000
,
0000
0000
0000
0000
,
0000
0000
0000
0000
;

//---------------dance-single - ----------------
#NOTEDATA:;
#CHARTNAME:;
#STEPSTYPE:dance-single;
#DESCRIPTION:;
#CHARTSTYLE:;
#DIFFICULTY:Hard;
#METER:12;
#RADARVALUES:0.500,0.471,0.109,0.010,0.005,342.000,11.000,1.000,0.000,0.000,0.000,0.000,0.000,0.500,0.471,0.109,0.010,0.005,342.000,11.000,1.000,0.000,0.000,0.000,0.000,0.000;
#CREDIT:;
#NOTES:
1000
0000
0010
0000
0000
1000
0010
0000
,
0100
0000
0001
0000
0000
0100
0001
0000
,
0010
0000
0001
0000
0000
0010
0001
0000
,
1000
0000
0100
0000
0000
1000
0100
0000
,
1000
0000
0010
0000
0000
0100
0001
0000
,
1000
0000
0100
0000
0000
0010
0001
0000
,
0100
0000
0010
0000
0000
1000
0001
0000
,
1000
0000
0010
0000
0000
0100
0001
0000
,
1000
0000
0001
0000
0100
0001
1000
0000
,
0100
0000
0010
0000
0100
1000
0010
0000
,
0100
0000
0001
0000
1000
0100
0010
0000
,
0001
0000
1000
0010
0000
0010
0100
0000
,
0001
1000
0010
0100
0001
1000
0100
0000
,
0010
0001
0100
1000
0100
0001
0010
0000
,
0100
1000
0001
0100
0010
1000
0001
0000
,
0010
0000
0100
1000
0000
1000
0001
0000
,
0100
0010
1000
0001
0010
0100
1000
0000
,
0100
0010
0001
1000
0010
0100
0010
0000
,
2000
0000
0000
0000
,
0001
0000
0000
0001
3000
0000
0000
0000
,
1000
0001
0100
0000
0010
0000
1000
0000
,
0100
1000
0000
0000
1000
0100
0000
0000
,
0010
0000
0001
0000
0100
0010
0000
0000
,
0010
0100
0000
0000
0010
1001
0000
0000
,
0001
0000
0010
0000
0100
1000
0000
0000
,
1000
0010
0000
0000
0010
0100
0000
0000
,
0001
0100
0010
0000
1000
0001
0000
0001
,
0010
0100
1000
0001
0100
0010
1000
0001
,
0010
1100
0010
0101
,
0010
1000
0100
0001
0100
1000
0010
0000
,
0100
0011
0100
1010
,
0100
1000
0010
0100
0001
0100
0010
0000
,
1000
0101
1000
0011
,
0001
0100
0010
1000
0001
0010
0100
1000
,
0010
0101
1000
1010
,
0001
0100
0010
1000
0001
0010
0100
1000
,
0010
1000
0001
0000
0001
1000
0010
0000
,
0010
1000
0001
0100
0010
1000
0001
0010
,
0100
1000
0001
0000
0001
1000
0100
0000
,
1000
0010
0100
0001
0010
0100
1000
0010
,
0100
0001
0010
0000
0010
0001
0100
0000
,
0100
0010
1000
0001
0010
0100
1000
0010
,
1000
0100
0001
0000
0001
0010
1000
0000
,
0100
0000
0000
0000
0010
0000
0000
0001
0000
0000
0100
0000
0000
0000
0010
0000
,
1000
0000
0000
0000
,
0010
0000
0000
0000
,
0100
0000
0000
0000
,
0001
0000
0000
0000
,
0010
0011
0000
0000
0000
0000
0000
0000
,
0010
0000
0000
0000
,
1000
0000
0000
0000
,
0100
1000
0100
1000
0001
0100
0010
1000
,
0001
0010
0100
1000
0000
1000
0010
0100
,
0001
1000
0010
0100
0000
0010
1000
0001
,
0010
0000
0100
0010
0000
0010
0001
0000
,
0100
0000
0010
1000
0000
1000
0010
0000
,
1000
0001
0010
0100
0000
0100
0010
0001
,
0100
0010
1000
0001
0000
0001
0010
0100
,
1000
0000
0010
1000
0000
1000
0010
0000
,
0100
0000
0001
0010
0000
0010
0001
0000
,
0100
0010
1000
0001
0010
0100
1000
0000
,
1000
0001
0100
0010
1000
0001
0010
0000
,
0100
0000
1000
0010
0000
0010
1000
0000
,
0001
0000
0100
0001
0000
0001
0100
0000
,
0001
0010
0100
1000
0000
0000
1000
0001
,
0100
0010
1000
0001
0000
0001
1000
0010
,
0100
0000
0000
0010
,
1000
0100
0010
0001
,
0010
1001
0000
0000
0000
0000
0000
0000
,
0000
0000
0000
0000
,
0000
0000
0000
0000
,
0000
0000
0000
0000
;

//---------------dance-single - ----------------
#NOTEDATA:;
#CHARTNAME:;
#STEPSTYPE:dance-single;
#DESCRIPTION:;
#CHARTSTYLE:;
#DIFFICULTY:Challenge;
#METER:18;
#RADARVALUES:1.000,0.975,0.465,0.000,0.835,682.000,47.000,0.000,0.000,0.000,0.000,0.000,0.000,1.000,0.975,0.465,0.000,0.835,682.000,47.000,0.000,0.000,0.000,0.000,0.000,0.000;
#CREDIT:RIME;
#NOTES:
// measure 0
0010
0000
1000
0000
0001
0000
0010
0000
0100
1000
0010
0000
0100
0001
0100
0000
,  // measure 1
0010
0000
1000
0000
0100
0000
0010
0000
0001
0100
0001
0000
0100
0010
0100
0000
,  // measure 2
0010
0000
1000
0000
0001
0000
0100
0000
0010
1000
0100
0000
0100
0010
0001
0000
,  // measure 3
1000
0000
0001
0000
0100
0000
0001
0000
1000
0100
1000
0000
0100
0010
0100
0000
,  // measure 4
1000
0000
0001
0000
0100
0000
0001
0000
1000
0010
1000
0000
0010
0100
0010
0000
,  // measure 5
0100
0000
0001
0000
1000
0000
0100
0000
0010
0001
0010
0000
0001
1000
0001
0000
,  // measure 6
1000
0000
0100
0000
0010
0000
0100
0000
1000
0001
0010
0000
0010
0001
0100
0000
,  // measure 7
0001
0000
0010
0000
0001
0000
1000
0000
0010
1000
0100
0000
0100
0010
0001
0100
,  // measure 8
1000
0000
0100
0000
0010
0000
1000
0000
0010
0100
0001
0000
0001
1000
0100
0000
,  // measure 9
1100
0000
0100
0000
1000
0000
1100
0000
0100
0010
0001
0000
0001
0100
0010
0000
,  // measure 10
1000
0000
0010
0000
0100
0000
0001
0000
1000
0001
0100
0000
0010
0100
1000
0000
,  // measure 11
0100
0000
0001
0000
0010
0000
0100
0000
1000
0001
0100
0000
0010
1000
0010
0000
,  // measure 12
1010
0000
1000
0000
0001
0000
1000
0000
0100
0010
0001
0000
0001
1000
0100
0000
,  // measure 13
1001
0000
1000
0000
0010
0000
1010
0000
1000
0100
0010
0000
0001
0100
0010
0000
,  // measure 14
0110
0000
0010
0000
1000
0000
1100
0000
0100
0010
0001
0000
0001
0100
1000
0000
,  // measure 15
0100
0000
0010
0000
1000
0000
0100
0000
0001
0100
0010
0000
0001
1000
0100
1000
,  // measure 16
0001
0000
1000
0000
0100
0000
0010
0000
0100
1000
0010
0000
1000
0001
0100
0000
,  // measure 17
0101
0000
0001
0000
0010
0000
0110
0000
0100
1000
0010
0000
0010
0100
0001
0000
,  // measure 18
0101
0000
0000
0000
0000
0000
1001
0000
0011
0000
0110
0000
,  // measure 19
1100
1000
0000
0110
0001
0000
1001
0000
,  // measure 20
1000
0000
0010
0000
1000
0000
0001
0000
0100
1000
0100
0000
0100
0000
0001
0000
,  // measure 21
0010
0100
1000
0001
0100
1000
0001
0010
,  // measure 22
1000
0010
1000
0100
1000
0010
1000
0100
,  // measure 23
0010
0001
0100
0001
1000
0100
1000
0010
,  // measure 24
1000
0001
1000
0000
0010
0000
1000
0001
1000
0000
0010
0000
1000
0001
1000
0000
,  // measure 25
0001
1000
0001
0000
0010
0000
0001
1000
0001
0000
0010
0000
0001
1000
0001
0000
,  // measure 26
1000
0100
1000
0000
0001
0100
0001
0000
1000
0100
1000
0000
0001
0100
0001
0000
,  // measure 27
1000
0000
0010
0000
0100
0000
0001
1000
0100
0000
0010
0000
0001
0100
0001
0100
,  // measure 28
0010
0000
0000
0010
1000
0000
0000
1000
0100
0000
0000
0100
0001
0000
0000
0100
,  // measure 29
0010
0001
0010
0000
0001
0100
0000
0100
0010
0000
0010
1000
0000
1000
0100
0000
,  // measure 30
1000
0000
0000
0001
1000
0000
0000
1000
0100
0000
0000
0100
0010
0000
0000
0100
,  // measure 31
1000
0000
0000
0001
1000
0000
0000
1000
0001
0000
0010
0000
0100
0010
0000
0010
,  // measure 32
0100
0000
0010
0000
0100
1000
0000
1000
0001
0000
0001
0000
0001
1000
0000
0000
,  // measure 33
0010
1000
0010
0000
1000
0100
0000
0100
0001
0000
0100
0000
0010
0001
0000
0001
,  // measure 34
0100
0000
0000
0010
1000
0000
0000
0100
1000
0000
0000
0001
1000
0000
0000
0001
,  // measure 35
0010
0000
0100
0000
0010
0000
0100
0000
1000
0000
0001
0000
1000
0010
0100
0001
,  // measure 36
1000
0000
0100
0000
1000
0000
0001
0010
0100
1000
0010
0000
0100
0010
0000
0000
,  // measure 37
1000
0000
0001
0000
1000
0000
0001
0100
1000
0100
0010
0000
1000
0001
1000
0001
,  // measure 38
0100
0000
0010
0000
1000
0000
0100
0010
0001
0100
1000
0000
0100
0010
0100
0010
,  // measure 39
1000
0000
0100
0000
0010
0000
0100
1000
0001
0010
0100
0000
0010
0001
1000
0010
,  // measure 40
1000
0000
0010
0000
1010
0000
1000
0100
0010
1000
0010
0000
0100
1000
0001
0010
,  // measure 41
0001
0100
0001
0000
1000
0001
0000
0001
1000
0100
1000
0100
0010
0100
0010
0100
,  // measure 42
1000
0000
0001
0000
0101
0000
0001
0010
0100
0001
0100
0000
0100
1000
0010
0100
,  // measure 43
0001
0000
1000
0000
0001
0000
0100
0010
1000
0100
0010
0000
0100
1000
0010
0100
,  // measure 44
0001
0000
1000
0000
0001
0000
1000
0001
1000
0001
1000
0000
0010
0100
0010
0000
,  // measure 45
0100
0000
0001
0000
0010
0000
0100
1000
0100
1000
0100
0000
1000
0001
1000
0000
,  // measure 46
0001
0000
1000
0000
0001
0000
1000
0001
1000
0001
1000
0000
0010
0100
0010
0000
,  // measure 47
0100
0000
1000
0000
0100
0000
0010
1000
0010
1000
0010
0000
1000
0100
0010
0001
,  // measure 48
1000
0000
0001
0000
0100
0000
0001
1000
0100
1000
0100
0000
0100
0010
0100
0010
,  // measure 49
0001
0000
1000
0000
0010
0000
1000
0010
1000
0010
0100
0000
0001
0010
0001
0010
,  // measure 50
0100
1000
0100
0000
1000
0010
1000
0010
0100
0001
0100
0000
0001
0010
0001
0010
,  // measure 51
0110
0000
0110
0000
0110
0000
1000
0001
0100
0000
0110
0000
0100
0001
1000
0100
,  // measure 52
0110
0100
0010
0110
0100
1000
0001
0100
,  // measure 53
0101
0100
0001
0011
0010
0100
1000
0010
,  // measure 54
1010
1000
0010
0110
0100
0001
1000
0100
,  // measure 55
0110
0000
0010
0000
0100
0000
0101
0000
0100
0000
0010
0000
0001
0100
1000
0100
,  // measure 56
0001
1000
0100
1000
0010
0100
0001
0010
,  // measure 57
0110
0000
0100
0000
0010
0000
0011
0000
0001
1000
0100
0000
0100
1000
0001
1000
,  // measure 58
0001
0000
0100
0000
0110
0000
0010
0000
0100
0000
0110
0000
0010
1000
0100
0001
,  // measure 59
0100
0000
0010
0000
0001
0000
0100
0001
0100
0000
0001
0000
1000
0100
0010
0001
,  // measure 60
1000
0000
0010
0000
1010
0000
1000
0000
0100
0000
1100
0000
0100
0010
0001
1000
,  // measure 61
0100
0000
0010
0000
0011
0000
0001
0000
0010
0000
0011
0000
0010
0100
1000
0010
,  // measure 62
0100
0000
0001
0000
0101
0000
0001
0000
1000
0000
1001
0000
1000
0100
0010
0100
,  // measure 63
1000
0000
0001
0000
1000
0000
1001
0000
0001
0000
1001
0000
1000
0100
1000
0100
,  // measure 64
0010
0000
0100
0000
1000
0000
1001
0000
0001
0000
0101
0000
0100
0010
0100
0010
,  // measure 65
1000
0100
1100
0100
0001
0101
0100
1000
,  // measure 66
0010
0100
0001
1000
0100
0010
0001
1000
,  // measure 67
0001
1000
0010
0100
0001
1000
0010
0100
,  // measure 68
0101
0000
0000
0000
;
