#TITLE:KID R;
#SUBTITLE:;
#ARTIST:Yu Tokiwa;
#TITLETRANSLIT:;
#SUBTITLETRANSLIT:;
#ARTISTTRANSLIT:;
#GENRE:Techno;
#CREDIT:;
#BANNER:KID R.png;
#BACKGROUND:KID R-bg.png;
#LYRICSPATH:;
#CDTITLE:;
#MUSIC:KID R.mp3;
#OFFSET:-9.340;
#SAMPLESTART:66.440;
#SAMPLELENGTH:15.000;
#SELECTABLE:YES;
#BPMS:0.000=210.000
;
#STOPS:
;
#BGCHANGES:;
#KEYSOUNDS:;
#ATTACKS:;

//---------------dance-single - Blank----------------
#NOTES:
     dance-single:
     Blank:
     Hard:
     12:
     0.503,0.518,0.181,0.247,0.000,376.000,22.000,30.000,0.000,0.000,0.000,0.503,0.518,0.181,0.247,0.000,376.000,22.000,30.000,0.000,0.000,0.000:
1010
0000
0000
0101
0000
0000
0011
0000
,
0000
1100
0000
0000
1010
0000
0101
0000
,
0001
0000
0010
0100
0000
1000
0001
0000
,
0100
0010
0000
1000
0001
0010
0100
1000
,
0001
0000
0100
0000
0010
1000
0100
0000
,
1000
0000
0001
0000
0100
0010
1000
0000
,
0001
0000
0010
0000
0100
0001
0100
0000
,
1000
0000
0010
0000
0100
0001
0010
0000
,
0100
0000
1000
0000
0001
0100
1000
0000
,
0100
0000
0010
0000
1000
0001
0010
0000
,
0100
0000
0001
0000
0100
1000
0001
0000
,
0100
0000
0010
0000
1000
0001
0010
0100
,
1000
0000
0001
0000
0100
0010
0000
0100
,
0000
0001
1000
0100
,
1000
0000
0000
0000
0000
0000
0010
0200
,
0000
0000
0301
0010
,
0200
0000
0000
0000
0000
0000
1300
0002
,
0000
0000
0103
0010
,
2000
0000
0000
0000
0000
3100
1000
0002
,
0000
0203
0000
0320
0000
2030
0001
0001
,
3001
0000
0010
0000
0100
1000
0000
0001
,
0000
0100
0010
1000
,
0001
0000
0000
0000
0010
0100
1000
0001
,
0000
0100
0010
1000
,
0001
0000
0100
0000
0010
1000
0100
1000
,
0000
0010
0100
0001
,
2000
0000
0000
0000
0000
3010
0100
0002
,
0000
0003
1000
0000
0100
0000
1000
0000
,
0001
0000
0100
0010
0000
0000
1000
0100
,
0000
1000
0001
0000
0100
0000
0010
0000
,
1000
0000
0001
0010
0000
0000
0100
1000
,
0000
0001
0100
0000
0010
0000
1000
0000
,
0001
0000
0010
0100
0000
0100
1000
0001
,
0000
0100
0010
0000
1000
0000
0001
0000
,
0010
0000
0100
1000
0000
0001
0100
0010
,
0000
0100
0001
0000
1000
0000
0100
0000
,
0010
0000
0001
0000
0100
1000
0000
0200
,
0000
0000
0300
0010
1000
0001
0000
0021
,
0000
0000
0031
0000
0100
0010
0000
0110
,
0000
1000
0000
0100
0001
0000
0100
0000
,
1000
0000
0010
0000
0100
0001
0000
0200
,
0000
0000
0000
0310
1000
0001
0000
0020
,
0000
0000
0031
0000
0100
0000
0010
1000
,
0000
0001
0000
0000
0010
0000
0100
0000
,
1000
0000
0000
0001
0000
0000
1000
0000
,
0000
0001
0000
0001
1000
0000
0001
0000
,
1000
0000
0000
0010
0000
0000
0100
0000
,
0000
0001
0000
0001
1000
0000
0100
0000
,
0010
0000
0000
0001
0000
0000
0100
0000
,
0010
1000
0100
1000
,
0010
1000
0100
0000
0010
0001
0100
0000
,
0010
0100
0000
0100
0001
0000
0010
0000
,
0100
1000
0001
0000
0100
0010
1000
0000
,
0001
0010
0000
0010
0001
0000
0100
0000
,
0010
0000
1000
0100
0000
1000
0001
0000
,
0100
0010
0000
0100
0001
0000
0010
0000
,
0100
0000
1000
0000
0001
0100
0010
0100
,
0000
0001
0010
0100
1000
0100
0010
0001
,
1000
0000
0010
0100
0000
0001
0000
0100
,
0000
0000
0010
0000
1000
0100
0001
0100
,
1000
0000
0010
1000
0000
0100
0000
0010
,
0000
0001
1000
0000
0001
0000
0100
0000
,
0010
0000
1000
0001
0000
0010
0000
0000
,
0100
1000
0000
0001
0100
0000
0010
0000
,
0200
0000
0000
0000
0000
0301
0010
0002
,
0000
0000
1003
0000
0010
0100
0010
0000
,
1010
0000
1000
0001
0000
0101
0000
1100
,
0000
0101
0000
0001
0010
0000
0100
0000
,
1100
0000
1000
0010
0000
0100
0001
0000
,
0100
1000
0000
0100
0020
0000
2030
0000
,
3001
0000
0010
0100
0000
0010
0001
0000
,
1000
0010
0000
0100
0001
0000
0010
0000
,
0200
0000
0000
0000
0000
1300
0001
0200
,
0000
0010
0010
0310
,
2000
0000
0000
3100
0000
0000
0001
0200
,
0000
0000
0310
0001
0000
0100
0010
0000
,
2000
0000
3001
0000
0000
0100
0010
0000
,
1010
0000
1000
0100
0000
0010
0001
0100
,
0010
0000
1000
0000
0100
0001
0100
0020
,
0000
0000
0031
0000
0100
1000
0100
0010
,
2000
0000
0000
0000
0000
3001
0010
0200
,
0000
2300
0000
3002
0000
0203
0000
0000
,
0310
0000
0000
1100
0000
0000
0010
0000
,
0000
0101
0000
0000
0010
0000
1001
0000
,
0011
0000
0000
1100
0000
0000
1010
0000
,
0000
0101
0000
0000
1001
0000
0100
0020
,
0000
0000
0000
0000
,
0000
0000
0000
0000
,
0000
0000
0000
0000
,
0000
0000
0000
0000
,
0030
0000
0000
0000
;

//---------------dance-single - Blank----------------
#NOTES:
     dance-single:
     Blank:
     Medium:
     8:
     0.356,0.333,0.033,0.041,0.000,294.000,4.000,5.000,0.000,0.000,0.000,0.356,0.333,0.033,0.041,0.000,294.000,4.000,5.000,0.000,0.000,0.000:
1000
0000
0000
0001
0000
0000
0100
0000
,
0000
0010
0000
0000
1000
0000
0001
0000
,
0010
0000
0000
0100
0000
0000
1000
0000
,
0000
0001
0000
0000
0100
0000
0010
0000
,
1000
0100
1000
0100
,
0010
0001
0010
0001
,
0100
0010
0100
0010
,
1000
0001
1000
0001
,
1000
0010
0100
0001
,
1000
0100
0010
0001
,
1000
0010
0100
0001
,
1000
0100
0001
0100
,
1000
0000
0001
0000
,
0100
0010
1000
0100
,
1000
0000
0001
0000
,
0100
0000
0010
0000
,
1000
0100
1000
0010
,
0100
0001
0010
0100
,
1000
0000
0001
0000
,
0100
0000
0010
0000
,
1000
0100
1000
0001
,
0100
1000
0100
0010
,
1000
0000
0001
0000
,
0010
0000
0100
0000
,
1000
0001
0100
0010
,
0100
0001
1000
0100
,
0010
0000
0001
0000
,
1000
0000
0010
0000
,
1000
0000
0000
0100
0000
0000
1000
0000
,
0001
0100
0010
1000
,
0001
0000
0000
0010
0000
0000
0001
0000
,
0100
0010
1000
0100
,
0010
0000
0000
0001
0000
0000
0100
0000
,
1000
0100
0010
1000
,
0100
0000
0000
0010
0000
0000
0001
0000
,
0000
0100
0000
0000
0010
0000
1000
0000
,
0001
0000
0010
0000
0100
0000
0000
1000
,
0000
0001
0100
0010
,
1000
0000
0001
0000
0010
0000
0000
0001
,
0000
0100
0010
1000
,
0100
0000
1000
0000
0001
0000
0000
0100
,
0000
0001
1000
0100
,
0010
0000
0001
1000
,
0010
0100
0001
0100
,
0010
0000
0000
0010
0000
0000
1000
0000
,
0000
1000
0000
0000
0001
0000
0010
0000
,
0100
0000
0000
0100
0000
0000
0010
0000
,
0000
0010
0000
0000
0001
0000
1000
0000
,
0010
0100
0001
1000
,
0100
0010
0001
1000
,
0010
0100
0001
1000
,
0100
0001
0100
0010
,
0001
1000
0010
0100
,
1000
0100
0010
1000
,
0001
0010
0100
1000
,
0001
0100
0010
1000
,
1100
0000
1000
0010
,
0110
0100
0001
0010
,
0100
0010
0100
0000
,
1000
0000
0001
0100
,
0010
1000
0001
0000
,
0010
0000
0001
0100
,
0010
1000
0100
0000
,
1000
0001
0100
0000
,
0010
1000
0100
0010
,
0001
1000
0010
0100
,
0001
0100
0010
1000
,
0100
0001
0100
0010
,
0001
0100
1000
0100
,
0010
1000
0001
0010
,
0100
1000
0001
0100
,
1000
0100
0010
1000
,
1001
0000
0001
0010
,
0011
0010
0100
1000
,
0001
0100
0010
1000
,
0001
0010
0200
0000
,
1300
0010
0100
0001
,
0100
0010
2000
0000
,
3001
0010
0100
1000
,
0100
0010
0002
0000
,
0103
0010
1000
0001
,
0010
0100
0020
0000
,
0031
0000
0000
1000
0000
0000
0001
0000
,
0000
1000
0000
0000
0001
0000
1000
0000
,
0010
0000
0000
0100
0000
0000
0010
0000
,
0000
0100
0000
0000
0010
0000
1000
0000
,
0002
0000
0000
0000
,
0000
0000
0000
0000
,
0000
0000
0000
0000
,
0000
0000
0000
0000
,
0003
0000
0000
0000
;

//---------------dance-single - Blank----------------
#NOTES:
     dance-single:
     Blank:
     Easy:
     6:
     0.268,0.353,0.090,0.033,0.000,213.000,11.000,4.000,0.000,0.000,0.000,0.268,0.353,0.090,0.033,0.000,213.000,11.000,4.000,0.000,0.000,0.000:
1000
0000
1000
0000
,
0001
0000
0001
0000
,
0100
0000
0010
0000
,
1000
0000
0001
0000
,
0010
0000
0100
0000
,
1000
0000
0001
0000
,
0100
0000
0010
0000
,
1000
0100
1000
0000
,
0010
0000
0100
0000
,
0001
0000
1000
0000
,
0100
0000
0001
0000
,
0100
0010
0100
0000
,
1000
0000
0001
0000
,
0100
0000
0010
0000
,
1000
0000
0100
0000
,
2000
0000
0000
0000
,
3001
0000
0100
0000
,
0010
0000
1000
0000
,
0001
0000
0010
0000
,
0200
0000
0000
0000
,
1300
0000
0001
0000
,
0100
0000
0010
0000
,
0100
0000
0001
0000
,
2000
0000
0000
0000
,
3100
0000
0010
0000
,
0001
0000
0100
0000
,
1000
0000
0100
0000
,
0020
0000
0000
0000
,
1030
0000
0100
0000
,
1000
0000
0100
0000
,
0010
0000
0001
0000
,
0010
0000
0001
0000
,
1000
0000
0001
0000
,
1000
0000
0001
0000
,
0100
0000
0010
0000
,
0100
0000
0000
0000
,
0010
0000
1000
0000
,
0100
0000
0000
0000
,
0010
0000
0001
0000
,
1000
0000
0010
0000
,
0100
0000
0001
0000
,
1000
0000
0000
0000
,
0100
0000
0000
0000
,
0010
0000
0000
0000
,
0001
0000
0000
0000
,
1000
0000
0000
0000
,
0010
0000
0100
0000
,
0001
0000
1000
0000
,
0100
0000
0010
0000
,
0001
0000
1000
0000
,
0010
0100
0010
0100
,
0010
1000
0010
1000
,
0001
1000
0001
1000
,
0001
0100
0001
0100
,
0001
0010
0001
0010
,
0100
1000
0100
1000
,
1001
0000
0000
0010
,
0100
0010
1000
0001
,
0010
0000
0100
0000
,
1000
0001
0100
0010
,
1000
0000
0100
0000
,
0001
0100
0010
0001
,
0100
0000
0010
0000
,
1000
0100
1000
0001
,
0100
0000
0010
1000
,
0001
0000
1000
0010
,
1000
0010
1000
0010
,
0100
0010
0100
0010
,
0100
0001
0100
0001
,
1000
0001
1000
0001
,
0010
0001
0010
0001
,
1000
0100
1000
0100
,
1001
0000
0000
0100
,
0010
0100
0010
1000
,
0001
0010
0100
1000
,
0001
0100
0010
0000
,
0100
0001
1000
0100
,
0010
0001
1000
0000
,
0010
0100
0001
1000
,
0100
0001
0100
0000
,
1000
0010
0100
0001
,
1000
0100
0010
0001
,
1001
0000
0110
0000
,
1001
0000
1001
0000
,
0110
0000
1001
0000
,
0110
0000
1001
1001
;

//---------------dance-single - Blank----------------
#NOTES:
     dance-single:
     :
     Challenge:
     13:
     0.611,0.629,0.387,0.058,0.062,466.000,47.000,7.000,0.000,0.000,0.000,0.611,0.629,0.387,0.058,0.062,466.000,47.000,7.000,0.000,0.000,0.000:
0100
1000
0010
0100
0001
0000
0100
0001
,
0010
0100
1000
0000
0100
1000
0010
0100
,
0001
0010
0001
1000
0100
0000
1000
0010
,
1000
0000
0001
0000
0100
0000
0001
0000
1000
0010
1000
0010
0100
0000
0001
0000
,
1000
0100
0110
1001
,
0001
0000
0010
0001
0000
0001
0200
0000
,
0000
0000
0310
0000
0100
0000
0001
1000
,
0000
0100
0010
0100
0000
0000
1000
0000
,
0010
0110
1001
0110
,
0010
0000
1000
0100
0000
0100
0020
0000
,
0000
0000
0031
0000
0010
0001
0010
0000
,
0001
0000
0100
0000
0001
0000
0100
0000
0010
1000
0010
1000
0100
0010
0100
0010
,
0001
0000
1000
0000
0001
1000
0000
1010
,
0000
0010
0100
0001
,
0020
0000
0000
0000
0000
0031
0010
0100
,
0000
1000
0010
1000
,
0200
0000
0000
0000
0000
0310
0100
1000
,
0000
0001
1000
0001
,
0200
0000
0000
0000
0000
0310
0100
0010
,
0000
0110
0000
0010
1000
0100
0010
0001
,
0100
0000
0001
0000
0100
0001
0000
0011
,
0000
0010
0100
0010
0100
0000
1000
0010
,
0100
0000
0001
0000
0100
0001
0100
1000
,
0000
0100
0010
0100
0010
1000
0100
0000
,
0010
0000
0100
0000
0010
0100
1000
0001
,
0000
0100
0001
0100
0010
0000
1000
0000
,
0100
0000
0001
0000
1000
0010
0001
1000
,
0000
0001
0100
1000
0001
0010
1000
0100
,
0010
0010
0010
0110
0000
0000
0100
1000
,
0001
0100
0001
0100
0010
1000
0010
0000
,
0100
0100
0100
0110
0000
0000
0010
1000
,
0001
0100
0010
1000
0100
0010
0000
0000
,
0001
0001
0001
1001
0000
0000
1000
0100
,
0010
0100
1000
0010
0001
0010
0000
0000
,
1000
0000
0100
1000
0000
1000
0010
0100
,
0000
0001
0010
0100
1000
0010
0001
1000
,
0100
0000
0010
0000
0100
0010
0000
0110
,
0000
0010
1000
0100
0010
0001
0000
0101
,
0000
0000
1001
0000
1000
0100
0000
0110
,
0000
0000
0100
1000
0100
1000
0010
0000
,
0110
0000
0100
0000
0001
0010
0000
0011
,
0000
0000
0010
0100
1000
0010
0000
1010
,
0000
0000
1000
0000
0001
0000
1000
0010
,
0000
0110
0000
0000
0100
0000
0001
0000
,
0010
0010
0000
0100
0100
0000
1000
1000
,
0000
0001
0001
0000
0100
0001
0100
0010
,
0000
0000
1000
0000
0100
0010
0000
0110
,
0000
1001
0000
0011
0000
0110
0000
0000
,
0100
1000
0000
0010
0000
0100
0001
0010
,
0100
1000
0100
1000
0001
0100
0001
0100
0010
0000
1000
0000
0100
0000
0000
0000
,
0010
0000
0010
0100
1000
0100
0001
0000
,
0100
1000
0000
1000
0010
0000
1000
0000
,
0001
0000
0010
0001
0010
1000
0010
0100
,
1000
0010
0100
0001
1000
0000
1001
0000
,
1000
0000
0100
0010
0000
0010
0001
0000
,
0001
0100
1000
0100
0001
0000
0010
0000
,
0110
0000
0000
0000
0000
1000
0100
0001
,
0000
0100
0010
0100
,
1000
0000
0010
0100
0000
0001
0000
0011
,
0000
0000
0000
0000
0010
0100
0010
0100
,
1000
0000
0010
1000
0000
0001
0000
0011
,
0000
0000
0001
0100
,
1000
0000
0001
0010
0000
1000
0000
0000
,
0100
0010
0000
0010
0100
0000
1000
0000
,
0001
0000
0100
0000
0001
0100
0001
0010
,
0000
0000
0001
0000
0010
0000
0100
0000
1000
0100
1000
0000
0100
1000
0100
0000
,
0010
0000
0100
1000
0000
0001
0000
1001
,
0000
1001
0000
0010
0100
0000
0110
0000
,
0010
1000
0100
0001
0000
0100
1000
0000
,
0010
1000
0000
1000
0001
0010
0100
0000
,
1000
0000
0010
1000
0000
0001
0010
0000
,
0100
1000
0000
0001
0100
0000
0010
0000
,
0110
0000
0000
0000
0000
0010
1000
0001
,
0000
0000
0010
0000
0001
0000
0010
0000
0100
1000
0100
0000
1000
0100
1000
0000
,
0010
0000
1000
0010
0000
1000
0010
0100
,
0001
0000
0010
0001
0000
0010
0100
0000
,
1000
0000
0001
0000
1000
0001
1000
0000
,
0001
0000
0010
0000
0000
0000
0110
0000
0000
0000
0100
0000
1000
0010
1000
0000
,
0010
0000
0100
0000
0001
1000
0001
0100
,
0000
0100
0010
0000
1000
0001
1000
0100
,
0010
0000
0001
0000
0010
0001
1000
0010
,
0000
0100
0000
0110
0000
1001
0000
0000
,
1000
1010
0000
0010
0110
0000
0100
0101
,
0000
0001
0011
0000
0110
0000
0110
0000
,
0100
1100
0000
1000
1010
0000
0010
0011
,
0000
0001
0101
0000
1001
0000
0110
0000
,
2002
0000
0000
0000
,
0000
0000
0000
0000
,
0000
0000
0000
0000
,
0000
0000
0000
0000
,
3003
0000
0000
0000
;

//---------------dance-single - Blank----------------
#NOTES:
     dance-single:
     :
     Beginner:
     3:
     0.106,0.106,0.041,0.000,0.000,85.000,5.000,0.000,0.000,0.000,0.000,0.106,0.106,0.041,0.000,0.000,85.000,5.000,0.000,0.000,0.000,0.000: // measure 0
1000
0000
0000
1000
,  // measure 1
0000
0000
1000
0000
,  // measure 2
0001
0000
0000
0001
,  // measure 3
0000
0000
0001
0000
,  // measure 4
0010
0000
0000
0000
,  // measure 5
0010
0000
0000
0010
,  // measure 6
0000
0000
0100
0000
,  // measure 7
0000
0000
0000
0100
,  // measure 8
0000
0000
0010
0000
,  // measure 9
0000
0000
0000
0010
,  // measure 10
0000
0000
0100
0000
,  // measure 11
0000
0000
0100
0000
,  // measure 12
1000
0000
0000
0000
,  // measure 13
0100
0000
0000
0000
,  // measure 14
0010
0000
0000
0000
,  // measure 15
0000
0000
0000
0000
,  // measure 16
0001
0000
0000
0000
,  // measure 17
0100
0000
0000
0000
,  // measure 18
0010
0000
0000
0000
,  // measure 19
0000
0000
0000
0000
,  // measure 20
1000
0000
0000
0000
,  // measure 21
1000
0000
0000
0000
,  // measure 22
0100
0000
0000
0000
,  // measure 23
0100
0000
0000
0000
,  // measure 24
0001
0000
0000
0000
,  // measure 25
0001
0000
0000
0000
,  // measure 26
0100
0000
0000
0000
,  // measure 27
0100
0000
0000
0000
,  // measure 28
0010
0000
0000
0000
,  // measure 29
0000
0000
0000
0000
,  // measure 30
0110
0000
0000
0000
,  // measure 31
0000
0000
0000
0000
,  // measure 32
1000
0000
0000
0000
,  // measure 33
0000
0000
0000
0000
,  // measure 34
1001
0000
0000
0000
,  // measure 35
0000
0000
0001
0000
,  // measure 36
0001
0000
0000
0000
,  // measure 37
0000
0000
0010
0000
,  // measure 38
0010
0000
0000
0000
,  // measure 39
0000
0000
0100
0000
,  // measure 40
0100
0000
0000
0000
,  // measure 41
0000
0000
1000
0000
,  // measure 42
1000
0000
0000
0000
,  // measure 43
0000
0000
0000
0000
,  // measure 44
1001
0000
0000
0000
,  // measure 45
0000
0000
0000
0000
,  // measure 46
1000
0000
0000
0000
,  // measure 47
0100
0000
0000
0000
,  // measure 48
0010
0000
0000
0000
,  // measure 49
0001
0000
0000
0000
,  // measure 50
0100
0000
0000
0000
,  // measure 51
0100
0000
0000
0000
,  // measure 52
0010
0000
0000
0000
,  // measure 53
0010
0000
0000
0000
,  // measure 54
1000
0000
0000
0000
,  // measure 55
0001
0000
0000
0000
,  // measure 56
1001
0000
0000
0000
,  // measure 57
0000
0000
0000
0000
,  // measure 58
0100
0000
0000
0000
,  // measure 59
0100
0000
0000
0000
,  // measure 60
0010
0000
0000
0000
,  // measure 61
0010
0000
0000
0000
,  // measure 62
1000
0000
0000
0000
,  // measure 63
0001
0000
0000
0000
,  // measure 64
1000
0000
0000
0000
,  // measure 65
0001
0000
0001
0000
,  // measure 66
0001
0000
0000
0000
,  // measure 67
0010
0000
0000
0000
,  // measure 68
0100
0000
0000
0000
,  // measure 69
1000
0000
0000
0000
,  // measure 70
0010
0000
0000
0000
,  // measure 71
0100
0000
0000
0000
,  // measure 72
0001
0000
0000
0000
,  // measure 73
1001
0000
0000
0000
,  // measure 74
1000
0000
0000
0000
,  // measure 75
1000
0000
0000
0000
,  // measure 76
0100
0000
0000
0000
,  // measure 77
0100
0000
0000
0000
,  // measure 78
0010
0000
0000
0000
,  // measure 79
0010
0000
0000
0000
,  // measure 80
0001
0000
0000
0000
,  // measure 81
0001
0000
0000
0000
,  // measure 82
1000
0000
0000
1000
,  // measure 83
0000
0000
1000
0000
,  // measure 84
0001
0000
0000
0001
,  // measure 85
0000
0000
0001
0000
,  // measure 86
0100
0000
0000
0000
;
