#VERSION:0.81;
#TITLE:Irony;
#SUBTITLE:;
#ARTIST:ClariS;
#TITLETRANSLIT:;
#SUBTITLETRANSLIT:;
#ARTISTTRANSLIT:;
#GENRE:Japanese;
#ORIGIN:;
#CREDIT:;
#BANNER:Irony.png;
#BACKGROUND:Irony-bg.png;
#PREVIEWVID:;
#JACKET:Irony-jacket.png;
#CDIMAGE:;
#DISCIMAGE:;
#LYRICSPATH:;
#CDTITLE:;
#MUSIC:Irony.mp3;
#OFFSET:0.300;
#SAMPLESTART:65.490;
#SAMPLELENGTH:15.000;
#SELECTABLE:YES;
#BPMS:0.000=134.000;
#STOPS:;
#DELAYS:;
#WARPS:;
#TIMESIGNATURES:0.000=4=4;
#TICKCOUNTS:0.000=4;
#COMBOS:0.000=1;
#SPEEDS:0.000=1.000=0.000=0;
#SCROLLS:0.000=1.000;
#FAKES:;
#LABELS:0.000=Song Start;
#BGCHANGES:;
#KEYSOUNDS:;
#ATTACKS:
;

//---------------dance-single - ----------------
#NOTEDATA:;
#CHARTNAME:;
#STEPSTYPE:dance-single;
#DESCRIPTION:;
#CHARTSTYLE:;
#DIFFICULTY:Easy;
#METER:4;
#RADARVALUES:0.235,0.211,0.183,0.000,0.000,136.000,17.000,0.000,0.000,0.000,0.000,0.000,0.000,0.235,0.211,0.183,0.000,0.000,136.000,17.000,0.000,0.000,0.000,0.000,0.000,0.000;
#CREDIT:;
#NOTES:
0000
0000
0000
0010
,
1010
0000
1010
0000
,
1000
1000
1000
0000
,
0011
0000
0011
0000
,
0001
0001
0001
0000
,
1100
0000
1100
0000
,
1000
1000
1000
0000
,
0101
0000
0101
0000
,
0001
0001
0001
0000
,
1000
0100
0010
0100
,
0001
0000
0001
0000
,
0001
0100
0010
0100
,
1000
0000
1000
0000
,
0010
1000
0001
0000
,
0010
0001
1000
0000
,
0100
1000
0001
0000
,
0100
0001
1000
0000
,
0010
1000
0010
0000
,
1000
0100
1000
0000
,
0100
0001
0100
0000
,
0001
0010
0001
0000
,
0010
0000
0010
0000
,
0100
0000
0100
0001
,
0010
0000
0010
0000
,
0100
0000
0100
1000
,
0100
0000
1000
0000
,
0001
0000
1000
0010
,
0010
0000
1000
0000
,
0001
0000
1000
0001
,
1000
0000
0010
0000
,
0100
0001
0100
0000
,
0001
0000
0010
0000
,
0100
1000
0100
0000
,
1000
1000
1000
0000
,
0001
0010
0010
0100
,
0110
0000
0110
0000
,
1001
0000
1001
1000
,
0100
0000
1000
0000
,
0100
0010
0001
0000
,
0100
0000
0001
0000
,
0100
0010
1000
0000
,
0001
0001
0001
0000
,
1000
0010
0010
0100
,
0110
0000
0110
0000
,
1001
0000
1001
0000
,
1000
0100
1000
0001
,
0100
0001
0100
0000
,
0001
0010
0001
1000
,
0010
1000
0010
0010
,
1001
0000
0000
0000
;

//---------------dance-single - ----------------
#NOTEDATA:;
#CHARTNAME:;
#STEPSTYPE:dance-single;
#DESCRIPTION:;
#CHARTSTYLE:;
#DIFFICULTY:Hard;
#METER:11;
#RADARVALUES:0.493,0.430,0.366,0.108,0.065,277.000,34.000,10.000,0.000,0.000,0.000,0.000,0.000,0.493,0.430,0.366,0.108,0.065,277.000,34.000,10.000,0.000,0.000,0.000,0.000,0.000;
#CREDIT:;
#NOTES:
0000
0000
0000
0000
0000
0000
0010
0100
,
0010
0000
1000
0010
0000
1000
0000
1001
,
0000
0001
0010
0100
1000
0000
0001
1000
,
0001
0000
0100
0110
0000
1010
0000
1001
,
0000
0001
0010
0100
0010
0000
0001
0100
,
0001
0000
0100
0010
0000
0100
0000
0101
,
0000
0000
0001
0000
0010
0000
0100
0000
0000
0000
1000
0000
0001
0000
1000
0010
,
0100
0000
0010
0100
0000
0001
0100
0010
,
0000
0000
1010
0000
0000
0000
1001
0000
0000
0001
0010
0000
0100
1000
0000
0000
,
0010
0000
0010
0000
1000
0100
1000
0001
,
0000
0100
0000
0110
0000
0010
1000
0001
,
0020
0000
0230
0000
1300
0100
0000
1100
,
0000
0000
1000
0000
0001
0000
0100
0000
0000
0010
1000
0000
0001
0100
0000
0000
,
0001
0000
0001
0000
1000
0100
1000
0000
,
0010
0000
0010
0000
0100
0001
0100
0001
,
0010
0000
0010
0000
0100
1000
0100
0000
,
1000
0000
1000
0000
0001
0010
0001
0010
,
0100
0000
1000
0000
0010
0001
0010
0000
,
1000
0000
0100
0000
0010
0001
0010
0000
,
0001
0000
0100
0000
1000
0001
1000
0000
,
0100
0000
0010
0000
1000
0001
1000
0001
,
0200
0000
0301
0100
0110
0000
0010
0010
,
2000
3200
0302
0203
,
0310
0000
0100
0100
1000
0000
0010
0110
,
0000
0100
0001
0010
1000
0000
0010
0100
,
1000
0000
0010
0100
0001
0000
0100
0110
,
0000
0010
1000
0001
0000
0010
0100
0010
,
0001
0000
1000
0001
0000
0101
0000
0110
,
0000
0010
1000
0100
0010
0010
0001
0100
,
0110
0000
0010
1010
0000
1001
0000
0011
,
0000
0010
0100
1000
0010
0000
0100
0100
,
0010
0000
1000
1010
0000
1001
0000
0011
,
0000
0001
0010
0100
0001
0000
1000
0010
,
0001
0000
0100
0010
0000
0110
0000
0010
,
0000
0000
1000
0000
0001
0000
0010
0000
0000
0000
0100
0000
1000
0000
0010
0001
,
0010
0000
1000
0010
0000
0110
0000
0101
,
0000
0000
0001
0000
0010
0000
0100
0000
0000
0010
0100
0000
1000
0100
1000
0000
,
0100
0000
0010
0010
0000
0011
0000
0101
,
0000
0100
0010
1000
0010
0000
1000
0001
,
1000
0000
0001
0011
0000
0110
0000
0101
,
0000
1000
0010
0001
0100
0000
0010
1000
,
0010
0000
0100
0110
0000
1010
0000
1001
,
0000
0001
0010
0100
0000
1000
0100
0002
,
0000
0103
1000
0010
0000
0100
0010
0110
,
0000
0000
0010
0000
1000
0000
0001
0000
0000
0010
0100
0000
0100
0010
0000
0000
,
0100
0000
0100
0000
1000
0010
1000
0000
,
0100
0000
0100
0000
0010
0001
0010
0001
,
0100
0000
0100
0000
0010
1000
0001
0000
,
0010
0000
0000
0000
0010
0000
0000
0000
0100
1000
0100
0000
1000
0100
0000
0000
,
0220
0000
0000
0000
,
0330
0000
0000
0000
;

//---------------dance-single - ----------------
#NOTEDATA:;
#CHARTNAME:;
#STEPSTYPE:dance-single;
#DESCRIPTION:;
#CHARTSTYLE:;
#DIFFICULTY:Beginner;
#METER:2;
#RADARVALUES:0.086,0.105,0.022,0.043,0.000,50.000,2.000,4.000,0.000,0.000,0.000,0.000,0.000,0.086,0.105,0.022,0.043,0.000,50.000,2.000,4.000,0.000,0.000,0.000,0.000,0.000;
#CREDIT:;
#NOTES:
0000
0000
0000
0000
,
0000
0000
0000
0000
,
0000
0000
0000
0000
,
0000
0000
0000
0000
,
0000
0000
0000
0000
,
0000
0000
0000
0000
,
0000
0000
0000
0000
,
0000
0000
0000
0000
,
0000
0000
0000
0000
,
1000
0000
1000
0000
,
1000
0000
0000
0000
,
0001
0000
0001
0000
,
0001
0000
0000
0000
,
0010
0000
0000
0000
,
0010
0000
0000
0000
,
0100
0000
0000
0000
,
0100
0000
0000
0000
,
1000
0000
1000
0000
,
1000
0000
0000
0000
,
0100
0000
0100
0000
,
0100
0000
0000
0000
,
1000
0000
0000
0000
,
1000
0000
0000
0000
,
0001
0000
0000
0000
,
0001
0000
0000
0000
,
0010
0000
0010
0000
,
0010
0000
0000
0000
,
0001
0000
0001
0000
,
0001
0000
0000
1000
,
2000
0000
0000
0000
,
0000
0000
0000
3100
,
0100
0000
0000
0000
,
0000
0000
0000
0010
,
0020
0000
0000
0000
,
0000
0000
0000
0031
,
0001
0000
0000
0000
,
0000
0000
0000
0100
,
0200
0000
0000
0000
,
0000
0000
0000
0310
,
0010
0000
0000
0000
,
0000
0000
0000
1000
,
2000
0000
0000
0000
,
0000
0000
0000
3001
,
0001
0000
0000
0000
,
1001
0000
0000
0000
,
1000
0000
1000
0000
,
1000
0000
0000
0000
,
0001
0000
0001
0000
,
0001
0000
0000
0000
,
1001
0000
0000
0000
;

//---------------dance-single - ----------------
#NOTEDATA:;
#CHARTNAME:;
#STEPSTYPE:dance-single;
#DESCRIPTION:;
#CHARTSTYLE:;
#DIFFICULTY:Medium;
#METER:7;
#RADARVALUES:0.364,0.376,0.194,0.129,0.000,207.000,18.000,12.000,0.000,0.000,0.000,0.000,0.000,0.364,0.376,0.194,0.129,0.000,207.000,18.000,12.000,0.000,0.000,0.000,0.000,0.000;
#CREDIT:;
#NOTES:
// measure 0
0000
0000
0000
0010
,  // measure 1
0010
0000
0000
1000
0000
0001
0000
1000
,  // measure 2
0000
0100
0010
0000
,  // measure 3
0001
0000
0000
1000
0000
0100
0000
1000
,  // measure 4
0000
0001
1000
0000
,  // measure 5
0010
0000
0000
1000
0000
0100
0000
0010
,  // measure 6
0000
0001
0100
0000
,  // measure 7
0010
0000
0000
0100
0000
0010
0100
0010
,  // measure 8
0000
0100
0000
0001
0000
0010
0100
0010
,  // measure 9
0100
1000
0010
0100
,  // measure 10
0002
1000
1000
1003
,  // measure 11
0001
0010
0100
1000
,  // measure 12
0020
0100
0100
0130
,  // measure 13
0010
0000
1000
0000
0001
0000
0000
0010
,  // measure 14
0000
0000
0110
0010
,  // measure 15
0100
0000
1000
0000
0100
0000
0000
0010
,  // measure 16
0000
0001
0100
0001
,  // measure 17
0000
0000
0100
0000
0010
0000
0000
1000
,  // measure 18
0000
0100
0010
0100
,  // measure 19
1000
0000
0100
0000
0001
0000
0000
0100
,  // measure 20
0000
1000
0010
0001
,  // measure 21
0021
1000
0001
1030
,  // measure 22
2010
0001
0010
3001
,  // measure 23
1002
0100
1000
0103
,  // measure 24
0201
0010
0001
0310
,  // measure 25
0120
1030
2010
3100
,  // measure 26
1200
0310
0120
0031
,  // measure 27
0010
0000
0010
0100
0000
1000
0000
0001
,  // measure 28
0000
0000
0100
0000
0100
0000
0010
0100
,  // measure 29
0010
0000
0100
0001
0000
1000
0000
0100
,  // measure 30
0000
0010
0100
0010
0100
0000
1000
0100
,  // measure 31
1000
0000
0100
0010
0000
0001
0000
0100
,  // measure 32
0000
0010
1000
0010
0100
0000
0001
0100
,  // measure 33
0001
0000
0010
0001
0000
0010
0000
0110
,  // measure 34
0000
0100
1000
0001
0000
0100
0001
0010
,  // measure 35
0100
0110
0010
0011
,  // measure 36
0001
0000
1001
0000
1000
0000
0010
1000
,  // measure 37
0010
0000
1000
1000
0000
0001
0000
0010
,  // measure 38
0000
0001
1000
0010
1000
0000
0010
0100
,  // measure 39
0010
0000
0100
0001
0000
0010
0000
0001
,  // measure 40
0000
1000
0010
1000
0100
0000
0010
0001
,  // measure 41
0100
0000
1000
0001
0000
0010
0000
0100
,  // measure 42
0000
0001
0010
0100
1000
0010
0100
0020
,  // measure 43
0000
0000
0130
0010
0000
0100
0001
1000
,  // measure 44
0000
0100
0000
0010
0000
0001
0000
0100
,  // measure 45
0010
0000
1000
0000
0001
0000
0000
0110
,  // measure 46
0000
0000
0000
1001
0000
1000
0100
0010
,  // measure 47
0001
0000
0100
0000
0010
0000
0000
1010
,  // measure 48
0000
1001
0000
0011
0000
0001
0010
0100
,  // measure 49
0020
0000
0000
0000
,  // measure 50
0030
0000
0000
0000
;
