#TITLE:I'm Going Slightly Mad;
#SUBTITLE:;
#ARTIST:Queen;
#TITLETRANSLIT:;
#SUBTITLETRANSLIT:;
#ARTISTTRANSLIT:;
#GENRE:;
#CREDIT:;
#BANNER:I'm Going Slightly Mad.png;
#BACKGROUND:I'm Going Slightly Mad-bg.png;
#LYRICSPATH:;
#CDTITLE:;
#MUSIC:I'm Going Slightly Mad.mp3;
#OFFSET:-0.434;
#SAMPLESTART:50.060;
#SAMPLELENGTH:15.000;
#SELECTABLE:YES;
#BPMS:0.000=117.256
,2.000=117.204
,3.000=120.960
,4.000=113.596
,5.000=120.943
,6.000=113.557
,7.000=117.256
,8.000=107.221
,9.000=117.261
,10.000=120.899
,11.000=120.960
,12.000=113.591
,13.000=117.256
,14.000=110.227
,15.000=121.037
,16.000=117.204
,17.000=113.523
,18.000=110.374
,19.000=113.572
,20.000=117.256
,21.000=120.943
,22.000=113.562
,23.000=125.136
,24.000=117.199
,25.000=117.090
,26.000=113.767
,27.000=120.943
,28.000=108.509
,29.000=115.536
,30.000=110.305
,31.000=120.949
,32.000=117.028
,33.000=117.344
,34.000=117.152
,35.000=120.938
,36.000=110.305
,37.000=113.767
,38.000=110.291
,39.000=120.971
,40.000=117.209
,41.000=117.059
,42.000=113.743
,43.000=117.059
,44.000=117.033
,45.000=110.494
,46.000=117.033
,47.000=117.251
,48.000=110.305
,49.000=117.563
,50.000=119.842
,51.000=117.012
,52.000=111.088
,53.000=124.976
,54.000=113.767
,55.000=113.489
,56.000=113.650
,57.000=120.938
,58.000=121.165
,59.000=110.287
,60.000=113.591
,61.000=110.310
,62.000=124.876
,63.000=120.938
,64.000=107.221
,65.000=121.065
,66.000=129.212
,67.000=110.287
,68.000=113.699
,69.000=110.186
,70.000=117.256
,71.000=113.353
,72.000=117.475
,73.000=113.562
,74.000=113.772
,75.000=113.572
,76.000=117.240
,77.000=120.943
,78.000=113.567
,79.000=129.344
,80.000=107.212
,81.000=120.938
,82.000=117.235
,83.000=113.591
,84.000=110.287
,85.000=113.582
,86.000=117.251
,87.000=113.557
,88.000=120.949
,89.000=117.251
,90.000=117.157
,91.000=117.313
,92.000=113.596
,93.000=117.023
,94.000=113.777
,95.000=124.870
,96.000=110.154
,97.000=113.919
,98.000=117.043
,99.000=121.132
,100.000=117.074
,101.000=120.938
,102.000=110.305
,103.000=113.762
,104.000=117.033
,105.000=113.782
,106.000=117.147
,107.000=121.021
,108.000=117.049
,109.000=107.143
,110.000=117.318
,111.000=113.596
,112.000=116.513
,113.000=111.125
,114.000=116.842
,115.000=113.767
,116.000=113.694
,117.000=124.947
,118.000=113.587
,119.000=120.932
,120.000=110.517
,121.000=117.023
,122.000=117.157
,123.000=120.800
,124.000=110.305
,125.000=117.235
,126.000=113.758
,127.000=117.049
,128.000=117.157
,129.000=110.393
,130.000=120.943
,131.000=113.475
,132.000=117.339
,133.000=120.943
,134.000=113.753
,135.000=120.966
,136.000=113.567
,137.000=117.251
,138.000=113.655
,139.000=113.475
,140.000=117.246
,141.000=117.235
,142.000=113.577
,143.000=117.251
,144.000=113.552
,145.000=125.148
,146.000=119.205
,147.000=114.170
,148.000=114.714
,149.000=110.287
,150.000=120.954
,151.000=113.596
,152.000=113.562
,153.000=120.844
,154.000=107.299
,155.000=121.365
,156.000=113.198
,157.000=113.762
,158.000=120.180
,159.000=114.254
,160.000=121.082
,161.000=120.800
,162.000=113.777
,163.000=110.213
,164.000=121.037
,165.000=113.577
,166.000=113.718
,167.000=117.064
,168.000=120.966
,169.000=120.932
,170.000=113.782
,171.000=117.194
,172.000=113.621
,173.000=110.296
,174.000=113.567
,175.000=117.246
,176.000=113.689
,177.000=117.121
,178.000=118.788
,179.000=115.657
,180.000=110.186
,181.000=120.943
,182.000=110.301
,183.000=117.246
,184.000=117.256
,185.000=120.844
,186.000=107.278
,187.000=124.906
,188.000=113.470
,189.000=125.249
,190.000=107.221
,191.000=113.567
,192.000=113.660
,193.000=110.213
,194.000=120.932
,195.000=125.136
,196.000=117.028
,197.000=107.221
,198.000=117.157
,199.000=121.037
,200.000=120.706
,201.000=113.762
,202.000=110.305
,203.000=125.130
,204.000=117.023
,205.000=110.305
,206.000=113.777
,207.000=117.215
,208.000=117.069
,209.000=113.753
,210.000=117.043
;
#STOPS:
;
#BGCHANGES:-4.500=I'm Going Slightly Mad.avi=1.000=0=0=0=StretchNoLoop====,
99999=-nosongbg-=1.000=0=0=0 // don't automatically add -songbackground-
;
#KEYSOUNDS:;
#ATTACKS:;

//---------------dance-single - ----------------
#NOTES:
     dance-single:
     :
     Easy:
     4:
     0.187,0.189,0.045,0.182,0.000,119.000,5.000,20.000,0.000,0.000,0.000,0.187,0.189,0.045,0.182,0.000,119.000,5.000,20.000,0.000,0.000,0.000:
0000
0000
0000
0000
,
0000
0000
0000
0000
,
0000
0000
0000
0000
,
0000
0000
0000
0000
,
0000
0000
0000
0000
,
0000
0000
0000
0000
,
1000
0000
1000
0001
,
1000
0000
0100
0010
,
0001
0000
0100
0010
,
2000
0000
0000
0000
,
3001
0000
1000
0001
,
1000
0000
0100
0010
,
0001
0000
1000
0010
,
0100
0010
0000
0110
,
0010
1000
0100
1000
,
0002
0000
0000
0000
,
1003
0001
0010
0001
,
2000
0000
0000
0000
,
3001
1000
0100
0010
,
0200
0000
0000
0000
,
0310
0100
1000
0010
,
0002
0000
0000
0000
,
0013
0010
1000
1000
,
0100
0100
0010
0010
,
0002
0000
1003
0000
,
1000
0010
0200
0000
,
0310
0000
0020
0000
,
1030
0010
0200
0000
,
0000
0000
0001
0301
,
0002
0003
0002
0003
,
1000
1000
1000
0000
,
0200
0300
0200
0300
,
1000
1000
1000
0000
,
0020
0030
0020
0030
,
0100
0001
1000
0010
,
0002
0000
0000
0000
,
0023
0000
0000
0000
,
1030
0000
1000
1000
,
1000
0000
0100
0100
,
0100
0000
0020
0000
,
0000
0031
0001
0000
,
1000
0001
1000
0000
,
0100
0010
0100
0000
,
1000
0010
0010
0000
,
0100
0001
0001
0010
,
0100
0000
0110
0010
,
0001
1000
0010
1000
,
0001
0000
0001
0000
,
1000
0000
1000
0000
,
1001
0000
0100
0000
,
1001
0000
0010
0000
,
0220
0000
0000
0000
,
0330
0000
0000
0000
;

//---------------dance-single - ----------------
#NOTES:
     dance-single:
     :
     Hard:
     9:
     0.352,0.381,0.045,0.109,0.123,254.000,5.000,12.000,0.000,0.000,0.000,0.352,0.381,0.045,0.109,0.123,254.000,5.000,12.000,0.000,0.000,0.000:
0001
1000
0000
0000
1000
0010
0000
0000
,
0010
0100
0000
0000
0100
0001
0000
0000
,
0001
0010
0000
0000
0100
1000
0000
0000
,
0010
0100
0000
0000
0001
1000
0000
0000
,
0100
0010
0000
0000
0001
1000
0000
0000
,
0010
1000
0000
0000
0100
0010
0000
0000
,
0100
0000
0010
0000
0001
1000
0001
0100
,
0010
0000
1000
0000
0100
0010
0100
0000
,
1000
0100
0010
0001
1000
0010
1000
0000
,
0001
0000
0001
0000
0010
0001
0010
0000
,
0100
0000
0000
0000
0000
0000
1000
0000
0000
0000
0000
0000
0001
0000
0000
0010
0000
0000
0100
0000
1000
0000
0001
0000
,
0100
0010
1000
0100
,
0010
0001
0100
0000
0010
1000
0100
0000
,
0010
0100
0010
0000
0100
1000
0001
0000
,
0100
0000
0000
0000
0000
0000
1000
0000
0000
0000
0000
0000
0001
0000
0000
0010
0000
0000
1000
0000
0100
0000
0010
0000
,
0000
0001
0000
0001
0000
0000
0000
0000
1000
0000
0100
0000
1000
0000
0010
0000
,
0100
0000
0000
0010
0000
0000
1000
0000
1000
0000
0001
0000
,
1000
0100
0010
0000
0010
0100
1000
0000
,
0010
0000
0100
0000
0010
1000
0100
0010
,
0001
0000
1000
0000
0001
0100
0001
0000
,
0010
0000
1000
0001
1000
0010
0100
0010
,
1000
0000
0100
0000
0010
0001
0010
0000
,
0001
0100
0001
0100
0010
1000
0010
1000
,
0100
0010
0100
0010
0001
1000
0001
1000
,
0010
0000
1010
0000
1000
0001
0000
0000
,
0010
0000
0010
0200
0000
0000
1300
0000
,
1010
0000
0000
0000
0010
0000
0100
0000
0000
0001
0000
0000
0001
0000
0000
0000
,
0010
0000
0000
0100
0000
0000
2000
0000
0000
0000
0000
0000
0000
0000
0000
0000
,
0001
0000
0000
0000
3001
0000
1000
0000
0100
0000
0000
0010
0000
0001
0000
0000
,
1000
1000
0000
0000
2000
0000
3001
0000
,
1000
0100
1000
0100
0010
0000
0001
0100
,
0001
1000
0000
0000
1100
0000
0100
0010
,
0100
0000
0000
0000
1000
0000
0001
0000
1000
0000
0000
0010
0000
0010
0000
0010
,
0000
1000
0000
0000
0001
1000
0001
0000
,
1000
0100
0010
0000
0001
0000
1000
1000
,
0020
0030
1001
0000
,
0200
0000
0000
0000
0300
0000
0000
0000
1001
0000
0000
1000
0010
0000
0000
0000
,
0010
0000
0100
0000
0010
0000
0100
0000
0001
0000
1000
0000
0000
1000
0000
1000
,
0000
1000
0000
0000
0000
0000
0000
0000
0100
0000
0000
0010
0000
0000
0000
0000
,
0001
0000
0000
0010
0000
0000
0100
0000
0000
0000
1000
0000
0000
0000
0000
0000
,
0001
0000
1000
0000
0000
0010
0000
0000
0100
0000
0000
0000
0000
0000
0000
0000
,
0010
0000
1000
0000
0000
0100
0000
0000
0020
0000
0000
0000
0000
0000
0000
0000
,
0000
0000
0000
0031
0002
0000
0000
0000
,
1003
0000
1000
0000
0000
1000
0000
0000
1000
0000
0000
0000
0000
0000
0000
0000
,
0000
0000
0010
0000
1000
0000
0000
0000
0010
0000
0000
0100
0000
0000
0001
0000
,
0020
0000
0000
0000
0000
0130
0000
0010
,
0002
0000
0000
0000
0000
0000
0000
1003
,
1000
0000
0000
0001
0000
0000
0010
0000
0000
0000
0000
0000
0100
0000
0020
0000
,
0000
0000
0000
0000
0130
0020
0000
0000
,
0031
0000
0000
0001
0010
0000
0000
0010
,
0100
0000
0000
0000
0000
0000
0100
0000
0000
1000
0000
0000
0000
0000
0000
0000
,
1000
0002
0000
0000
0000
0000
0000
0000
,
1000
1000
1000
1000
1003
0000
0000
0000
;

//---------------dance-single - Blank----------------
#NOTES:
     dance-single:
     :
     Beginner:
     2:
     0.077,0.094,0.027,0.073,0.000,48.000,3.000,8.000,0.000,0.000,0.000,0.077,0.094,0.027,0.073,0.000,48.000,3.000,8.000,0.000,0.000,0.000:
0000
0000
0000
0000
,
0000
0000
0000
0000
,
0000
0000
0000
0000
,
0000
0000
0000
0000
,
0000
0000
0000
0000
,
0000
0000
0000
0000
,
0010
0000
0000
0000
,
0010
0000
0000
0000
,
0100
0000
0000
0000
,
0100
0000
0000
0000
,
1000
0000
0000
0000
,
0001
0000
0000
0000
,
1000
0000
0000
0000
,
0001
0000
0000
0000
,
0200
0000
0000
0000
,
0000
0000
0000
0000
,
0320
0000
0000
0000
,
2030
0000
0000
0000
,
3002
0000
0000
0000
,
0000
0000
0000
0000
,
0023
0000
0000
0000
,
0230
0000
0000
0000
,
1300
0000
1000
0000
,
0100
0000
0010
0000
,
0001
0000
0000
0000
,
0100
0000
0000
0000
,
0010
0000
0000
0000
,
1000
0000
0000
0000
,
0000
0000
0100
0000
,
0100
0000
0000
0000
,
0110
0000
0000
0000
,
0010
0000
0000
0000
,
0110
0000
0000
0000
,
1000
0000
0000
0000
,
1001
0000
0000
0000
,
0002
0000
0000
0000
,
2003
0000
0000
0000
,
3001
0000
0000
1000
,
1000
0000
0000
0000
,
0100
0000
0000
0000
,
0010
0000
0000
0000
,
0001
0000
0000
0000
,
0000
0000
1000
0000
,
1000
0000
0000
0000
,
0010
0000
0000
0000
,
0100
0000
0000
0000
,
0001
0000
0000
0000
,
0010
0000
0000
0000
,
0001
0000
0000
0000
,
1000
0000
0000
0000
,
0100
0000
0000
0000
,
1000
0000
0000
0000
,
0001
0000
0000
0000
;

//---------------dance-single - Blank----------------
#NOTES:
     dance-single:
     :
     Medium:
     6:
     0.275,0.286,0.145,0.218,0.005,172.000,16.000,24.000,0.000,0.000,0.000,0.275,0.286,0.145,0.218,0.005,172.000,16.000,24.000,0.000,0.000,0.000: // measure 0
1000
0000
0000
0000
1000
0001
0000
0000
,  // measure 1
0001
0000
0000
0000
0001
0100
0000
0000
,  // measure 2
0100
0000
0000
0000
0100
0010
0000
0000
,  // measure 3
0010
0000
0000
0000
0010
1000
0000
0000
,  // measure 4
0001
0000
0000
0000
1000
0001
0000
0000
,  // measure 5
0010
0000
0000
0000
0100
0010
0000
0000
,  // measure 6
0100
1000
0001
0100
,  // measure 7
0010
0010
0010
0000
,  // measure 8
1000
0001
1000
0000
0001
1000
0001
0000
,  // measure 9
0010
0000
0100
0000
,  // measure 10
1000
0010
0001
0010
,  // measure 11
0001
0100
0010
1000
,  // measure 12
0100
0010
0100
0000
0010
0100
0010
0000
,  // measure 13
0100
0100
0000
0000
,  // measure 14
1100
1000
0001
0100
,  // measure 15
0001
0100
0001
0000
,  // measure 16
0101
0001
1000
0100
,  // measure 17
1000
0100
1000
0000
,  // measure 18
1010
1000
0001
0010
,  // measure 19
0001
0010
0001
0000
,  // measure 20
0011
0001
1000
0010
,  // measure 21
1000
0010
1000
0000
,  // measure 22
1001
0010
1001
0100
,  // measure 23
0110
1000
0110
0001
,  // measure 24
0012
1000
0103
0000
,  // measure 25
2010
0001
3100
0000
,  // measure 26
0102
1000
0013
0000
,  // measure 27
2100
0001
3010
0000
,  // measure 28
1000
0100
0010
0001
1000
0000
0000
0000
,  // measure 29
0020
0030
0020
0030
,  // measure 30
1000
0100
0010
0001
,  // measure 31
0200
0300
0200
0300
,  // measure 32
0001
0010
0100
1000
,  // measure 33
0020
0030
0020
0030
,  // measure 34
0100
0000
0010
0000
1000
0000
0001
1000
,  // measure 35
1001
0000
1001
0000
,  // measure 36
0011
0000
1100
0000
,  // measure 37
1000
0000
1000
0000
0001
1000
0001
1000
,  // measure 38
0001
0000
0100
0000
,  // measure 39
0010
0100
0020
0000
,  // measure 40
1030
0010
2000
0000
,  // measure 41
3001
1000
0002
0000
,  // measure 42
0000
0000
0203
0000
,  // measure 43
0310
0100
0020
0000
,  // measure 44
1030
0010
1000
0000
0010
1000
0010
0000
,  // measure 45
1000
0001
2000
0000
,  // measure 46
3001
1000
0002
0000
,  // measure 47
0013
0000
0000
0010
0000
0000
0010
0000
0000
0000
0000
0000
0100
0000
0000
0000
,  // measure 48
0200
0000
2300
0000
,  // measure 49
3020
0000
0230
0000
,  // measure 50
0302
0000
2003
0000
,  // measure 51
3002
0000
0000
0000
,  // measure 52
1000
1000
1003
0000
;
