#TITLE:I Love Everything;
#SUBTITLE:;
#ARTIST:Jackle App;
#TITLETRANSLIT:;
#SUBTITLETRANSLIT:;
#ARTISTTRANSLIT:;
#GENRE:Trance;
#CREDIT:;
#BANNER:I Love Everything.png;
#BACKGROUND:I Love Everything-bg.png;
#LYRICSPATH:;
#CDTITLE:;
#MUSIC:I Love Everything.ogg;
#OFFSET:-7.660;
#SAMPLESTART:37.700;
#SAMPLELENGTH:15.000;
#SELECTABLE:YES;
#BPMS:0.000=64.000
;
#STOPS:
;
#BGCHANGES:-8.000=I Love Everything.avi=1.000=0=0=0=StretchNoLoop====,
99999=-nosongbg-=1.000=0=0=0 // don't automatically add -songbackground-
;
#KEYSOUNDS:;
#ATTACKS:;

//---------------dance-single - Blank----------------
#NOTES:
     dance-single:
     :
     Hard:
     9:
     0.239,0.216,0.000,0.095,0.157,166.000,0.000,10.000,0.000,0.000,0.000,0.239,0.216,0.000,0.095,0.157,166.000,0.000,10.000,0.000,0.000,0.000:
1000
0000
0010
0100
0000
0000
0010
0000
1000
0000
0100
0010
0000
0000
0001
0000
,
0100
0000
0010
0100
0000
0000
0001
0000
0010
0000
0100
0000
1000
0000
0000
0000
,
0010
1000
0100
1000
2000
0000
3020
0000
,
0130
0001
0200
0000
0320
0000
0230
0000
,
0301
0000
0001
0010
0100
0000
0010
0000
0001
0000
0100
0000
0010
0000
1000
0000
,
0100
0000
1000
0001
0100
0000
0010
0000
0100
0000
0001
0010
0100
0000
0001
0000
,
0100
0000
1000
0001
0100
0000
1000
0000
0100
0000
0010
1000
0001
0000
0010
0000
,
0100
0000
1000
0010
0100
0000
0010
0000
2000
0000
0000
0000
0000
0000
0000
0000
,
3001
0000
0000
0010
0100
0000
1000
0000
0010
0000
0000
0100
0001
0000
0100
0000
,
0010
0000
0000
0010
1000
0000
0000
0000
0100
0000
0000
0100
1000
0000
0000
0000
,
0010
0000
0000
0100
0001
0100
0010
0000
1000
0000
0100
0000
1000
0000
0000
0000
,
0010
0000
0000
0100
0001
0010
0100
0000
0001
0000
0000
0100
0010
0000
0001
0000
,
0100
0000
0000
0010
1000
0100
1000
0000
0010
0000
0100
0000
1000
0000
0000
0000
,
0100
0000
0000
0001
1000
0100
0001
0000
0100
0000
1000
0000
0010
0000
0000
0000
,
0100
0000
0000
0000
0001
0010
0100
1000
0001
0000
0000
0000
0100
0000
0000
0000
,
0010
0000
0000
0000
0100
0001
0010
0100
1000
0000
0000
0000
0001
0000
0000
0000
,
0200
0000
0320
0000
,
2030
0000
3002
0000
,
0013
0000
0000
0000
0001
0000
0100
0000
0010
0000
0000
0000
1000
0000
0000
0100
,
1000
0000
0000
0000
0010
0000
0100
0000
0001
0000
0000
0010
0001
0000
0000
0000
,
0100
0000
0010
0000
1000
0000
0000
0000
0100
0000
0000
0100
1000
0000
0010
0000
,
0100
0000
0000
0001
0100
0000
0000
0000
1000
0000
0000
0000
0100
0000
0001
0000
,
0010
0000
0000
0100
1000
0000
0100
0000
0001
0000
0100
0000
1000
0000
0010
0100
,
0001
0000
0000
0000
0100
0000
0000
0000
0010
0000
0000
0000
1000
0000
0001
0010
;

//---------------dance-single - Blank----------------
#NOTES:
     dance-single:
     :
     Medium:
     5:
     0.171,0.148,0.000,0.086,0.038,117.000,0.000,9.000,0.000,0.000,0.000,0.171,0.148,0.000,0.086,0.038,117.000,0.000,9.000,0.000,0.000,0.000:
1000
0000
0010
0000
0100
0001
0100
0000
,
0010
0000
2000
0000
0000
0000
0000
0010
,
3010
0100
0001
0002
0000
0000
0000
0000
,
0023
0000
0230
0000
,
1300
0000
0000
0001
1000
0000
0000
0000
0010
0000
0000
0100
0010
0000
0000
0000
,
1000
0000
0000
0100
0010
0000
0000
0000
0100
0000
0000
1000
0001
0000
0000
0000
,
0100
0000
0000
0010
0100
0000
0000
0000
0001
0000
0000
0010
0100
0000
0000
0000
,
1000
0000
0000
0010
0100
0000
0000
0000
0002
0000
0000
0000
0000
0000
0000
0000
,
0013
0000
0100
0000
0001
0100
1000
0000
,
0100
0000
0010
0000
0001
0100
0010
0000
,
0100
0000
0001
0010
0100
0100
0000
0000
,
0010
0000
0001
0100
1000
0000
0100
0010
,
1000
0000
0001
0010
0001
0001
0000
0000
,
0100
0000
0010
0100
0001
0000
1000
0000
,
0010
0000
0100
0010
1000
0000
0001
0000
,
0010
0000
0100
1000
0100
0100
1000
1000
,
0020
0000
0230
0000
,
0302
0000
0023
0000
,
0130
0000
0001
0000
0100
1000
0001
0000
,
0100
0000
1000
0000
0100
0000
0010
1000
,
0001
0000
0010
0000
0100
0010
0001
0000
,
0100
0000
0010
0010
1000
0000
0100
1000
,
0001
0000
0100
0000
0010
0100
0001
0001
,
1000
0000
0000
0000
0100
0000
0000
0000
0010
0000
0100
0000
1000
0000
0100
0001
;

//---------------dance-single - Blank----------------
#NOTES:
     dance-single:
     :
     Easy:
     3:
     0.102,0.090,0.010,0.124,0.000,61.000,1.000,13.000,0.000,0.000,0.000,0.102,0.090,0.010,0.124,0.000,61.000,1.000,13.000,0.000,0.000,0.000:
1000
0000
0010
0000
,
0100
0000
0001
0000
,
0010
0000
0100
0000
,
2000
0000
0000
0000
,
3010
0000
0100
0000
,
0001
0000
0000
0000
,
0010
0000
0100
0000
,
1000
0000
0020
0000
,
0130
0201
0000
0000
,
0310
1000
0200
0000
,
1300
0001
0020
0000
,
0130
0010
0002
0000
,
1003
0010
0200
0000
,
1300
0100
0002
0000
,
1003
0100
0002
0000
,
0103
0010
0001
0100
,
0020
0000
2030
0000
,
3002
0000
0203
0000
,
0310
0100
0100
0000
,
0001
0100
0100
0000
,
0010
1000
1000
0000
,
0100
1000
1000
0000
,
0001
0010
0010
0000
,
0100
0010
0010
0010
;

//---------------dance-single - Blank----------------
#NOTES:
     dance-single:
     :
     Beginner:
     1:
     0.064,0.067,0.000,0.067,0.000,40.000,0.000,7.000,0.000,0.000,0.000,0.064,0.067,0.000,0.067,0.000,40.000,0.000,7.000,0.000,0.000,0.000:
1000
0000
0000
0000
,
0010
0000
0000
0000
,
0100
0000
0000
0000
,
0001
0000
0000
0000
,
2000
3000
0002
0003
,
0100
0000
0000
0000
,
0020
0030
2000
3000
,
0002
0000
0003
0000
,
0010
0000
0100
0000
,
1000
0000
0001
0000
,
0100
0000
0001
0000
,
1000
0000
0010
0000
,
0100
0000
0001
0000
,
0010
0000
0100
0000
,
0001
0000
0100
0000
,
1000
0000
0010
0000
,
0200
0000
0300
0000
,
0002
0000
0003
0000
,
1000
0000
0010
0000
,
0100
0000
0001
0000
,
0010
0000
0010
0000
,
0100
0000
0100
0000
,
0001
0000
0100
0000
,
0010
0000
0001
0000
;

//---------------dance-single - Blank----------------
#NOTES:
     dance-single:
     :
     Challenge:
     13:
     0.601,0.498,0.400,0.209,0.914,378.000,42.000,22.000,0.000,0.000,0.000,0.601,0.498,0.400,0.209,0.914,378.000,42.000,22.000,0.000,0.000,0.000: // measure 0
0010
1000
0001
0010
0000
0000
0100
0100
1000
0010
0100
0020
0000
0000
1030
0000
,  // measure 1
1000
0001
0100
0002
0000
0000
0000
0000
1003
0001
0010
0100
0000
0000
0010
0100
,  // measure 2
0010
0010
0002
0000
0203
0000
0320
0000
1030
0010
0100
0001
0000
1000
0100
0000
,  // measure 3
0010
0001
0100
1000
0000
0001
0010
0000
1000
0010
0100
0010
0000
0100
0001
0010
,  // measure 4
0100
0000
0000
0100
0000
0000
1000
0000
1001
0000
0000
0000
0001
0000
0010
0000
0100
0000
0010
0000
0100
0000
0010
0000
0110
0000
0000
0000
0020
0000
0000
0000
,  // measure 5
0031
0010
0001
0100
0110
0010
1000
0000
0010
1000
0010
1000
1001
0001
0010
0000
,  // measure 6
0100
1000
0010
0100
0110
0000
0020
2030
3001
1000
0100
0010
0110
0100
1000
0000
,  // measure 7
0001
0000
0100
0000
0001
0000
0010
0000
0110
0000
0100
0000
1000
0000
0000
0000
0001
0000
1000
0000
0010
0000
0100
0000
0001
0000
0000
0001
0000
1000
0000
0000
,  // measure 8
0001
0100
0010
1000
1001
0000
0001
0001
1000
0100
0010
0001
1001
0000
1000
1000
,  // measure 9
0010
0001
0010
1000
1100
0100
0010
0000
0001
0100
0001
1000
1010
0010
0100
0000
,  // measure 10
0001
0000
1000
0000
0001
0000
0010
0100
1000
0000
0010
0000
1000
0000
0010
0000
0200
0000
0000
0310
0100
0000
0010
0000
1010
0000
1000
0000
0001
0000
0000
0000
,  // measure 11
1000
0000
0100
0000
1000
0000
0010
0100
0002
0000
0013
0000
0002
0000
1003
0000
2020
0000
3030
0000
0010
0000
0100
0001
0100
0000
0001
0000
1000
0000
0000
0000
,  // measure 12
0100
0000
0010
0000
0100
0000
1000
0010
2000
0000
3010
0000
2000
0000
3001
0000
0011
0000
0000
0010
0100
0000
1000
0000
1001
0000
0001
0000
0100
0000
0000
0000
,  // measure 13
0001
0000
0010
0000
1000
0000
0010
0100
1000
0000
0010
0000
1000
0000
0001
0000
0011
0000
0000
0000
0010
0000
0100
1000
0001
0000
0100
0000
0001
0000
0000
0000
,  // measure 14
1000
0000
0001
0000
0010
0000
0100
1000
0002
0000
0013
0000
0002
0000
1003
0000
1010
0000
0000
0000
0010
0000
0100
0000
0101
0000
0001
0000
0010
0000
0000
0000
,  // measure 15
0100
0000
1000
0000
0001
0000
0100
0001
2000
0000
3010
0000
2000
0000
3001
0000
0001
0010
0100
1000
0001
0000
1000
0010
0100
0001
1000
0000
0000
0000
0000
0000
,  // measure 16
0200
0000
0000
0000
0000
0000
0310
0100
1000
0000
0001
0000
1000
0000
0010
0000
0200
0000
0000
0000
0000
0000
0000
0000
0302
0000
0000
0000
0000
0000
0000
0000
,  // measure 17
1003
0000
0001
0000
1000
0000
0100
0010
0100
0000
1000
0000
0010
0000
0100
0000
0001
0010
0100
1000
0001
0000
1000
0100
1000
0010
0100
0000
0010
0000
1000
0000
,  // measure 18
0001
0000
0000
0000
0010
0000
0010
0000
0110
0000
1100
0000
0001
0000
1100
0000
1000
0000
0000
0000
0001
0000
0010
0000
0110
0000
0000
0011
0000
0000
0011
0000
,  // measure 19
0001
0000
1000
0000
0010
0000
0100
0000
0001
0000
0000
0001
0000
0000
0000
0000
0011
0000
1100
0000
1000
0000
0010
0000
0001
0000
0000
0001
0010
0000
0100
0000
,  // measure 20
0010
0000
0000
0000
1000
0000
0010
0000
0110
0000
0101
0000
1000
0000
0101
0000
0001
0000
0000
0000
1000
0000
0010
0000
0110
0000
0000
1010
0000
0000
1010
0000
,  // measure 21
1000
0000
0001
0000
0010
0000
0100
0000
1000
0000
0000
1000
0000
0000
0000
0000
1010
0000
0101
0000
0001
0000
0010
0000
1000
0000
0000
1000
0010
0000
0100
0000
,  // measure 22
0010
0000
0001
0000
0010
0000
0001
0000
0100
0000
0110
0000
1001
0000
0110
0000
1010
0000
0000
0000
1010
0000
0000
0000
1000
0000
0000
0001
1000
0000
0100
0000
,  // measure 23
0011
0000
0000
0000
0011
0000
0000
0000
0001
0000
0000
1000
0001
1000
0001
0000
1000
0000
0010
0000
0100
0000
0001
0000
0010
0000
0000
0100
1000
0000
1000
0000
,  // measure 24
0001
0010
0100
1000
0010
0100
0010
0000
0000
0000
0000
0000
0110
0000
0010
0000
1000
0010
0100
0001
0010
0100
0010
0100
1000
0001
0100
0010
0001
0000
0010
0000
,  // measure 25
1000
0100
0001
0100
1000
0100
0001
0100
1000
0010
0001
0010
1000
0010
0001
0010
1000
0000
0000
0000
0000
0000
0000
0000
0000
0000
0000
0000
0000
0000
0000
0000
;
