#TITLE:I Am No Hero;
#SUBTITLE:;
#ARTIST:MandoPony;
#TITLETRANSLIT:;
#SUBTITLETRANSLIT:;
#ARTISTTRANSLIT:;
#GENRE:Rock;
#CREDIT:;
#BANNER:I Am No Hero.png;
#BACKGROUND:I Am No Hero-bg.png;
#LYRICSPATH:;
#CDTITLE:;
#MUSIC:I Am No Hero.mp3;
#OFFSET:-0.682;
#SAMPLESTART:61.060;
#SAMPLELENGTH:15.000;
#SELECTABLE:YES;
#BPMS:0.000=142.000
;
#STOPS:
;
#BGCHANGES:-32.000=Hiphop.avi=1.000=0=0=0=StretchNoLoop====,
-3.981=I Am No Hero-bg.png=1.000=0=0=1=Centered====,
99999=-nosongbg-=1.000=0=0=0 // don't automatically add -songbackground-
;
#KEYSOUNDS:;
#ATTACKS:;

//---------------dance-single - ----------------
#NOTES:
     dance-single:
     :
     Beginner:
     2:
     0.122,0.160,0.027,0.009,0.000,92.000,3.000,1.000,0.000,0.000,0.000,0.122,0.160,0.027,0.009,0.000,92.000,3.000,1.000,0.000,0.000,0.000:
1000
0000
0000
0000
,
0000
0000
1000
0000
,
0000
0000
0000
0000
,
0010
0000
0000
0000
,
0000
0000
0010
0000
,
0000
0100
0000
0000
,
0001
0000
0000
0000
,
0000
0000
0001
0000
,
0000
0000
0000
0000
,
1000
0000
0000
0000
,
0000
0000
0010
0010
,
0010
0010
0000
0000
,
1000
0000
0000
1000
,
0000
0000
0001
0000
,
0000
0001
0000
0000
,
0100
0000
0000
0010
,
0000
0000
0100
0000
,
0000
0010
0000
0000
,
1000
0000
0000
0001
,
0000
0000
1000
0000
,
0000
0001
0000
0000
,
0100
0000
0000
0010
,
0000
0000
0100
0000
,
0000
0010
0000
0010
,
1000
0000
0000
1000
,
0000
0000
0001
0000
,
0000
0001
0000
0000
,
1000
0000
0000
0001
,
0001
0001
0100
0000
,
0000
0010
0000
0000
,
1000
0000
0000
1000
,
0000
0000
0100
0000
,
0000
0010
0000
0000
,
0001
0000
0000
0001
,
0000
0000
1000
0000
,
0000
1000
1000
1000
,
0001
0000
0000
1000
,
0000
0000
0001
0000
,
0000
0100
0000
0000
,
0001
0000
0000
1000
,
0000
0000
0100
0000
,
0000
0010
0000
0100
,
0110
0000
0000
0010
,
0000
0000
0001
0000
,
0000
0100
0000
0000
,
0010
0000
0000
1000
,
1000
1000
0001
0000
,
0000
1001
0000
1000
,
1000
0000
0000
0001
,
0000
0000
0100
0000
,
0000
0001
0000
0000
,
1000
0000
0000
0001
,
0000
0000
0010
0000
,
0000
0001
0000
0000
,
1000
0000
0000
1000
,
1000
1000
0001
0000
,
0000
0001
0001
0001
,
0100
0000
0000
0100
,
0100
0100
0020
0000
,
0030
0010
0000
0000
,
0110
0000
0000
0000
;

//---------------dance-single - ----------------
#NOTES:
     dance-single:
     :
     Easy:
     3:
     0.123,0.133,0.009,0.000,0.000,96.000,1.000,0.000,0.000,0.000,0.000,0.123,0.133,0.009,0.000,0.000,96.000,1.000,0.000,0.000,0.000,0.000:
1000
0000
0000
0010
,
0000
0000
0100
0000
,
0000
0001
0000
0000
,
0010
0000
0000
0100
,
0000
0000
1000
0000
,
0000
0001
0000
0000
,
0100
0000
0000
0010
,
0000
0000
0100
0000
,
0000
0001
0000
0000
,
1000
0000
0000
0010
,
0000
0000
0100
0000
,
0000
0001
0001
0001
,
0001
0000
0000
0010
,
0000
0000
0100
0000
,
0000
1000
0000
0000
,
0010
0000
0000
0100
,
0000
0000
0001
0000
,
0000
0010
0000
0100
,
0100
0000
0000
1000
,
0000
0000
0010
0000
,
0000
0100
0000
0000
,
0001
0000
0000
0100
,
0000
0000
0010
0000
,
0000
1000
0000
1000
,
1000
0000
0000
0010
,
0000
0000
0100
0000
,
0000
0001
0000
0000
,
0100
0000
0000
0010
,
0000
0000
1000
0000
,
0000
0001
0000
0010
,
0010
0000
0000
0001
,
0000
0000
0100
0000
,
0000
0010
0000
0000
,
1000
0000
0000
0100
,
0000
0000
0010
0000
,
0000
0001
0001
0001
,
0001
0000
0000
0100
,
0000
0000
0010
0000
,
0000
1000
0000
0000
,
0001
0000
0000
0010
,
0000
0000
0100
0000
,
0000
1000
0000
0010
,
0010
0000
0000
0100
,
0000
0000
0001
0000
,
0000
0010
0000
0100
,
0100
0000
0000
0001
,
0000
0000
0100
0000
,
0000
1000
1000
1000
,
0010
0000
0000
0100
,
0000
0000
0001
0000
,
0000
0010
0000
0000
,
0100
0000
0000
1000
,
0000
0000
0010
0000
,
0000
0100
0000
0001
,
0001
0000
0000
0010
,
0000
0000
0100
0000
,
0000
1000
0000
0000
,
0010
0000
0000
0100
,
0000
0000
0001
0001
,
0001
1000
1000
0000
,
1001
0000
0000
0000
;

//---------------dance-single - Blank----------------
#NOTES:
     dance-single:
     :
     Hard:
     12:
     0.529,0.427,0.205,0.107,0.076,381.000,23.000,12.000,0.000,0.000,0.000,0.529,0.427,0.205,0.107,0.076,381.000,23.000,12.000,0.000,0.000,0.000:
1010
0000
0010
1000
0100
0010
0001
0000
,
0010
0001
0100
0010
1000
0000
0100
0010
,
0100
0010
0100
0000
1000
0010
0100
0001
,
0010
0000
0100
0010
0100
0010
0100
0000
,
1000
0001
0100
0010
0100
0000
0001
0010
,
0100
1000
0010
1000
0000
0000
1100
0100
,
0010
0000
0001
0010
0001
0100
0010
0000
,
1000
0010
1000
0100
0010
0000
0001
1000
,
0001
0100
0010
0000
1000
0001
1000
0100
,
0010
0000
0001
0010
0001
0100
1000
0000
,
1000
0001
1000
0100
0010
0000
1000
0010
,
1000
0000
0100
0000
0010
0000
0000
0000
0000
0000
0000
0000
0011
0000
0010
0100
,
1000
0000
0010
0000
1000
0020
1000
0000
,
0130
0000
0000
0000
0010
0000
0100
0001
0200
0000
0000
0000
0301
0000
0100
0000
,
0001
1000
0100
0000
0010
0100
1000
0000
,
1010
0000
0010
0100
0000
0100
0101
0000
,
0001
0000
0000
0000
0010
0000
0100
1000
0010
0000
0000
0000
1000
0000
0010
0000
,
0100
0001
0010
0000
0001
1000
0010
1000
,
0001
0000
1000
0001
0000
0001
0100
0000
,
0010
0000
1000
0000
0100
0000
1000
0100
0010
0000
0000
0000
0010
0000
0001
0000
,
0100
0001
0010
0000
0100
1000
0010
1000
,
0100
0000
0010
0001
0010
0001
0100
0000
,
0010
0000
1000
0000
0010
0000
1000
0001
1000
0000
0000
0000
0001
0000
0010
0000
,
0100
1000
0001
0000
1001
0000
1000
1000
,
0010
0000
0100
0010
0100
0010
0100
0000
,
0001
0000
1000
0000
0001
0000
1000
0100
0010
0000
0001
0000
0010
0000
0100
0000
,
1000
0010
1000
0000
1010
0000
0110
0000
,
0200
0302
0023
0230
,
1300
0000
0001
0000
0000
0000
1000
0100
1000
0000
0000
0000
0010
0000
1000
0000
,
0001
0100
0001
0000
0010
0001
1000
0100
,
1000
0000
0010
0000
1000
0010
1000
0000
,
0001
0000
1000
0000
0001
0000
1000
0001
0100
0000
0000
0000
0010
0000
1000
0000
,
0010
0000
0100
0000
0001
0010
0001
0000
,
0011
0110
1100
1010
,
0101
0000
0000
0000
0011
0000
0010
0100
1000
0000
0000
0000
0001
0000
1000
0000
,
0001
1000
0001
0000
0010
0010
0100
1000
,
0010
0000
1000
0010
1000
0001
0010
0000
,
0100
1000
0010
0100
0001
0000
1000
0001
,
1000
0000
0100
0010
0001
0000
1000
0000
0010
0000
0000
0000
0010
0000
0000
0000
,
0010
1000
0000
1000
0100
0000
0010
0000
,
0001
0100
0001
0000
1001
0000
1000
0100
,
0010
0000
0001
1000
0001
0000
1000
0000
0010
0000
0000
0000
0010
0000
0100
0000
,
0010
0000
0100
0001
1000
0010
1000
0000
,
0110
0000
1001
0000
0001
0000
0010
0001
,
0010
0000
0100
1000
0001
0000
0100
0000
0001
0000
0000
0000
0101
0000
0100
0000
,
0010
0000
1000
0010
1000
0100
0010
0000
,
0001
0000
0010
0000
0001
0000
0100
0000
0010
0100
0010
0000
0000
0000
0010
0000
,
1000
0000
0100
0010
0100
0000
0000
0000
0010
0000
0010
0000
0010
0000
0010
0000
,
0110
0000
0010
0001
0100
0010
1000
0000
,
0010
1000
0100
0010
0001
0000
1000
0001
,
1000
0000
0100
0010
0001
0000
1000
0000
0001
0000
0000
0000
1001
0000
0000
0000
,
1000
0000
0010
1000
0000
1000
0100
0000
,
0010
0000
0001
0100
0001
0000
1000
0000
,
1001
0000
1000
0010
0100
0000
0001
0000
1000
0000
0000
0000
1100
0000
0100
0000
,
0010
0000
0001
0100
0001
0100
0002
0000
,
0023
0000
0230
0000
1300
0000
0010
1000
,
0010
1000
0020
0000
0230
0000
0302
0000
,
1003
0000
0001
1000
0001
0000
1000
0000
,
0001
1000
0100
0000
0010
0000
0100
1000
,
0010
0000
0100
0001
0100
0000
0000
0000
0000
0000
0000
0000
0001
0000
0010
0000
,
0110
0000
0000
0000
;

//---------------dance-single - Blank----------------
#NOTES:
     dance-single:
     :
     Medium:
     8:
     0.374,0.320,0.080,0.071,0.000,277.000,9.000,8.000,0.000,0.000,0.000,0.374,0.320,0.080,0.071,0.000,277.000,9.000,8.000,0.000,0.000,0.000: // measure 0
1000
0000
0000
0010
1000
0000
0010
0000
,  // measure 1
0000
0100
0001
0000
0010
0000
0000
0001
,  // measure 2
0010
0000
0100
0000
0000
1000
0100
0000
,  // measure 3
1000
0000
0000
0001
1000
0000
0010
0000
,  // measure 4
0000
0100
0010
0000
1000
0000
0000
0010
,  // measure 5
1000
0001
0100
0000
0001
0010
0001
0010
,  // measure 6
0001
0000
0000
0001
0010
0000
0010
0000
,  // measure 7
0000
0010
0100
0000
0100
0000
0000
0100
,  // measure 8
1000
0000
1000
0000
0000
1000
0010
0000
,  // measure 9
0110
0000
0000
0100
0001
0000
1000
0000
,  // measure 10
0000
0001
0100
0000
0001
0000
0000
1000
,  // measure 11
0100
0000
0001
0000
0000
0100
1000
0010
,  // measure 12
1000
0000
0001
0000
1000
0001
0000
0000
,  // measure 13
0010
0000
0100
0020
0000
0130
0000
0000
,  // measure 14
0010
0100
1000
0000
0001
0000
0001
0000
,  // measure 15
0101
0000
0001
0010
,  // measure 16
0100
0000
1000
0010
1000
0000
0000
0010
,  // measure 17
1000
0000
0001
0000
0000
0010
0001
0000
,  // measure 18
0010
0000
0001
0100
0000
0010
1000
0000
,  // measure 19
0001
0000
0000
1000
0100
0000
0010
0001
,  // measure 20
0000
0100
0010
0000
1000
0000
1000
0001
,  // measure 21
2000
0000
3010
2000
,  // measure 22
3020
0000
0130
0001
0000
0000
0000
1000
,  // measure 23
0000
1000
0100
0000
0010
0000
0100
1000
,  // measure 24
0010
0000
0100
0000
0001
0100
0001
0000
,  // measure 25
0000
0000
0010
0000
0100
1000
0100
0000
,  // measure 26
1000
0001
1000
0000
0000
0000
0001
0010
,  // measure 27
0002
0023
0230
1300
,  // measure 28
1000
0010
0000
0010
0100
0000
0000
0001
,  // measure 29
0000
0001
0100
0000
0010
0000
1000
0000
,  // measure 30
0100
0010
0100
0110
,  // measure 31
0100
0000
0010
0000
0011
0000
0001
1000
,  // measure 32
0000
1000
0001
0000
0100
0000
0010
0000
,  // measure 33
1000
0000
0000
1000
0000
0000
1000
0000
,  // measure 34
0001
0010
0001
0000
,  // measure 35
0000
0000
0001
0010
0000
0010
0100
1000
,  // measure 36
0010
0000
1000
0010
1000
0000
0010
0000
,  // measure 37
1000
0010
1000
0000
0001
0000
1000
0001
,  // measure 38
1000
0001
1000
0000
0010
0000
0010
0000
,  // measure 39
0100
0000
0001
0100
0001
0000
0010
0000
,  // measure 40
0001
0100
0001
0000
0010
0000
0100
1000
,  // measure 41
0100
1000
0000
1001
,  // measure 42
1001
0000
1000
0100
1000
0000
0001
0000
,  // measure 43
0100
0001
0100
0000
0010
0000
1000
0001
,  // measure 44
1000
0000
0100
0000
0010
0001
0010
0000
,  // measure 45
0100
0100
1000
0010
,  // measure 46
0010
0000
0100
0000
0001
2000
0000
0000
,  // measure 47
0000
3001
1000
0000
0100
0010
0100
0010
,  // measure 48
0001
0000
1000
0001
1000
0000
0010
0000
,  // measure 49
1000
0001
1000
0000
0100
0000
1000
0001
,  // measure 50
1000
0001
1000
0000
0100
0000
0100
0000
,  // measure 51
0010
0000
0001
0010
0000
0001
0100
0000
,  // measure 52
0010
0000
1000
0100
1000
0000
0010
0000
,  // measure 53
1000
0100
0010
0000
0001
0000
0001
0000
,  // measure 54
1001
1000
0100
0010
,  // measure 55
0010
0000
0010
0000
0110
0000
0100
1000
,  // measure 56
0001
0100
0010
0000
0010
0000
0010
0000
,  // measure 57
0110
0000
0100
0001
0000
0001
1000
0000
,  // measure 58
0100
1000
0000
1000
0001
0100
0000
0100
,  // measure 59
0000
0100
0010
0000
0000
0010
1000
0100
,  // measure 60
0010
0000
0000
0000
;
