#VERSION:0.81;
#TITLE:Harder, Better, Faster, Stronger;
#SUBTITLE:;
#ARTIST:Daft Punk;
#TITLETRANSLIT:;
#SUBTITLETRANSLIT:;
#ARTISTTRANSLIT:;
#GENRE:Electro-House;
#ORIGIN:;
#CREDIT:;
#BANNER:Harder Better Faster Stronger.png;
#BACKGROUND:;
#PREVIEWVID:;
#JACKET:Harder Better Faster Stronger-jacket.png;
#CDIMAGE:;
#DISCIMAGE:;
#LYRICSPATH:;
#CDTITLE:;
#MUSIC:Harder Better Faster Stronger.mp3;
#OFFSET:-0.060;
#SAMPLESTART:54.440;
#SAMPLELENGTH:15.000;
#SELECTABLE:YES;
#BPMS:0.000=126.821,
1.000=118.056,
2.000=123.311,
3.000=126.742,
4.000=121.348,
5.000=122.296,
6.000=125.743,
7.000=124.272,
8.000=127.838,
9.000=117.199,
10.000=122.279,
11.000=127.857,
12.000=125.748,
13.000=121.812,
14.000=124.752,
15.000=122.296,
16.000=117.199,
17.000=127.838,
18.000=122.296,
19.000=122.279,
20.000=122.296,
21.000=125.754,
22.000=123.265,
23.000=126.295,
24.000=119.453,
25.000=127.857,
26.000=125.743,
27.000=119.023,
28.000=122.279,
30.000=125.754,
31.000=124.752,
32.000=124.764,
33.000=125.737,
34.000=121.354,
36.000=118.056,
37.000=125.748,
38.000=126.548,
39.000=125.510,
40.000=122.285,
41.000=127.838,
42.000=117.199,
43.000=127.857,
44.000=122.279,
45.000=121.326,
46.000=124.266,
47.000=124.717,
48.000=123.270,
50.000=122.285,
51.000=133.927,
52.000=115.420,
53.000=125.778,
54.000=120.855,
55.000=122.037,
56.000=122.534,
57.000=128.878,
58.000=121.348,
59.000=127.838,
60.000=122.285,
62.000=120.360,
63.000=124.752,
64.000=121.812,
65.000=125.748,
66.000=121.818,
67.000=123.743,
68.000=126.012,
69.000=119.696,
70.000=128.359,
71.000=127.328,
72.000=117.194,
73.000=123.743,
74.000=126.283,
75.000=122.279,
76.000=117.194,
77.000=127.845,
78.000=124.225,
79.000=125.784,
80.000=122.279,
81.000=119.221,
82.000=125.249,
83.000=119.940,
84.000=128.353,
85.000=124.494,
86.000=133.927,
87.000=115.003,
88.000=123.013,
89.000=124.004,
90.000=122.285,
91.000=124.004,
92.000=123.495,
93.000=122.285,
94.000=122.756,
95.000=124.272,
96.000=122.279,
97.000=127.845,
98.000=122.279,
99.000=127.845,
100.000=115.420,
101.000=124.266,
102.000=131.629,
103.000=124.266,
104.000=117.189,
105.000=122.279,
106.000=127.845,
107.000=127.838,
108.000=117.189,
109.000=123.495,
110.000=121.098,
111.000=127.838,
112.000=122.285,
114.000=127.838,
115.000=119.908,
116.000=125.778,
117.000=116.297,
118.000=133.927,
119.000=117.189,
120.000=127.838,
121.000=122.285,
122.000=127.838,
123.000=122.285,
126.000=127.845,
127.000=117.183,
128.000=122.285,
129.000=125.778,
130.000=124.231,
131.000=122.285,
132.000=122.750,
133.000=121.818,
134.000=127.838,
135.000=125.743,
136.000=121.812,
137.000=119.458,
138.000=126.012,
139.000=124.004,
140.000=127.838,
141.000=120.822,
142.000=123.784,
143.000=122.279,
144.000=122.756,
145.000=128.359,
146.000=126.821,
147.000=117.183,
148.000=117.189,
149.000=127.845,
150.000=127.838,
151.000=117.189,
152.000=127.838,
153.000=122.756,
154.000=121.812,
155.000=125.784,
156.000=124.488,
157.000=119.664,
158.000=125.249,
159.000=121.812,
160.000=127.845,
161.000=120.360,
162.000=124.752,
163.000=121.812,
164.000=128.878,
165.000=119.012,
166.000=124.752,
167.000=122.285,
168.000=125.243,
169.000=127.845,
170.000=119.453,
171.000=122.285,
172.000=127.838,
173.000=122.285,
176.000=123.013,
178.000=126.283,
179.000=125.243,
180.000=120.399,
181.000=123.007,
182.000=126.012,
183.000=120.360,
184.000=124.266,
185.000=122.285,
187.000=127.845,
188.000=122.279,
189.000=122.540,
190.000=124.225,
191.000=125.516,
192.000=122.279,
195.000=123.483,
196.000=126.554,
197.000=120.602,
198.000=124.010,
199.000=122.534,
200.000=126.012,
201.000=121.315,
202.000=124.752,
203.000=122.285,
204.000=125.243,
205.000=124.758,
206.000=122.279,
210.000=125.249,
211.000=124.752,
212.000=125.018,
213.000=122.973,
214.000=124.272,
215.000=122.279,
217.000=122.534,
218.000=125.249,
219.000=120.607,
220.000=126.548,
221.000=122.031,
222.000=125.243,
223.000=124.758,
224.000=122.279,
226.000=127.838,
227.000=122.756,
228.000=122.285,
229.000=121.812,
230.000=127.838,
231.000=122.285,
236.000=127.845,
237.000=122.756,
238.000=122.279,
239.000=116.754;
#STOPS:;
#DELAYS:;
#WARPS:;
#TIMESIGNATURES:0.000=4=4;
#TICKCOUNTS:0.000=4;
#COMBOS:0.000=1;
#SPEEDS:0.000=1.000=0.000=0;
#SCROLLS:0.000=1.000;
#FAKES:;
#LABELS:0.000=Song Start;
#BGCHANGES:-1.000=Harder Better Faster Stronger.avi=1.000=0=0=0=StretchNoLoop====,
99999=-nosongbg-=1.000=0=0=0 // don't automatically add -songbackground-
;
#KEYSOUNDS:;
#ATTACKS:
;

//---------------dance-single - ----------------
#NOTEDATA:;
#CHARTNAME:;
#STEPSTYPE:dance-single;
#DESCRIPTION:;
#CHARTSTYLE:;
#DIFFICULTY:Hard;
#METER:11;
#RADARVALUES:0.514,0.562,0.717,0.000,0.077,338.000,84.000,0.000,0.000,0.000,0.000,0.000,0.000,0.514,0.562,0.717,0.000,0.077,338.000,84.000,0.000,0.000,0.000,0.000,0.000,0.000;
#CREDIT:;
#NOTES:
0000
0000
0000
0000
,
0000
0000
0000
0000
,
1100
0011
1001
1010
,
0101
0011
0110
1100
,
1000
0001
0000
0000
0010
0100
0000
0000
,
1000
0010
0000
0000
0100
0001
0000
0000
,
0011
1100
1001
0101
,
1010
0011
0110
0101
,
0000
0000
0100
0001
0000
0000
0001
0100
,
0000
0000
0010
0001
0000
0000
1000
0001
,
0011
0110
1100
1001
,
0101
0110
1010
0110
,
0010
0100
0000
0000
0001
1000
0000
0000
,
0100
0010
0000
0000
0100
0100
0000
0000
,
1100
1001
0101
1100
,
0011
1010
1001
0110
,
0000
0000
1000
0100
0000
0000
0010
0001
,
0000
0000
0100
1000
0000
0000
0001
0001
,
0011
1010
1001
0011
,
0110
1100
0011
1001
,
1000
0001
0000
0000
0010
0100
0000
0000
,
1000
0010
0000
0000
0100
0001
0000
0000
,
0101
1100
1010
0011
,
0101
1100
1001
0110
,
0000
0000
0100
0001
0000
0000
0001
0100
,
0000
0000
0010
0001
0000
0000
1000
0001
,
0011
1010
0011
1010
,
1001
0000
1001
0000
1000
0010
0100
0001
,
1000
0001
0100
0001
0010
0100
0001
0100
,
1000
0000
0010
0000
0001
0000
0010
0000
0100
0000
0001
0000
1000
0000
0001
1000
,
0001
0011
0110
1100
,
1001
0101
0110
1001
,
0010
0100
1000
0100
0001
1000
0010
0001
,
0100
0000
0010
0000
0100
0000
1000
0000
0100
0000
0100
0000
0001
0000
0001
1000
,
0001
0101
0110
1010
,
1001
0011
0110
1001
,
1000
0001
0100
0001
0010
0100
0001
0100
,
1000
0010
0001
0010
0100
0001
1000
0001
,
0010
0100
1000
0100
0001
1000
0010
0001
,
0100
0010
0100
1000
0100
0100
0001
0001
,
1000
0100
1000
0001
0010
0001
0100
0010
,
1000
0001
0100
0001
0010
0100
1000
0001
,
0100
0001
0010
0100
1000
0010
0100
0001
,
1000
1000
0001
0010
0100
0100
0100
0100
,
1100
0101
1100
0101
,
1010
0011
1010
0011
,
0101
0011
1100
1010
,
0110
1001
0110
1001
,
0001
0010
0100
0010
0001
0010
0100
0010
,
0001
0100
0010
0100
0001
0100
0010
0100
,
0001
1000
0100
1000
0001
1000
0100
1000
,
0001
0010
0100
0010
0100
0100
0100
0100
,
1000
0000
0100
0000
0010
0000
0100
0000
1000
0000
0001
1000
0000
0001
0000
0100
,
0000
0000
0010
0000
0100
0000
0010
0000
1000
0000
0001
0100
0000
0000
0000
0000
,
0001
0000
0010
0100
0000
1000
0000
0000
0100
0000
1000
0000
0001
0000
0100
0010
,
0000
0100
0000
0010
0000
1000
0010
0000
1000
0000
0001
0000
1000
0000
0001
0000
,
0010
0100
1000
0100
0001
1000
0010
0001
,
0100
0010
1000
0001
0010
0100
1000
0010
,
0100
0010
0100
0010
0100
0010
0100
0010
0100
0010
0100
0010
0100
0000
0001
0000
,
0100
0010
1000
0001
0100
0100
0100
0100
,
0000
0000
0000
0000
;

//---------------dance-single - ----------------
#NOTEDATA:;
#CHARTNAME:;
#STEPSTYPE:dance-single;
#DESCRIPTION:;
#CHARTSTYLE:;
#DIFFICULTY:Beginner;
#METER:3;
#RADARVALUES:0.106,0.178,0.060,0.000,0.000,80.000,7.000,0.000,0.000,0.000,0.000,0.000,0.000,0.106,0.178,0.060,0.000,0.000,80.000,7.000,0.000,0.000,0.000,0.000,0.000,0.000;
#CREDIT:;
#NOTES:
0000
0000
0000
0000
,
0000
0000
0000
0000
,
0000
0000
0000
0000
,
0000
0000
0000
0000
,
0100
0000
0001
0000
,
1000
0000
0010
0000
,
0000
0000
0000
0000
,
0000
0000
0000
0000
,
0000
0010
0000
1000
,
0000
0001
0000
0100
,
0000
0000
0000
0000
,
0000
0000
0000
0000
,
0100
0000
0001
0000
,
1000
0000
0010
0000
,
0000
0000
0000
0000
,
0000
0000
0000
0000
,
0000
1000
0000
0001
,
0000
0010
0000
0100
,
0000
0000
0000
0000
,
0000
0000
0000
0000
,
0100
0000
0001
0000
,
1000
0000
0010
0000
,
0000
0000
0000
0000
,
0000
0000
0000
0000
,
0000
0010
0000
1000
,
0000
0001
0000
0100
,
0000
0000
0000
0000
,
0000
0000
0000
0000
,
0100
0000
0001
0000
,
1000
0000
0010
0000
,
0000
0000
0000
0000
,
0000
0000
0000
0000
,
0100
0000
0001
0000
,
1000
0000
0010
0000
,
0000
0000
0000
0000
,
0000
0000
0000
0000
,
0100
0000
0001
0000
,
1000
0000
0010
0000
,
0100
0000
0001
0000
,
1000
0000
0001
0000
,
0100
0000
1000
0000
,
0100
0000
0001
0000
,
1001
0000
1010
0000
,
0101
0000
0100
0000
,
0100
0000
1000
0000
,
0100
0000
0001
0000
,
1000
0000
0100
0000
,
1000
0000
1000
0000
,
0100
0000
1000
0000
,
0100
0000
0001
0000
,
1000
0000
0010
0000
,
1000
0000
0100
0000
,
1000
0000
0010
0000
,
1000
0000
0010
0000
,
1000
0000
1000
0000
,
0001
0000
0100
0000
,
0110
0000
1000
0000
,
0110
0000
0001
0000
,
0110
0000
0110
0000
,
0010
0000
0100
0000
;

//---------------dance-single - ----------------
#NOTEDATA:;
#CHARTNAME:;
#STEPSTYPE:dance-single;
#DESCRIPTION:;
#CHARTSTYLE:;
#DIFFICULTY:Easy;
#METER:5;
#RADARVALUES:0.251,0.306,0.222,0.000,0.000,180.000,26.000,0.000,0.000,0.000,0.000,0.000,0.000,0.251,0.306,0.222,0.000,0.000,180.000,26.000,0.000,0.000,0.000,0.000,0.000,0.000;
#CREDIT:;
#NOTES:
0000
0000
0000
0000
,
0000
0000
0000
0000
,
0000
0000
0000
0000
,
0000
0000
0000
0000
,
0001
0000
0010
0000
,
0100
0000
0100
0000
,
0010
0000
0110
0000
,
0100
0000
0110
0000
,
0000
1000
0000
1000
,
0000
0010
0000
1000
,
0001
0000
1001
0000
,
1000
0000
1001
0000
,
0001
0000
0001
0000
,
0010
0000
0100
0000
,
0010
0000
0110
0000
,
0100
0000
0110
0000
,
0000
0010
0000
0100
,
0000
1000
0000
0010
,
1000
0000
1001
0000
,
0001
0000
1001
0000
,
0001
0000
0010
0000
,
0100
0000
0100
0000
,
0010
0000
0110
0000
,
0100
0000
0110
0000
,
0000
1000
0000
1000
,
0000
0010
0000
1000
,
0001
1000
0001
1000
,
0010
0100
0001
1000
,
0001
1000
0010
1000
,
0100
0010
0100
1000
,
0001
0001
0100
0100
,
0010
0010
1000
1000
,
0001
0010
0001
0100
,
0010
1000
0100
0010
,
0001
0001
1000
1000
,
0010
0010
0100
0100
,
0001
1000
0010
1000
,
0100
0010
0100
1000
,
0001
0010
0001
0100
,
0010
1000
0100
0010
,
0001
0001
1000
1000
,
0010
0010
0100
0100
,
0001
0001
0010
0010
,
0100
1000
0100
0100
,
0110
0110
0110
0110
,
0010
0001
0010
0001
,
1000
0100
1000
0100
,
1000
0001
1000
0001
,
0101
0101
0101
0101
,
0100
0010
0100
0010
,
1000
0010
1000
0010
,
1000
0001
0100
0100
,
0110
0110
1010
1010
,
1000
0001
0010
0001
,
0010
0100
1000
0100
,
0001
0100
1000
0010
,
0110
0110
0101
0101
,
0001
1000
0100
1000
,
0010
0010
0010
0010
,
0100
0001
0100
0100
;

//---------------dance-single - ----------------
#NOTEDATA:;
#CHARTNAME:;
#STEPSTYPE:dance-single;
#DESCRIPTION:;
#CHARTSTYLE:;
#DIFFICULTY:Medium;
#METER:7;
#RADARVALUES:0.449,0.409,0.358,0.000,0.009,326.000,42.000,0.000,0.000,0.000,0.000,0.000,0.000,0.449,0.409,0.358,0.000,0.009,326.000,42.000,0.000,0.000,0.000,0.000,0.000,0.000;
#CREDIT:;
#NOTES:
// measure 0
0000
0000
0000
0000
,  // measure 1
0000
0000
0000
0000
,  // measure 2
0010
1000
0001
0010
,  // measure 3
0100
1000
0001
0100
,  // measure 4
1000
0100
0000
0000
1000
0010
0000
0000
,  // measure 5
0100
0001
0000
0000
0010
0001
0000
0000
,  // measure 6
0010
0110
0100
0110
,  // measure 7
1000
1001
0001
1001
,  // measure 8
0000
0000
1000
0001
0000
0000
1000
0001
,  // measure 9
0000
0000
1000
0001
0000
0000
1000
0001
,  // measure 10
0011
0101
1100
1010
,  // measure 11
0011
0101
1001
1001
,  // measure 12
0100
0010
0000
0000
0100
0010
0000
0000
,  // measure 13
0100
0001
0000
0000
0010
0100
0000
0000
,  // measure 14
1100
1000
1001
0001
,  // measure 15
0101
0001
0011
0010
,  // measure 16
0000
0000
1000
0010
0000
0000
0001
0010
,  // measure 17
0000
0000
1000
0001
0000
0000
1000
0001
,  // measure 18
0101
1100
1010
0011
,  // measure 19
0101
1100
1001
1001
,  // measure 20
1000
0100
0000
0000
1000
0010
0000
0000
,  // measure 21
0100
0001
0000
0000
0010
0001
0000
0000
,  // measure 22
0010
0110
0100
0110
,  // measure 23
1000
1001
0001
1001
,  // measure 24
0000
0000
1000
0001
0000
0000
1000
0001
,  // measure 25
0000
0000
1000
0001
0000
0000
1000
0001
,  // measure 26
0010
0010
0010
0010
,  // measure 27
0110
0000
1001
0000
0001
0001
0100
0010
,  // measure 28
1000
0100
1000
0001
1000
0010
1000
0001
,  // measure 29
0100
0001
1000
0001
0010
0001
1000
0001
,  // measure 30
0100
0100
0010
1000
,  // measure 31
0100
0100
0010
0001
,  // measure 32
0100
0010
1000
0010
0100
0010
0001
0010
,  // measure 33
0100
0001
1000
0001
0010
0100
1000
0001
,  // measure 34
0100
0100
0010
1000
,  // measure 35
0100
0100
0010
0001
,  // measure 36
1000
0100
1000
0001
1000
0010
1000
0001
,  // measure 37
0100
0001
1000
0001
0010
0001
1000
0001
,  // measure 38
0100
0010
1000
0010
0100
0010
0001
0010
,  // measure 39
0100
0001
1000
0001
0010
0100
1000
0001
,  // measure 40
1000
0100
1000
0010
0100
0001
0010
0100
,  // measure 41
1000
0010
1000
0100
0010
0001
0100
0010
,  // measure 42
1000
0001
1000
0010
0100
0010
0100
0010
,  // measure 43
1000
0100
0010
0001
0100
0100
0100
0100
,  // measure 44
0110
0110
0110
0110
,  // measure 45
0010
1000
0001
0010
0100
1000
0001
0100
,  // measure 46
0010
1000
0001
1000
0010
0001
0010
0100
,  // measure 47
0001
0001
1000
1000
0001
0001
1000
1000
,  // measure 48
1001
1001
1001
1001
,  // measure 49
1000
0010
0001
0010
1000
0100
0001
0100
,  // measure 50
1000
0001
0010
0001
1000
0010
0100
0001
,  // measure 51
1000
0100
0010
0001
0100
0100
0100
0100
,  // measure 52
0110
0110
0110
0110
,  // measure 53
0010
0000
1000
0000
0010
0000
0000
0000
1000
0000
0000
1000
0000
0000
0000
0000
,  // measure 54
0001
0000
0000
0001
0000
0000
0000
0000
0010
0000
0100
0000
0010
0000
0000
0000
,  // measure 55
0001
0010
0100
1000
0001
1000
0100
0100
,  // measure 56
0010
0100
0010
0000
0010
0001
0010
0001
,  // measure 57
0100
0010
0100
0000
0001
0100
0001
0100
,  // measure 58
0010
1000
0010
1000
0001
0010
0001
0010
,  // measure 59
0100
1000
0001
0010
0100
0100
0100
0100
;
