#VERSION:0.81;
#TITLE:Green Green Dance;
#SUBTITLE:;
#ARTIST:Mitsuhiko Izumi;
#TITLETRANSLIT:;
#SUBTITLETRANSLIT:;
#ARTISTTRANSLIT:;
#GENRE:Variety;
#ORIGIN:;
#CREDIT:;
#BANNER:Green Green Dance.png;
#BACKGROUND:Green Green Dance-bg.png;
#PREVIEWVID:;
#JACKET:Green Green Dance-jacket.png;
#CDIMAGE:;
#DISCIMAGE:;
#LYRICSPATH:;
#CDTITLE:;
#MUSIC:Green Green Dance.mp3;
#OFFSET:0.242;
#SAMPLESTART:12.800;
#SAMPLELENGTH:15.000;
#SELECTABLE:YES;
#BPMS:0.000=165.000;
#STOPS:;
#DELAYS:;
#WARPS:;
#TIMESIGNATURES:0.000=4=4;
#TICKCOUNTS:0.000=4;
#COMBOS:0.000=1;
#SPEEDS:0.000=1.000=0.000=0;
#SCROLLS:0.000=1.000;
#FAKES:;
#LABELS:0.000=Song Start;
#BGCHANGES:;
#KEYSOUNDS:;
#ATTACKS:
;

//---------------dance-single - ----------------
#NOTEDATA:;
#CHARTNAME:;
#STEPSTYPE:dance-single;
#DESCRIPTION:;
#CHARTSTYLE:;
#DIFFICULTY:Easy;
#METER:6;
#RADARVALUES:0.398,0.459,0.273,0.150,0.035,269.000,31.000,17.000,0.000,0.000,0.000,0.000,0.000,0.398,0.459,0.273,0.150,0.035,269.000,31.000,17.000,0.000,0.000,0.000,0.000,0.000;
#CREDIT:;
#NOTES:
0000
0000
1000
1000
,
0001
0010
0100
0010
,
0001
1000
0010
1000
,
0001
0010
0100
0010
,
0001
0010
0100
1000
,
0010
1000
0010
0100
,
0010
1000
0001
1000
,
0010
0010
0100
0100
,
0110
1001
0110
0000
,
0010
0010
1000
0001
,
0010
0010
0001
1000
,
0100
0100
1000
0001
,
0100
0001
1000
0001
,
0010
0010
0001
1000
,
0010
0010
1000
0001
,
0010
0010
0100
0100
,
0110
1001
0110
0000
,
0020
0000
0000
0031
,
0010
0000
0000
0100
0000
0000
1000
0000
,
0001
0001
0100
0001
,
1000
0100
0010
0001
,
0020
0000
0000
0130
,
0010
0000
0000
0001
0000
0000
0100
0000
,
0020
0000
0000
0000
,
1030
0101
1010
0000
,
1000
1000
0001
0010
,
0001
0010
0100
1000
,
0001
0001
1000
0010
,
1000
0001
0100
0001
,
0010
0010
0100
1000
,
0010
0100
0001
1000
,
0010
0010
0100
0100
,
0110
1001
0110
0000
,
0020
0000
1030
1000
,
0001
0100
0001
1000
,
0200
0000
0310
0010
,
0001
0010
0100
0110
,
0020
0000
0031
0001
,
1000
0100
1000
0001
,
0200
0000
0310
0010
,
0110
1001
0110
0000
,
0010
1000
0010
1000
,
0001
0020
0130
0100
,
1000
0001
1000
0100
,
0001
1000
0002
0103
,
0100
0010
0100
0010
,
0001
1000
0001
1000
,
0010
0010
0100
0100
,
0110
1001
0110
0000
,
0010
0000
0000
0010
0000
0000
0000
0000
0010
0000
0000
0010
0000
0000
0000
0000
,
0100
0000
0000
0100
0000
0000
0000
0000
0100
0000
0000
0100
0000
0000
0000
0000
,
0002
0000
2003
0000
,
3020
0000
0230
0000
,
0301
0000
0000
0001
0000
0000
0000
0000
0001
0000
0000
0001
0000
0000
0000
0000
,
1000
0000
0000
1000
0000
0000
0000
0000
1000
0000
0000
1000
0000
0000
0000
0000
,
0020
0000
0230
0000
,
0302
0000
2003
0000
,
3001
1000
0001
0010
,
0100
1000
0010
0100
,
0001
1000
0001
0100
,
0010
1000
0100
0010
,
0001
0100
0001
0010
,
0100
1000
0100
0010
,
0100
0100
0010
0010
,
0110
1001
0110
0010
,
0001
0100
0001
0100
,
0010
1000
0010
1000
,
0001
0010
0001
0010
,
0100
1000
0100
1000
,
0001
0001
0001
1000
,
0010
0100
0010
0100
,
0010
0010
0100
0100
,
0110
1001
0110
0000
,
1001
1001
1001
0110
,
0110
1001
0110
0000
;

//---------------dance-single - ----------------
#NOTEDATA:;
#CHARTNAME:;
#STEPSTYPE:dance-single;
#DESCRIPTION:;
#CHARTSTYLE:;
#DIFFICULTY:Hard;
#METER:16;
#RADARVALUES:0.803,0.855,0.545,0.088,0.431,567.000,62.000,10.000,0.000,0.000,0.000,0.000,0.000,0.803,0.855,0.545,0.088,0.431,567.000,62.000,10.000,0.000,0.000,0.000,0.000,0.000;
#CREDIT:;
#NOTES:
// measure 0
0000
0000
0000
0000
0000
0000
0000
0000
1000
0010
1000
0010
0100
0001
0100
0001
,  // measure 1
0010
0000
0100
0000
1000
0000
0010
0000
0100
0000
0001
0000
1000
0000
0100
0010
,  // measure 2
0100
0000
1000
0000
0010
0000
0100
0000
0001
0000
0010
0000
0100
0000
0010
0001
,  // measure 3
0010
0000
0001
0000
0100
0000
0010
0000
1000
0000
0100
0000
0010
0000
0100
1000
,  // measure 4
0100
0000
1000
0000
0001
0000
0100
0000
0010
1000
0001
0010
0100
1000
0001
0100
,  // measure 5
0010
0000
0100
0000
0001
0000
0010
0000
0100
0000
1000
0000
0010
0000
0100
0001
,  // measure 6
0100
0000
0010
0000
1000
0000
0100
0000
0010
0000
0001
0000
0100
0000
0010
0100
,  // measure 7
0010
0000
0010
0000
0010
0000
0000
0000
1000
0000
1000
0000
0001
0000
0001
1000
,  // measure 8
0001
0000
0000
0000
1001
0000
0000
0000
0110
0000
0000
0000
0010
1000
0010
1000
,  // measure 9
0100
0010
0100
0000
0010
0010
0001
0101
,  // measure 10
0000
0001
0100
0010
1000
1000
1100
0000
,  // measure 11
0100
0010
0100
0000
0010
0001
0100
0010
,  // measure 12
0000
1000
0010
0100
0001
1000
0100
0010
,  // measure 13
0100
0010
0100
0000
0010
0001
0100
0101
,  // measure 14
0000
0001
0100
0010
1000
0100
1100
0000
,  // measure 15
0100
0000
0100
0000
0100
0000
0000
0000
0010
0000
0010
0000
0001
0000
1000
0001
,  // measure 16
1000
0000
0000
0000
1001
0000
0000
0000
0110
0000
0000
0000
0010
1000
0010
0000
,  // measure 17
2000
0000
0001
0000
0001
0000
3001
1000
,  // measure 18
1010
0000
0010
0110
0000
0100
0001
0010
,  // measure 19
0100
0000
0010
0100
0010
0000
0001
0000
0000
0000
0010
0000
0100
0000
1000
0000
,  // measure 20
0010
0000
0100
0010
0100
0000
0001
0000
1000
0000
0100
0010
0100
0000
0010
0000
,  // measure 21
0002
0000
1000
0000
1000
0000
1003
0001
,  // measure 22
0011
0000
0010
0110
0000
0100
1000
0010
,  // measure 23
0200
0010
0010
0310
,  // measure 24
0100
0001
0010
0100
1000
0010
0100
0001
1000
0000
0000
0000
0001
1000
0001
0000
,  // measure 25
0100
0010
0100
0000
0001
0010
0001
0101
,  // measure 26
0000
0100
0010
1000
0100
1000
1100
0000
,  // measure 27
0100
0010
0100
0000
0010
0001
0100
0010
,  // measure 28
0000
1000
0010
0100
0001
1000
0100
0010
,  // measure 29
0100
0010
0100
0000
0010
0001
0100
0110
,  // measure 30
0000
0010
1000
0100
0010
0001
0011
0000
,  // measure 31
0010
0000
0010
0000
0010
0000
0000
0000
0100
0000
0100
0000
1000
0000
0001
1000
,  // measure 32
0001
0000
0000
0000
1001
0000
0000
0000
0110
0000
0000
0000
0010
1000
0010
1000
,  // measure 33
0200
0000
0000
0000
0310
0000
0100
1000
0100
0010
0001
0100
0010
0100
0001
0000
,  // measure 34
0100
0100
0010
1000
0001
0010
0100
0000
,  // measure 35
0010
0000
0000
0001
0100
0000
0001
0000
0010
0000
0100
1000
0100
0000
1000
0000
,  // measure 36
0010
0000
0100
0001
0010
0000
0100
0000
1000
0000
0010
1000
0001
0000
0000
0000
,  // measure 37
0200
0000
0000
0000
0310
0000
0100
0001
1000
0100
0010
0100
1000
0010
0100
0000
,  // measure 38
0001
0001
1000
0100
1000
0001
0100
0010
,  // measure 39
1000
0000
0000
0010
0100
0000
0110
0000
0000
0000
0010
0000
1000
0100
0010
0000
,  // measure 40
0110
0000
0000
0000
0011
0000
0000
0000
1100
0000
0000
0000
1000
0100
0010
0001
,  // measure 41
1000
0010
1000
0010
0100
0001
0100
0001
,  // measure 42
0010
0010
0200
0310
0100
1000
0010
0110
,  // measure 43
0000
0100
0101
0000
0001
1000
0100
0001
,  // measure 44
0000
0000
1000
0000
0010
0000
0002
0000
0000
0000
0103
0001
0100
0010
0100
0000
,  // measure 45
0010
1000
0010
1000
0001
0100
0001
0100
,  // measure 46
0010
1000
0001
0000
0010
0000
0110
0000
0000
0000
0010
0000
0001
0000
0100
0000
,  // measure 47
0010
0000
0010
0000
0010
0000
0000
0000
0100
0000
0100
0000
0001
0000
1000
0001
,  // measure 48
1000
0000
0000
0000
1001
0000
0000
0000
0110
0000
0000
0000
0010
0001
0010
0001
,  // measure 49
0100
0000
0110
0000
0101
0000
1001
0000
1100
0000
0110
0000
,  // measure 50
0011
0000
0101
0000
1010
0000
1100
0000
0110
0000
0100
0010
,  // measure 51
0100
0000
0000
0000
0000
0010
0001
0100
0000
0000
0000
0000
1010
0000
0000
0000
,  // measure 52
1000
0000
0000
0000
0000
0001
0010
0100
0000
0000
0000
0000
0101
0000
0000
0000
,  // measure 53
0100
0000
1100
0000
1010
0000
0110
0000
0101
0000
0011
0000
,  // measure 54
1100
0000
1010
0000
0101
0000
0011
0000
0110
0000
0000
0000
,  // measure 55
0100
0010
0100
0010
0100
0010
0100
0010
0001
1000
0001
1000
0001
1000
0001
1000
,  // measure 56
0010
0100
0010
0100
0010
0100
0010
0100
0001
1000
0001
1000
0001
1000
0001
0000
,  // measure 57
1000
1000
0010
0000
0100
0001
0010
0110
,  // measure 58
0000
0100
1000
0010
0100
0001
0101
0000
,  // measure 59
0100
0010
0100
0000
0010
1000
0100
0010
,  // measure 60
0000
0100
1000
0010
0100
0001
0010
0100
,  // measure 61
1000
0001
1000
0000
0001
0100
0010
1010
,  // measure 62
0000
1000
0001
0010
0100
0010
0110
0000
,  // measure 63
0010
0000
0010
0000
0010
0000
0000
0000
0001
0000
0001
0000
1000
0000
0001
1000
,  // measure 64
0001
0000
1001
0000
0100
0010
1000
0001
,  // measure 65
0020
0000
0000
0000
0130
0010
0100
0000
0010
0000
0001
0000
0000
0000
0100
0000
,  // measure 66
0010
1000
0010
0000
1000
0000
0001
0000
0000
0000
0010
0100
0010
0000
0100
0000
,  // measure 67
1000
0000
0000
0100
0010
0000
0001
0000
0100
0000
0010
0000
1000
0000
0100
0000
,  // measure 68
0001
1000
0010
0100
1000
0010
0100
0110
,  // measure 69
0000
0000
0000
0000
0110
0000
0000
0000
0010
0000
1000
0001
1000
0000
0100
0000
,  // measure 70
1000
0001
1000
0000
0100
0000
0010
0000
0001
0000
0100
0000
0010
0000
1000
0000
,  // measure 71
0010
0000
0010
0000
0010
0000
0000
0000
0100
0000
0100
0000
0001
0000
1000
0001
,  // measure 72
1000
0000
0000
0000
1001
0000
0000
0000
0110
0000
0000
0000
0010
1000
0100
0010
,  // measure 73
0001
0000
0000
0000
1001
0000
0000
0000
0110
0000
0000
0000
0010
0001
0100
0010
,  // measure 74
1000
1001
0220
0330
;

//---------------dance-single - ----------------
#NOTEDATA:;
#CHARTNAME:;
#STEPSTYPE:dance-single;
#DESCRIPTION:;
#CHARTSTYLE:;
#DIFFICULTY:Beginner;
#METER:4;
#RADARVALUES:0.141,0.130,0.097,0.018,0.000,99.000,11.000,2.000,0.000,0.000,0.000,0.000,0.000,0.141,0.130,0.097,0.018,0.000,99.000,11.000,2.000,0.000,0.000,0.000,0.000,0.000;
#CREDIT:;
#NOTES:
0000
0000
0000
0000
,
1000
0000
0000
0000
,
0010
0000
0000
0000
,
1000
0000
0000
0000
,
0001
0000
0001
0000
,
1000
0000
0000
0000
,
0010
0000
0000
0000
,
1000
0000
1000
0000
,
1001
0000
0000
0000
,
0010
0000
0000
0000
,
0010
0000
0000
0000
,
0100
0000
0000
0000
,
0100
0000
0000
0000
,
0001
0000
0000
0000
,
0001
0000
0000
0000
,
1000
0000
1000
0000
,
1001
0000
0000
0000
,
0020
0000
0000
0000
,
0130
0000
0000
0000
,
0100
0000
0000
0000
,
0100
0000
0000
0000
,
0002
0000
0000
0000
,
1003
0000
0000
0000
,
0010
0000
0000
0000
,
0100
0000
0100
0000
,
0100
0000
0000
0000
,
0100
0000
0000
0000
,
0010
0000
0000
0000
,
0010
0000
0000
0000
,
0001
0000
0000
0000
,
0001
0000
0000
0000
,
1000
0000
1000
0000
,
1001
0000
0000
0000
,
1000
0000
0000
0000
,
0010
0000
0000
0000
,
1000
0000
0000
0000
,
0001
0000
0000
0000
,
1000
0000
0000
0000
,
0100
0000
0000
0000
,
1000
0000
0000
0000
,
0001
0000
0000
0000
,
0100
0000
0100
0000
,
0110
0000
0000
0000
,
0010
0000
0010
0000
,
0110
0000
0000
0000
,
1000
0000
1000
0000
,
1001
0000
0000
0000
,
0001
0000
0001
0000
,
1001
0000
0000
0000
,
0100
0000
0100
0000
,
0010
0000
0010
0000
,
1000
0000
1000
0000
,
0001
0000
0001
0000
,
0010
0000
0010
0000
,
0100
0000
0100
0000
,
1000
0000
0001
0000
,
1000
0000
0001
0000
,
0010
0000
0000
0000
,
0010
0000
0000
0000
,
0100
0000
0000
0000
,
0100
0000
0000
0000
,
1000
0000
0000
0000
,
1000
0000
0000
0000
,
0001
0000
0001
0000
,
1001
0000
0000
0000
,
1000
0000
1000
0000
,
1000
0000
0010
0000
,
1000
0000
1000
0000
,
1000
0000
0001
0000
,
1000
0000
1000
0000
,
1000
0000
0100
0000
,
1000
0000
1000
0000
,
1001
0000
0000
0000
,
0110
0000
0000
0000
,
1001
0000
0000
0000
;

//---------------dance-single - ----------------
#NOTEDATA:;
#CHARTNAME:;
#STEPSTYPE:dance-single;
#DESCRIPTION:;
#CHARTSTYLE:;
#DIFFICULTY:Medium;
#METER:10;
#RADARVALUES:0.586,0.524,0.343,0.141,0.075,411.000,39.000,16.000,0.000,0.000,0.000,0.000,0.000,0.586,0.524,0.343,0.141,0.075,411.000,39.000,16.000,0.000,0.000,0.000,0.000,0.000;
#CREDIT:;
#NOTES:
// measure 0
0000
0000
0000
0000
,  // measure 1
1000
0010
0100
0001
1000
0100
0010
0000
,  // measure 2
0100
1000
0010
0100
0001
0010
0100
0000
,  // measure 3
0010
0001
0100
0010
0100
0001
1000
0000
,  // measure 4
0100
1000
0100
0010
0001
0100
0010
1000
,  // measure 5
0001
0010
0100
0010
0001
0100
0010
0000
,  // measure 6
1000
0010
0100
0010
1000
0100
0010
0000
,  // measure 7
0100
0100
0100
0000
0010
0010
0010
0000
,  // measure 8
0110
1001
0110
0000
,  // measure 9
0010
0001
0010
0000
0001
0100
0000
0110
,  // measure 10
0000
0010
1000
0100
0010
0100
0010
0000
,  // measure 11
0010
0001
0010
0000
0001
0010
0000
0110
,  // measure 12
0000
0100
1000
0010
0100
0010
1000
0100
,  // measure 13
0010
0001
0010
0000
0001
0100
0000
0110
,  // measure 14
0000
0010
1000
0001
0010
0100
0010
0000
,  // measure 15
0100
0100
0100
0000
0010
0010
0010
0000
,  // measure 16
0110
1001
0110
0000
,  // measure 17
0200
0000
0000
0000
0000
0000
0000
1300
,  // measure 18
0200
0000
0310
0200
0000
1300
0100
0010
,  // measure 19
0001
1000
0001
1000
0000
0001
0010
0001
,  // measure 20
1000
0001
1000
0000
0010
0100
0010
0000
,  // measure 21
2000
0000
0000
0000
0000
0000
0000
3100
,  // measure 22
2000
0000
3010
2000
0000
3001
1000
0100
,  // measure 23
0020
0000
0000
0000
,  // measure 24
0130
0010
0001
1000
0100
0000
0110
0000
,  // measure 25
0010
0001
0010
0000
0001
0100
0000
0110
,  // measure 26
0000
0010
1000
0001
0010
0100
0010
0000
,  // measure 27
0100
1000
0100
0000
1000
0010
0000
1010
,  // measure 28
0000
1000
0001
0010
0100
0010
0001
0100
,  // measure 29
0010
1000
0010
0000
1000
0001
0000
0011
,  // measure 30
0000
0010
0100
1000
0010
0100
0010
0000
,  // measure 31
0100
0100
0100
0000
0010
0010
0010
0000
,  // measure 32
0110
1001
0110
0000
,  // measure 33
0020
0000
0000
1030
0010
0100
0001
1000
,  // measure 34
0100
0010
0100
0000
0010
0100
0010
0000
,  // measure 35
0100
0000
0100
0000
1000
0001
1000
0000
,  // measure 36
0010
1000
0100
0010
0001
0100
0001
0000
,  // measure 37
0200
0000
0000
0310
0100
0001
0010
0001
,  // measure 38
0100
0010
1000
0001
0010
0100
0010
0000
,  // measure 39
0100
0000
1000
0100
0000
1000
0100
0010
,  // measure 40
0001
1001
0110
0000
,  // measure 41
0010
1000
0010
1000
0001
0100
0001
0100
,  // measure 42
0010
1000
0002
0000
1003
0001
0000
1001
,  // measure 43
0000
1000
0010
0000
0100
0010
0100
0000
,  // measure 44
0010
1000
0001
0020
0000
0130
0010
0100
,  // measure 45
1000
0100
1000
0100
0010
0001
0010
0001
,  // measure 46
0100
0010
0100
0010
0000
0000
0000
0000
,  // measure 47
0100
0100
0100
0000
0010
0010
0010
0000
,  // measure 48
0110
1001
0110
0000
,  // measure 49
0010
0000
1000
0000
0001
0000
0010
0000
0001
0000
1000
0000
,  // measure 50
0100
0000
0010
0000
0100
0000
1000
0000
0001
0000
1000
0000
,  // measure 51
0001
0000
0000
0000
0001
0000
0000
1000
0000
0000
0000
0000
0000
0000
0000
0000
,  // measure 52
1000
0000
0000
0000
1000
0000
0000
0001
0000
0000
0000
0000
0000
0000
0000
0000
,  // measure 53
0010
0000
0100
0000
1000
0000
0010
0000
0100
0000
0001
0000
,  // measure 54
0010
0000
0100
0000
0010
0000
0001
0000
1000
0000
0000
0000
,  // measure 55
0020
0000
0230
0000
,  // measure 56
0302
0000
0000
0000
1003
1000
1000
0000
,  // measure 57
0001
0010
0001
0000
0010
0100
0000
0110
,  // measure 58
0000
0100
1000
0010
0100
0001
0100
0000
,  // measure 59
0001
0010
0001
0000
0010
0100
0000
0110
,  // measure 60
0000
0010
0001
0100
0010
1000
0100
0010
,  // measure 61
0100
1000
0100
0000
1000
0010
0000
1010
,  // measure 62
0000
1000
0001
0010
0100
1000
0001
0000
,  // measure 63
0100
0100
0100
0000
0010
0010
0010
0000
,  // measure 64
0110
1001
0110
0100
,  // measure 65
0002
0000
1003
0001
1000
0100
0000
0100
,  // measure 66
0010
0001
0010
0100
0000
1000
0010
0100
,  // measure 67
0001
1000
0001
0000
1000
0001
1000
0000
,  // measure 68
0010
0100
0010
0000
0100
0010
0000
0210
,  // measure 69
0000
0300
0110
0000
0010
1000
0100
0000
,  // measure 70
0010
0001
0010
0001
1000
0100
1000
0100
,  // measure 71
0010
0010
0010
0000
0100
0100
0100
0000
,  // measure 72
0110
0000
1001
0000
0110
0000
0100
1000
,  // measure 73
1001
0000
0110
0000
1001
0000
0001
0010
,  // measure 74
0110
1001
0110
0000
;
