#VERSION:0.81;
#TITLE:Good Girl (Sub.Sound Remix);
#SUBTITLE:;
#ARTIST:Dasha & The Living Tombstone;
#TITLETRANSLIT:;
#SUBTITLETRANSLIT:;
#ARTISTTRANSLIT:;
#GENRE:Electro-House;
#ORIGIN:;
#CREDIT:;
#BANNER:Good Girl (Sub.Sound Remix).png;
#BACKGROUND:Good Girl (Sub.Sound Remix)-bg.png;
#PREVIEWVID:;
#JACKET:Good Girl (Sub.Sound Remix)-jacket.png;
#CDIMAGE:;
#DISCIMAGE:;
#LYRICSPATH:;
#CDTITLE:;
#MUSIC:Good Girl (Sub.Sound Remix).mp3;
#OFFSET:-0.011;
#SAMPLESTART:57.764;
#SAMPLELENGTH:15.000;
#SELECTABLE:YES;
#BPMS:0.000=133.000,
127.000=127.000,
128.000=133.000;
#STOPS:;
#DELAYS:;
#WARPS:;
#TIMESIGNATURES:0.000=4=4;
#TICKCOUNTS:0.000=4;
#COMBOS:0.000=1;
#SPEEDS:0.000=1.000=0.000=0;
#SCROLLS:0.000=1.000;
#FAKES:;
#LABELS:0.000=Song Start;
#BGCHANGES:;
#KEYSOUNDS:;
#ATTACKS:
;

//---------------dance-single - ----------------
#NOTEDATA:;
#CHARTNAME:;
#STEPSTYPE:dance-single;
#DESCRIPTION:;
#CHARTSTYLE:;
#DIFFICULTY:Hard;
#METER:12;
#RADARVALUES:0.404,0.393,0.376,0.287,0.000,219.000,38.000,29.000,0.000,0.000,0.000,0.000,0.000,0.404,0.393,0.376,0.287,0.000,219.000,38.000,29.000,0.000,0.000,0.000,0.000,0.000;
#CREDIT:;
#NOTES:
0000
0000
0000
0000
,
0000
0000
0000
0000
,
0000
0000
0000
0000
,
0000
0000
0000
0000
,
2000
0010
3010
0001
,
0002
0100
0013
0010
,
0200
0001
1300
1000
,
0010
0010
0100
1000
,
0022
0000
0000
0030
2000
0000
0003
0000
,
0020
3000
0230
0000
,
0320
0000
0000
0000
2000
0000
0000
0030
,
3200
0000
0302
0000
,
2003
0000
0020
3000
,
0032
0000
0200
0003
,
2300
0000
0002
3000
,
2000
0000
3003
0101
,
0100
0000
0100
0010
0000
0000
1000
0000
,
0110
0000
0100
0010
0000
0000
0010
0000
,
0101
0000
0100
0001
0000
0000
1100
0000
,
1001
0000
1000
0100
0000
0000
0010
0000
,
1000
0000
0010
0001
0000
0000
1000
0000
,
0001
0000
0010
1000
0000
0000
0110
0000
,
1000
0000
0100
0010
0000
0000
1000
0000
,
1010
0110
0011
1100
,
0110
0000
0001
0000
0010
0001
0010
0000
,
1010
0000
0010
0100
1000
0000
0010
0000
,
1001
0000
0100
0010
0001
0000
0110
0000
,
1100
0000
1000
0010
0010
0000
0101
0000
,
0011
0000
1000
0001
1000
0000
0100
0000
,
0101
0000
1000
0100
0010
0000
0100
0000
,
0011
1001
1100
0101
,
1000
0010
0100
0010
0001
0010
0100
0000
,
0101
0010
0100
0001
1000
0100
1000
0010
,
0000
0010
0001
0100
0000
1000
0100
0010
,
1000
0000
0100
0010
0011
0010
1000
0000
,
1001
0000
1100
0000
0010
0001
0100
1000
,
0110
0000
0001
1000
0001
0100
0000
0010
,
0000
0010
0000
0001
0010
0100
0010
1000
,
0200
0000
0010
0000
1000
1000
1000
0000
,
0302
0000
0010
0000
0100
0100
0100
0000
,
2003
0000
0100
0000
0010
0010
0001
0000
,
3020
0000
0100
0000
1000
1000
0001
0000
,
0032
0000
0000
0000
0020
0030
0203
0000
,
0010
0000
0010
0000
2000
0000
0000
3300
,
0010
0000
1000
0100
1000
0001
0010
0000
,
0011
0000
0001
0100
0010
1000
0100
0000
,
1001
0000
0100
0010
1000
0010
0001
0000
,
0101
0000
1000
1000
0101
0010
0001
0000
,
0011
0000
0001
0010
1100
1000
0001
0000
,
0110
0000
0100
0010
0001
0100
0010
0000
,
1001
0000
0010
0001
0100
1000
0010
0000
,
0001
0100
1000
0100
1001
0010
0100
0000
,
0202
0000
0000
0000
,
0303
0000
0000
0000
;

//---------------dance-single - ----------------
#NOTEDATA:;
#CHARTNAME:;
#STEPSTYPE:dance-single;
#DESCRIPTION:;
#CHARTSTYLE:;
#DIFFICULTY:Challenge;
#METER:8;
#RADARVALUES:0.285,0.315,0.049,0.049,0.000,192.000,5.000,5.000,116.000,0.000,0.000,0.000,0.000,0.285,0.315,0.049,0.049,0.000,192.000,5.000,5.000,116.000,0.000,0.000,0.000,0.000;
#CREDIT:;
#NOTES:
0000
0000
0000
0000
,
0000
0000
0000
0000
,
0000
0000
0000
0000
,
0000
0000
0000
0000
,
1000
0000
0100
0000
0000
1000
0100
0000
,
0010
0000
0001
0000
0000
0001
0100
0000
,
0010
0000
1000
0000
0000
1000
0001
0000
,
2002
0000
3003
MMMM
,
0001
0000
1000
0000
0001
1000
0001
0000
,
0100
0010
0110
MMMM
,
0010
0000
1000
0000
0100
1000
0001
0000
,
0100
0010
0110
MMMM
,
0010
0000
1000
0000
0100
1000
0001
0000
,
0100
0010
0101
MMMM
,
0001
0000
0010
0000
0100
1000
0010
0000
,
0100
0010
1100
MMMM
,
1000
0000
0001
0000
0000
1000
0001
0000
,
0100
0000
0010
0000
0000
0100
0010
0000
,
1000
0000
0100
1000
0000
1000
0001
0000
,
0100
0000
0010
0100
0000
0100
0010
0000
,
1000
0000
0001
1000
0000
1000
0001
0000
,
0010
0000
0100
1000
0000
1000
0001
0000
,
0100
0000
0010
1000
0000
1000
0001
0000
,
0020
0000
0000
0000
0000
0000
0000
0030
,
0001
0000
0100
0000
0010
1000
0001
0000
,
0010
0100
1000
MMMM
,
1000
0000
0010
0000
0100
0001
0100
0000
,
0010
1000
0001
MMMM
,
1000
0000
0010
0000
0100
0001
0100
0000
,
0010
1000
0001
MMMM
,
0010
MMMM
0100
MMMM
,
1000
MMMM
0001
MMMM
,
0001
0010
0100
MMMM
,
1000
0010
0100
MMMM
,
0010
0000
1000
0001
1000
0000
MMMM
0000
,
0010
0000
0100
0001
0100
0000
MMMM
0000
,
0010
1000
0100
MMMM
,
0010
0001
0100
MMMM
,
0010
1000
0001
1000
0010
0000
MMMM
0000
,
0100
0001
0100
0010
1000
0000
0000
0000
,
0002
0000
0013
0100
0000
0010
MMMM
0000
,
0001
0000
0100
0010
0000
1000
MMMM
0000
,
1000
0000
0100
1000
0000
0001
MMMM
0000
,
0100
0000
0010
1000
0000
0000
0001
0000
,
0100
0000
0010
0000
1000
0100
MMMM
0000
,
0010
0000
0001
0000
0100
0010
MMMM
0000
,
0010
0000
0100
0000
0001
1000
MMMM
0000
,
0100
0000
1000
0000
0010
0100
MMMM
0000
,
0001
0000
0010
0100
1000
0001
MMMM
0000
,
0100
0000
0010
1000
0001
0010
MMMM
0000
,
0001
0000
0100
0010
1000
0001
MMMM
0000
,
1000
0000
0010
0100
0001
1000
0010
0100
,
0002
0000
0000
0000
,
0003
0000
0000
0000
;

//---------------dance-single - ----------------
#NOTEDATA:;
#CHARTNAME:;
#STEPSTYPE:dance-single;
#DESCRIPTION:;
#CHARTSTYLE:;
#DIFFICULTY:Medium;
#METER:7;
#RADARVALUES:0.297,0.262,0.020,0.099,0.000,198.000,2.000,10.000,0.000,0.000,0.000,0.000,0.000,0.297,0.262,0.020,0.099,0.000,198.000,2.000,10.000,0.000,0.000,0.000,0.000,0.000;
#CREDIT:;
#OFFSET:-0.011;
#BPMS:0.000=133.000
;
#STOPS:;
#DELAYS:;
#WARPS:;
#TIMESIGNATURES:0.000=4=4
;
#TICKCOUNTS:0.000=4
;
#COMBOS:0.000=1
;
#SPEEDS:0.000=1.000=0.000=0
;
#SCROLLS:0.000=1.000
;
#FAKES:;
#LABELS:0.000=Song Start
;
#NOTES:
0000
0000
0000
0000
,
0000
0000
0000
0000
,
0000
0000
0000
0000
,
0000
0000
0000
0000
,
1000
0000
0010
0000
0000
0100
0001
0000
,
0100
0000
0010
0000
0000
1000
0001
0000
,
0010
0000
0100
0000
0000
1000
0001
0000
,
0220
0000
0000
0330
,
0010
0000
1000
0100
0000
0000
1000
0000
,
0010
0000
0100
0001
0000
0000
0100
0000
,
0010
0000
1000
0001
0000
0000
1000
0000
,
0010
0000
0100
0001
0000
0001
0100
0000
,
0010
0000
1000
0100
0000
0000
1000
0000
,
0010
0000
0100
0001
0000
0000
1000
0000
,
0100
0000
0010
0001
0000
0001
0010
0000
,
0100
0000
1000
0001
0000
0001
1000
0000
,
0010
0100
0001
0100
,
0010
1000
0002
0013
,
0100
1000
0001
0100
,
0010
0100
0002
0013
,
0100
0001
0100
0010
,
0001
1000
0020
0130
,
0010
1000
0100
0010
,
0002
0000
0000
0000
,
1003
0000
0010
0000
0100
0001
0100
0000
,
0010
1000
0100
0100
,
1000
0000
0010
0000
0100
0001
1000
0000
,
0100
0010
0100
0100
,
1000
0000
0010
0000
0100
0001
1000
0000
,
0100
0010
0001
0001
,
1000
0010
0200
0000
,
0301
0000
0000
2000
0000
0000
3000
0000
,
0001
0100
0010
1000
,
0100
0000
1000
0000
0010
0010
0010
0000
,
0100
0001
0010
0100
,
0010
0000
0001
0000
0100
0100
0100
0000
,
0010
1000
0100
1000
,
0010
0000
0100
0000
0001
0001
0001
0000
,
1000
0010
0100
1000
,
0100
0000
0010
0000
1000
1000
1000
0000
,
0001
0000
0010
0100
,
0010
0000
0001
0000
1000
1000
1000
0000
,
0010
0100
0001
1000
,
0010
0000
0001
0000
0100
0100
0100
0000
,
0001
0010
0100
1000
,
0010
0000
0100
0000
0001
0001
0001
0000
,
0100
0010
1000
0001
,
0010
0000
0100
0000
0010
0010
0010
0000
,
0001
0100
0001
1000
,
0100
0000
0010
0000
0001
0001
0001
0000
,
0010
0100
1000
0001
,
0100
0000
0010
0000
0000
0010
0100
0000
,
2002
0000
0000
0000
,
3003
0000
0000
0000
;

//---------------dance-single - ----------------
#NOTEDATA:;
#CHARTNAME:;
#STEPSTYPE:dance-single;
#DESCRIPTION:;
#CHARTSTYLE:;
#DIFFICULTY:Easy;
#METER:5;
#RADARVALUES:0.222,0.236,0.030,0.079,0.000,146.000,3.000,8.000,0.000,0.000,0.000,0.000,0.000,0.222,0.236,0.030,0.079,0.000,146.000,3.000,8.000,0.000,0.000,0.000,0.000,0.000;
#CREDIT:;
#NOTES:
0000
0000
0000
0000
,
0000
0000
0000
0000
,
0000
0000
0000
0000
,
0000
0000
0000
0000
,
1000
0000
0010
0000
,
0100
0000
0001
0000
,
0010
0000
0100
0000
,
2002
0000
0000
3003
,
0001
0000
1000
0000
,
0001
1000
0001
0000
,
1000
0000
0100
0000
,
1000
0100
1000
0000
,
0010
0000
0100
0000
,
0010
0100
0010
0000
,
0100
0000
0001
0000
,
0100
0001
0100
0000
,
0001
0000
0010
0000
,
0100
0000
1000
0000
,
0001
0000
0100
0000
,
0010
0000
1000
0000
,
0100
0000
1000
0000
,
0010
0000
0100
0000
,
0001
0000
0010
0000
,
0200
0000
0000
0000
,
0310
0010
0001
0001
,
0100
0100
1000
1000
,
0100
0100
0001
0001
,
0010
0010
0100
0100
,
1000
1000
0001
0001
,
0100
0010
1000
0001
,
0010
0100
1000
0001
,
2002
0000
0000
3003
,
1000
0001
0100
0010
,
0100
0001
1000
0000
,
1000
0100
0010
0100
,
1000
0001
0100
0000
,
0010
0100
0010
1000
,
0001
1000
0001
0000
,
0010
0100
0010
0001
,
1000
0010
0100
0002
,
0000
0103
0010
1000
,
0001
0010
0100
0000
,
0100
0010
0001
1000
,
0010
0100
0000
0100
,
0010
0010
1000
1000
,
0100
0100
0001
0001
,
0010
0010
0001
0001
,
0100
0100
1000
1000
,
0010
0100
0001
1000
,
0100
0010
0001
0100
,
1000
0010
1000
0100
,
0001
0010
0100
1000
,
2002
0000
0000
0000
,
3003
0000
0000
0000
;

//---------------dance-single - ----------------
#NOTEDATA:;
#CHARTNAME:;
#STEPSTYPE:dance-single;
#DESCRIPTION:;
#CHARTSTYLE:;
#DIFFICULTY:Beginner;
#METER:2;
#RADARVALUES:0.122,0.103,0.010,0.079,0.000,77.000,1.000,8.000,0.000,0.000,0.000,0.000,0.000,0.122,0.103,0.010,0.079,0.000,77.000,1.000,8.000,0.000,0.000,0.000,0.000,0.000;
#CREDIT:;
#NOTES:
0000
0000
0000
0000
,
0000
0000
0000
0000
,
0000
0000
0000
0000
,
0000
0000
0000
0000
,
0000
1000
0000
1000
,
0000
0001
0000
0001
,
0000
0100
0000
0100
,
0000
0000
0000
0000
,
0010
0000
1000
0000
,
0100
0000
0010
0000
,
0001
0000
0010
0000
,
0100
0000
1000
0000
,
0001
0000
0100
0000
,
0010
0000
1000
0000
,
0001
0000
0010
0000
,
0100
0000
1000
0000
,
0020
0000
0030
0000
,
0200
0000
0300
0000
,
0002
0000
0003
0000
,
2000
0000
3000
0000
,
0020
0000
0030
0000
,
2000
0000
3000
0000
,
0200
0000
0300
0000
,
0000
0000
0000
0000
,
0010
0000
0010
0000
,
0001
0000
0001
0000
,
0100
0000
0000
0000
,
0100
0000
0000
0000
,
0010
0000
0010
0000
,
1000
0000
1000
0000
,
0100
0000
0000
0000
,
0200
0000
0300
0000
,
0110
0000
0010
0000
,
0010
0000
0000
0000
,
0001
0000
0001
0000
,
0001
0000
0000
0000
,
0100
0000
0100
0000
,
0100
0000
0000
0000
,
1000
0000
1000
0000
,
1000
0000
0000
0000
,
0000
1000
0000
1000
,
0000
0001
0000
0001
,
0000
0100
0000
0100
,
0000
0010
0000
0000
,
0010
0000
1000
0000
,
0100
0000
1000
0000
,
0010
0000
0100
0000
,
0001
0000
0100
0000
,
0010
0000
1000
0000
,
0001
0000
0010
0000
,
0100
0000
0001
0000
,
0100
0000
0010
0000
,
0001
0000
0000
0000
;

//---------------dance-double - ----------------
#NOTEDATA:;
#CHARTNAME:;
#STEPSTYPE:dance-double;
#DESCRIPTION:;
#CHARTSTYLE:;
#DIFFICULTY:Easy;
#METER:4;
#RADARVALUES:0.220,0.236,0.030,0.079,0.000,145.000,3.000,8.000,0.000,0.000,0.000,0.000,0.000,0.220,0.236,0.030,0.079,0.000,145.000,3.000,8.000,0.000,0.000,0.000,0.000,0.000;
#CREDIT:;
#NOTES:
// measure 0
00000000
00000000
00000000
00000000
,  // measure 1
00000000
00000000
00000000
00000000
,  // measure 2
00000000
00000000
00000000
00000000
,  // measure 3
00000000
00000000
00000000
00000000
,  // measure 4
01000000
00000000
00010000
00000000
,  // measure 5
00100000
00000000
00001000
00000000
,  // measure 6
00010000
00000000
00100000
00000000
,  // measure 7
02002000
00000000
00000000
03003000
,  // measure 8
00000100
00000000
00100000
00000000
,  // measure 9
00000100
00100000
00000100
00000000
,  // measure 10
00100000
00000000
00010000
00000000
,  // measure 11
00100000
00010000
00100000
00000000
,  // measure 12
00000100
00000000
00001000
00000000
,  // measure 13
00000100
00001000
00000100
00000000
,  // measure 14
00001000
00000000
00000010
00000000
,  // measure 15
00001000
00000010
00001000
00000000
,  // measure 16
00000001
00000000
00000010
00000000
,  // measure 17
00000100
00000000
00001000
00000000
,  // measure 18
00000001
00000000
00000100
00000000
,  // measure 19
00000010
00000000
00001000
00000000
,  // measure 20
00001000
00000000
00010000
00000000
,  // measure 21
00000100
00000000
00001000
00000000
,  // measure 22
00000010
00000000
00000100
00000000
,  // measure 23
00002000
00000000
00000000
00000000
,  // measure 24
00003000
00001000
00000100
00000100
,  // measure 25
00010000
00010000
00100000
00100000
,  // measure 26
00010000
00010000
00000100
00000100
,  // measure 27
00001000
00001000
00010000
00010000
,  // measure 28
01000000
01000000
00001000
00001000
,  // measure 29
00100000
00010000
01000000
00001000
,  // measure 30
00010000
00100000
01000000
00001000
,  // measure 31
02002000
00000000
00000000
03003000
,  // measure 32
10000000
00010000
01000000
00100000
,  // measure 33
01000000
00010000
10000000
00000000
,  // measure 34
10000000
01000000
00100000
01000000
,  // measure 35
10000000
00010000
01000000
00000000
,  // measure 36
00010000
00100000
00010000
01000000
,  // measure 37
00001000
01000000
00001000
00000000
,  // measure 38
00010000
00100000
00010000
00001000
,  // measure 39
01000000
00010000
00100000
00002000
,  // measure 40
00000000
00103000
00010000
01000000
,  // measure 41
00001000
00010000
00100000
00000000
,  // measure 42
00100000
00010000
00001000
01000000
,  // measure 43
00010000
00100000
00000000
00100000
,  // measure 44
00001000
00001000
00100000
00100000
,  // measure 45
00010000
00010000
00000100
00000100
,  // measure 46
00001000
00001000
00000100
00000100
,  // measure 47
00010000
00010000
00100000
00100000
,  // measure 48
00000100
00001000
00000010
00010000
,  // measure 49
00001000
00000100
00000010
00001000
,  // measure 50
00010000
00000100
00010000
00001000
,  // measure 51
00000010
00000100
00001000
00010000
,  // measure 52
00002002
00000000
00000000
00000000
,  // measure 53
00003003
00000000
00000000
00000000
;

//---------------dance-double - ----------------
#NOTEDATA:;
#CHARTNAME:;
#STEPSTYPE:dance-double;
#DESCRIPTION:;
#CHARTSTYLE:;
#DIFFICULTY:Medium;
#METER:7;
#RADARVALUES:0.298,0.262,0.020,0.109,0.000,198.000,2.000,11.000,0.000,0.000,0.000,0.000,0.000,0.298,0.262,0.020,0.109,0.000,198.000,2.000,11.000,0.000,0.000,0.000,0.000,0.000;
#CREDIT:;
#NOTES:
00000000
00000000
00000000
00000000
,
00000000
00000000
00000000
00000000
,
00000000
00000000
00000000
00000000
,
00000000
00000000
00000000
00000000
,
01000000
00000000
00010000
00000000
00000000
00100000
00001000
00000000
,
00100000
00000000
00010000
00000000
00000000
01000000
00001000
00000000
,
00010000
00000000
00100000
00000000
00000000
01000000
00001000
00000000
,
00220000
00000000
00000000
00330000
,
00001000
00000000
00100000
00010000
00000000
00000000
00100000
00000000
,
00001000
00000000
00010000
00000100
00000000
00000000
00010000
00000000
,
00001000
00000000
00100000
00000100
00000000
00000000
00100000
00000000
,
00001000
00000000
00010000
00000100
00000000
00000100
00010000
00000000
,
00000100
00000000
00010000
00001000
00000000
00000000
00010000
00000000
,
00000100
00000000
00001000
00000010
00000000
00000000
00010000
00000000
,
00001000
00000000
00000100
00000010
00000000
00000010
00000100
00000000
,
00001000
00000000
00010000
00000010
00000000
00000010
00010000
00000000
,
00000010
00000100
00000001
00000100
,
00000010
00001000
00000002
00000013
,
00000100
00001000
00000001
00000100
,
00000010
00000100
00000002
00000013
,
00001000
00000010
00001000
00000100
,
00000010
00010000
00000200
00001300
,
00000100
00010000
00001000
00000100
,
00000020
00000000
00000000
00000000
,
00100030
00000000
00001000
00000000
00010000
00000100
00010000
00000000
,
00001000
00100000
00010000
00010000
,
00100000
00000000
00001000
00000000
00010000
00000100
00100000
00000000
,
00010000
00001000
00010000
00010000
,
01000000
00000000
00010000
00000000
00100000
00001000
01000000
00000000
,
00100000
00010000
00001000
00001000
,
01000000
00010000
00200000
00000000
,
00301000
00000000
00000000
02000000
00000000
00000000
03000000
00000000
,
00010000
01000000
00100000
10000000
,
01000000
00000000
10000000
00000000
00100000
00100000
00100000
00000000
,
01000000
00010000
00100000
01000000
,
00100000
00000000
00010000
00000000
01000000
01000000
01000000
00000000
,
00010000
01000000
00100000
01000000
,
00010000
00000000
00100000
00000000
00001000
00001000
00001000
00000000
,
01000000
00010000
00100000
01000000
,
00100000
00000000
00010000
00000000
00001000
00000000
00010000
00020000
,
00000000
00030100
00001000
00010000
,
00001000
00000000
00000100
00000000
00100000
00100000
00100000
00000000
,
00001000
00010000
00000100
00100000
,
00001000
00000000
00000100
00000000
00010000
00010000
00010000
00000000
,
00000010
00000100
00001000
00010000
,
00000100
00000000
00001000
00000000
00000010
00000010
00000010
00000000
,
00001000
00000100
00010000
00000010
,
00000100
00000000
00001000
00000000
00000100
00000100
00000100
00000000
,
00000001
00000100
00000001
00001000
,
00000100
00000000
00000010
00000000
00000001
00000001
00000001
00000000
,
00000010
00000100
00001000
00000001
,
00000100
00000000
00000010
00000000
00000000
00000010
00000100
00000000
,
00020020
00000000
00000000
00000000
,
00030030
00000000
00000000
00000000
;

//---------------dance-double - ----------------
#NOTEDATA:;
#CHARTNAME:;
#STEPSTYPE:dance-double;
#DESCRIPTION:;
#CHARTSTYLE:;
#DIFFICULTY:Challenge;
#METER:8;
#RADARVALUES:0.285,0.315,0.049,0.049,0.000,192.000,5.000,5.000,232.000,0.000,0.000,0.000,0.000,0.285,0.315,0.049,0.049,0.000,192.000,5.000,5.000,232.000,0.000,0.000,0.000,0.000;
#CREDIT:;
#NOTES:
00000000
00000000
00000000
00000000
,
00000000
00000000
00000000
00000000
,
00000000
00000000
00000000
00000000
,
00000000
00000000
00000000
00000000
,
01000000
00000000
00100000
00000000
00000000
01000000
00100000
00000000
,
00010000
00000000
00001000
00000000
00000000
00001000
00100000
00000000
,
00010000
00000000
01000000
00000000
00000000
01000000
00001000
00000000
,
02002000
00000000
03003000
MMMMMMMM
,
00000100
00000000
00100000
00000000
00000100
00100000
00000100
00000000
,
00010000
00001000
00011000
MMMMMMMM
,
00001000
00000000
00100000
00000000
00010000
00100000
00000100
00000000
,
00010000
00001000
00011000
MMMMMMMM
,
00000100
00000000
00010000
00000000
00001000
00010000
00000010
00000000
,
00001000
00000100
00001010
MMMMMMMM
,
00000010
00000000
00000100
00000000
00001000
00010000
00000100
00000000
,
00001000
00000100
00011000
MMMMMMMM
,
00001000
00000000
00000001
00000000
00000000
00001000
00000001
00000000
,
00000100
00000000
00000010
00000000
00000000
00000100
00000010
00000000
,
00001000
00000000
00000100
00001000
00000000
00001000
00000001
00000000
,
00000100
00000000
00000010
00000100
00000000
00000100
00000010
00000000
,
00010000
00000000
00000010
00010000
00000000
00010000
00000010
00000000
,
00000100
00000000
00001000
00010000
00000000
00010000
00000010
00000000
,
00001000
00000000
00000100
00010000
00000000
00010000
00000010
00000000
,
00000200
00000000
00000000
00000000
00000000
00000000
00000000
00000300
,
00000100
00000000
00010000
00000000
00001000
00100000
00000100
00000000
,
00001000
00010000
00100000
MMMMMMMM
,
00100000
00000000
00001000
00000000
00010000
00000100
00010000
00000000
,
00001000
00100000
00000100
MMMMMMMM
,
01000000
00000000
00010000
00000000
00100000
00001000
00100000
00000000
,
00010000
01000000
00001000
MMMMMMMM
,
00010000
MMMMMMMM
00100000
MMMMMMMM
,
01000000
MMMMMMMM
00001000
MMMMMMMM
,
00010000
00100000
01000000
MMMMMMMM
,
10000000
00100000
01000000
MMMMMMMM
,
00100000
00000000
10000000
00010000
10000000
00000000
MMMMMMMM
00000000
,
00100000
00000000
01000000
00010000
01000000
00000000
MMMMMMMM
00000000
,
00010000
01000000
00100000
MMMMMMMM
,
00010000
00001000
00100000
MMMMMMMM
,
00010000
01000000
00001000
01000000
00010000
00000000
MMMMMMMM
00000000
,
00100000
00001000
00100000
00010000
01000000
00000000
00000000
00000000
,
00000200
00000000
00001300
00010000
00000000
00001000
MMMMMMMM
00000000
,
00000100
00000000
00010000
00001000
00000000
00100000
MMMMMMMM
00000000
,
00100000
00000000
00010000
00100000
00000000
00000100
MMMMMMMM
00000000
,
00010000
00000000
00001000
00100000
00000000
00000000
00000100
00000000
,
00001000
00000000
00000100
00000000
00010000
00001000
MMMMMMMM
00000000
,
00000100
00000000
00000010
00000000
00001000
00000100
MMMMMMMM
00000000
,
00000100
00000000
00001000
00000000
00000010
00010000
MMMMMMMM
00000000
,
00001000
00000000
00010000
00000000
00000100
00001000
MMMMMMMM
00000000
,
00000001
00000000
00000010
00000100
00001000
00000001
MMMMMMMM
00000000
,
00000100
00000000
00000010
00001000
00000001
00000010
MMMMMMMM
00000000
,
00000001
00000000
00000100
00000010
00001000
00000001
MMMMMMMM
00000000
,
00001000
00000000
00000010
00000100
00000001
00001000
00000010
00000100
,
00000020
00000000
00000000
00000000
,
00000030
00000000
00000000
00000000
;

//---------------dance-double - ----------------
#NOTEDATA:;
#CHARTNAME:;
#STEPSTYPE:dance-double;
#DESCRIPTION:;
#CHARTSTYLE:;
#DIFFICULTY:Hard;
#METER:10;
#RADARVALUES:0.420,0.419,0.059,0.356,0.000,255.000,6.000,36.000,0.000,0.000,0.000,0.000,0.000,0.420,0.419,0.059,0.356,0.000,255.000,6.000,36.000,0.000,0.000,0.000,0.000,0.000;
#CREDIT:;
#NOTES:
00000000
00000000
00000000
00000000
,
00000000
00000000
00000000
00000000
,
00000000
00000000
00000000
00000000
,
00000000
00000000
00000000
00000000
,
01000000
00000000
00010000
00100000
00000000
00100000
00010000
00000000
,
01000000
00000000
00100000
01000000
00000000
01000000
00001000
00000000
,
00100000
00000000
00010000
01000000
00000000
00001000
00000000
00200000
,
00020000
00000000
00000000
00330000
,
00001000
00000000
00100000
00010000
00000000
00010000
00100000
00000000
,
00000100
00000000
00010000
00001000
00000000
00001000
00010000
00000000
,
00000100
00000000
00001000
00010000
00000000
00100000
00000100
00000000
,
00010000
00000000
00001000
00100000
00000000
00100000
00000100
00000000
,
00000100
00000000
00001000
00000100
00000000
00000010
00010000
00000000
,
00000100
00000000
00001000
00000010
00000000
00001000
00000100
00000000
,
00010000
00000000
00001000
00000100
00000000
00001000
00010000
00000000
,
00000010
00000000
00001000
00000100
00000000
00001000
00000010
00000000
,
00001000
00000000
00000100
00000000
00000010
00000001
00001000
00000000
,
00000010
00000000
00000100
00000000
00000001
00001000
00000100
00000000
,
00000010
00001100
00000010
00000101
,
00000010
00000000
00001001
00000000
00000001
00000100
00000010
00000000
,
00010000
00011000
00000010
00001010
,
00001000
00000000
00000100
00010000
00000010
00000000
00000100
00001000
,
00020000
00030200
00002300
00003020
,
00020000
00000000
00000000
00030030
,
00100000
00000100
00020000
00031000
,
00100000
00010000
00100000
00000100
00010000
00001000
00010000
00000000
,
00000200
00001300
00020000
00130000
,
00000100
00010000
00001000
00100000
00000100
00001000
00010000
00001000
,
00002000
01003000
00020000
00130000
,
00010000
01000000
00100000
01000000
00001000
00100000
00020000
00000000
,
02030000
00000000
03200000
00000000
,
00320000
00000000
00000000
00002000
00000000
00000000
00033000
00000000
,
00010000
00100000
01000000
00010000
01000000
00100000
00010000
00000000
,
10000000
00100000
01000000
10000000
01000000
00100000
10000000
00000000
,
00010000
00100000
01000000
10000000
00010000
01000000
10000000
01000000
,
00010000
10000000
01000000
00100000
00010000
00000000
10000000
00000000
,
00010000
00100000
00001000
00100000
00010000
00100000
00001000
00000000
,
00010000
00100000
01000000
00100000
00010000
00100000
01000000
00000000
,
00010000
00100000
00001000
00000000
01000000
00100000
00010000
00000000
,
00100000
01000000
00001000
00000000
00100000
00010000
01000000
00002000
,
00000000
00000000
01003000
00010000
00100000
00001000
00100000
00000000
,
00010000
00000000
01000000
00100000
00010000
00100000
01000000
00000000
,
00002000
00000000
00103000
00010000
01000000
00001000
00020000
00000000
,
00130000
00000000
01000000
00001000
00000000
00001000
01000000
00000000
,
00001000
00010000
00000200
00000000
00010300
00001000
00200000
00000000
,
00310000
00001000
00020000
00000000
00130000
00000100
00020000
00000000
,
00031000
00100000
00000200
00000000
00001300
00010000
00002000
00000000
,
00003100
00010000
00002000
00000000
00103000
00000100
00200000
00000000
,
00301000
00010000
00000020
00000000
00001030
00000100
00020000
00000000
,
00031000
00010000
00000020
00000000
00001030
00000100
00002000
00000000
,
00003010
00000100
00002000
00000000
00013000
00001000
00000020
00000000
,
00001030
00010000
00000100
00001000
00000010
00000100
00001000
00000000
,
00002002
00000000
00000000
00000000
,
00003003
00000000
00000000
00000000
;
