#VERSION:0.81;
#TITLE:Flutter Girl;
#SUBTITLE:;
#ARTIST:wowaka feat. Andrea Libman;
#TITLETRANSLIT:;
#SUBTITLETRANSLIT:;
#ARTISTTRANSLIT:;
#GENRE:Vocaloid;
#ORIGIN:;
#CREDIT:;
#BANNER:Flutter Girl.png;
#BACKGROUND:Flutter Girl-bg.png;
#PREVIEWVID:Preview.avi;
#JACKET:Flutter Girl-jacket.png;
#CDIMAGE:;
#DISCIMAGE:;
#LYRICSPATH:;
#CDTITLE:;
#MUSIC:Flutter Girl.mp3;
#OFFSET:-0.034;
#SAMPLESTART:49.220;
#SAMPLELENGTH:15.000;
#SELECTABLE:YES;
#BPMS:0.000=195.000;
#STOPS:;
#DELAYS:;
#WARPS:;
#TIMESIGNATURES:0.000=4=4;
#TICKCOUNTS:0.000=4;
#COMBOS:0.000=1;
#SPEEDS:0.000=1.000=0.000=0;
#SCROLLS:0.000=1.000;
#FAKES:;
#LABELS:0.000=Song Start;
#BGCHANGES:-0.500=Flutter Girl.avi=1.000=0=0=0=StretchNoLoop====,
99999=-nosongbg-=1.000=0=0=0 // don't automatically add -songbackground-
;
#KEYSOUNDS:;
#ATTACKS:
;

//---------------dance-single - ----------------
#NOTEDATA:;
#CHARTNAME:;
#STEPSTYPE:dance-single;
#DESCRIPTION:;
#CHARTSTYLE:;
#DIFFICULTY:Easy;
#METER:6;
#RADARVALUES:0.359,0.361,0.123,0.258,0.000,190.000,11.000,23.000,0.000,0.000,0.000,0.000,0.000,0.359,0.361,0.123,0.258,0.000,190.000,11.000,23.000,0.000,0.000,0.000,0.000,0.000;
#CREDIT:;
#NOTES:
0010
0010
1000
0001
,
0100
0000
0100
0000
,
0010
0010
1000
0001
,
0010
0000
0010
0000
,
0100
0100
1000
0001
,
0010
0000
0010
0000
,
0100
0100
1000
0001
,
0100
0000
0100
0100
,
0010
0000
1000
0000
,
0001
0000
0000
0010
,
0010
0000
0100
0000
,
1100
0000
0000
1000
,
1000
0000
0010
0000
,
0100
0000
0000
0001
,
0002
0000
0000
1003
,
1000
0000
0000
0000
,
0200
0000
0310
0000
,
0200
0000
1300
0100
,
2000
0000
3001
0001
,
0020
0000
0130
0000
,
0020
0000
0031
0000
,
0020
0000
1030
0000
,
0020
0000
0130
0000
,
0020
0000
0130
0000
,
0010
0000
0001
0000
,
0100
0000
0010
0010
,
2000
0000
3002
0000
,
0023
0000
0000
0130
,
0100
0000
1000
0000
,
0001
0000
0010
0220
,
0000
0330
0010
0001
,
0100
0000
0010
0000
,
0100
0100
0100
0000
,
0010
1000
1000
0000
,
0010
1000
0010
1000
,
0001
0010
0001
0000
,
0010
0000
0110
0000
,
0100
0000
0110
0000
,
1001
0000
0000
1000
,
0200
0000
0000
0310
,
0100
0100
0100
0000
,
1000
0100
1000
0000
,
0010
0010
0010
0000
,
0001
0010
0001
0000
,
0010
1000
0010
1000
,
0100
0010
0100
0010
,
0001
0100
0001
0100
,
0010
0000
1000
0000
0010
0000
0000
1000
,
0000
0000
1000
0000
0001
0000
0000
1000
,
0000
1000
1001
0000
,
0010
0010
0010
0000
,
0001
0010
0001
0000
,
0020
0000
2030
0000
,
3002
0000
0023
0000
,
0230
0000
0000
0310
,
0200
0300
1001
1001
,
1000
1000
1000
0000
,
0100
0010
0100
0000
,
0010
0010
0010
0000
,
0001
0100
0001
0000
,
0100
0010
1000
0000
,
0100
1000
0010
0000
,
0100
0010
0001
0000
,
0010
0100
0001
0000
,
1000
1000
1000
0000
,
0001
0001
0100
0000
,
0001
0001
0001
0000
,
1000
1000
0100
0000
,
0010
0000
0012
0000
,
0103
0000
0120
0000
,
1030
0000
0010
1000
,
0001
0000
1001
0000
;

//---------------dance-single - ----------------
#NOTEDATA:;
#CHARTNAME:;
#STEPSTYPE:dance-single;
#DESCRIPTION:;
#CHARTSTYLE:;
#DIFFICULTY:Hard;
#METER:13;
#RADARVALUES:0.737,0.682,0.639,0.011,0.062,402.000,57.000,1.000,0.000,0.000,0.000,0.000,0.000,0.737,0.682,0.639,0.011,0.062,402.000,57.000,1.000,0.000,0.000,0.000,0.000,0.000;
#CREDIT:;
#NOTES:
1000
0000
0000
0000
1001
0000
0000
0000
0001
0000
0010
0000
0100
0010
0100
0000
,
0000
0000
0010
0000
0001
0000
0100
0000
0010
0000
1000
0010
1000
0000
0010
0100
,
0010
0000
0000
0000
1001
0000
0000
0000
1000
0000
0100
0000
0010
0100
0010
0000
,
0000
0001
0100
0010
1000
0001
1001
0000
,
0100
0000
0000
0000
1001
0000
0000
0000
1000
0000
0100
0000
0010
0100
0010
0000
,
0000
0000
0100
0000
1000
0000
0010
0000
0100
0000
0001
0010
0100
0000
0010
0100
,
1000
0000
0110
0000
0010
0001
0100
0010
,
0000
1000
0010
0100
0010
1000
1000
1000
,
0001
0010
0011
0100
,
1100
0000
1000
0000
1010
0000
0010
0100
,
0001
0000
0001
0000
0010
0100
0000
1100
,
0000
1000
0010
0100
0001
1000
0100
0000
,
0110
1000
1001
0100
,
1100
0000
0010
0000
0011
0000
0001
1000
,
0000
0010
0010
0000
1000
0001
0010
0100
,
0000
0010
0100
1000
0001
0100
0001
0000
,
0100
0000
0100
0000
0010
1000
0001
0010
,
0000
0100
0010
0100
0010
0000
0100
0000
,
1100
0000
1000
0000
0001
0100
0001
1000
,
0000
0000
0001
0000
0010
0100
0010
0000
,
0100
0000
1100
0000
1000
0010
0100
0001
,
0000
0010
0100
0110
,
0100
0000
1000
0000
0010
1000
0001
0100
,
0000
0001
0010
0100
1000
0001
1000
0001
,
0100
1000
1001
0010
,
0110
0000
0001
0000
0101
0000
0100
0010
,
0100
0000
0010
0000
1000
0010
0100
0001
,
0000
1000
0100
0000
0010
0001
0010
0000
,
0001
1001
0100
0110
,
0001
0000
0101
0000
0100
0010
1010
0000
,
1000
0000
1000
0000
0001
0010
0001
0010
,
0100
0000
0010
0000
0100
1000
0100
1000
,
0001
0000
0100
0000
0010
0000
1000
0100
,
0000
0010
0001
0000
0100
0000
0010
1000
,
0000
0001
0100
0001
1000
0000
0100
0010
,
0000
0100
1000
0010
0100
0001
0100
0000
,
0001
0010
1100
0010
,
0101
0010
1001
0100
,
0110
0000
0010
0000
0001
0010
0100
0000
,
1000
0010
0100
0001
1000
0010
0100
0001
1000
0000
0000
0000
0100
0000
0010
0000
,
0110
0000
0110
0000
0100
1000
0000
0110
,
0000
0010
0110
0000
0100
0001
0000
1001
,
0000
1000
0100
0010
0001
0100
0010
0100
,
0000
0010
1000
1000
0001
0001
0010
0000
,
0100
0000
1000
0001
1000
0000
0100
0010
,
0000
0010
0001
1000
0001
0000
0100
0010
,
0000
1000
0010
0100
0001
1000
0100
0010
,
0000
0100
0100
1000
0010
0100
0000
0010
,
0100
0000
0001
1000
0001
0000
0000
1100
,
0000
0000
1001
0000
0110
0000
0000
0010
,
0000
1000
0001
0010
0100
0100
1000
0001
,
0000
0100
0001
1000
0010
0100
0010
0000
,
1010
0100
0101
0010
,
0011
0100
1100
1000
,
1001
1000
0100
0011
,
0101
0100
0010
1000
,
1001
0000
1001
0000
1000
0100
0000
1001
,
0000
0001
1001
0000
0001
0100
0000
0010
,
0000
1000
0010
0100
0001
0010
0100
0010
,
0000
0100
1000
0001
1000
0000
0001
0000
,
0101
0000
0100
0010
0100
0000
0010
1010
,
0000
1000
0010
0100
0010
0000
0100
0001
,
0000
0010
0100
1000
0010
0100
0001
1000
,
0000
1000
0100
1000
0010
0200
0000
0000
,
0310
0000
0010
0100
0010
1000
0000
0110
,
0000
0100
0100
0010
0010
0001
0000
0011
,
0000
0010
1000
0100
0010
0001
0100
0010
,
0000
1000
0010
1000
0100
0000
0110
0000
,
1100
0010
0011
0100
,
0101
0010
1010
1000
,
1001
0000
1000
0000
0100
0000
0010
0001
,
0000
0100
0010
1000
0001
1001
0000
0000
;

//---------------dance-single - ----------------
#NOTEDATA:;
#CHARTNAME:;
#STEPSTYPE:dance-single;
#DESCRIPTION:;
#CHARTSTYLE:;
#DIFFICULTY:Medium;
#METER:9;
#RADARVALUES:0.508,0.481,0.381,0.179,0.000,267.000,34.000,16.000,0.000,0.000,0.000,0.000,0.000,0.508,0.481,0.381,0.179,0.000,267.000,34.000,16.000,0.000,0.000,0.000,0.000,0.000;
#CREDIT:;
#NOTES:
1000
1000
0010
1000
,
0001
0000
0010
0000
0001
0010
0001
0000
,
1000
1000
0010
0100
,
0001
0000
0001
0000
0010
0100
0010
0000
,
0001
0001
1000
0010
,
1000
0000
0001
0000
0010
0100
0010
0000
,
0001
0001
1000
0010
,
1000
0000
0001
0000
0010
0100
0010
0100
,
0010
0000
0101
0000
,
0010
0000
0000
0000
1100
0000
1000
0100
,
0000
0000
0010
0000
0001
0100
0000
0010
,
0000
0000
1000
1000
,
0001
0000
1010
0000
,
0001
0000
1100
0220
,
0000
0000
0330
0000
0010
0001
0100
0020
,
0000
0000
0000
0000
,
1030
0000
0010
0000
1000
0000
0001
1000
,
0000
1000
0001
0000
0010
0000
0100
0000
,
1000
0000
0010
0000
1000
0001
1000
0001
,
0000
0000
0010
0100
,
0110
0000
0000
0000
0001
1000
0001
1000
,
0000
0000
0010
0100
,
0110
0000
0000
0000
1000
0001
1000
0001
,
0000
0000
0010
0010
,
0100
0000
0011
0000
,
0100
0000
1010
1000
,
0001
0000
0010
0000
0100
1000
0010
0100
,
0000
0000
0001
0110
,
1000
0000
0011
0000
,
1000
0000
0101
0220
,
0000
0000
0330
0000
0010
0100
0001
0020
,
0000
0000
0130
0000
,
0100
0000
1000
0000
0010
0000
1000
0010
,
0000
1000
0010
0000
0100
0000
0001
0100
,
0000
0001
0100
0000
0001
0000
0010
0001
,
0000
0010
0001
0010
0001
0000
0100
0000
,
0010
0000
0110
0000
,
1001
0000
0110
0000
,
1010
0000
0000
0101
,
0202
0000
0000
0000
0303
0000
0001
1000
,
0001
0000
1000
0000
0010
1000
0000
0000
,
1000
0000
0001
0000
0010
0001
0000
0000
,
0010
0000
0010
0000
0100
1000
0100
0000
,
1000
0000
1000
0000
0010
0100
0010
0000
,
0100
0000
0001
1000
0001
0000
0000
0000
,
0100
0000
0001
1000
0001
0000
0000
0000
,
0100
0000
0001
1000
0001
0000
1000
0001
,
1000
0000
0010
0000
1000
0001
1000
0000
,
0100
0000
1000
0010
0100
0000
0000
0010
,
0000
0100
1001
0000
,
0100
0000
1000
0000
0010
0100
0010
0000
,
0100
0000
0001
0000
0010
0100
0010
0000
,
0100
0000
0011
0000
,
1010
0000
0011
0000
,
0202
0000
0303
1100
,
2200
3300
0100
0001
,
0010
0000
0100
0000
1000
0010
0000
0000
,
0100
0000
0010
0000
1000
0100
0000
0000
,
0010
0000
0001
0000
0010
0001
0100
0000
,
0010
0000
1000
0000
0010
1000
0100
0000
,
0010
0000
0001
1000
0001
0000
0000
0000
,
0010
0000
0001
1000
0001
0000
0000
0000
,
0010
0000
0001
1000
0001
0000
1000
0001
,
1000
0000
0100
0000
1000
0001
1000
0000
,
0010
0000
1000
0000
0100
0010
0000
0000
,
0010
0000
0001
0000
0100
0010
0000
0000
,
1000
0000
0010
0000
0100
0000
0001
0010
,
0000
0001
0010
0100
1000
0000
0001
0000
,
1001
0000
0110
0000
,
1010
0000
0101
0000
,
0022
0000
0033
1100
,
2200
3300
1001
0000
;

//---------------dance-single - ----------------
#NOTEDATA:;
#CHARTNAME:;
#STEPSTYPE:dance-single;
#DESCRIPTION:;
#CHARTSTYLE:;
#DIFFICULTY:Beginner;
#METER:3;
#RADARVALUES:0.152,0.160,0.067,0.056,0.000,84.000,6.000,5.000,0.000,0.000,0.000,0.000,0.000,0.152,0.160,0.067,0.056,0.000,84.000,6.000,5.000,0.000,0.000,0.000,0.000,0.000;
#CREDIT:;
#NOTES:
// measure 0
1000
1000
0000
0000
,  // measure 1
0000
0000
0000
0000
,  // measure 2
1000
1000
0000
0000
,  // measure 3
0000
0000
0000
0000
,  // measure 4
0001
0001
0000
0000
,  // measure 5
0000
0000
0000
0000
,  // measure 6
0001
0001
0000
0000
,  // measure 7
0000
0000
0000
0000
,  // measure 8
0010
0000
0000
0000
,  // measure 9
0010
0000
0000
0000
,  // measure 10
0100
0000
0000
0000
,  // measure 11
0100
0000
0000
0000
,  // measure 12
0010
0000
0000
0000
,  // measure 13
0010
0000
0000
0000
,  // measure 14
0200
0000
0000
0000
,  // measure 15
0300
0000
0000
0000
,  // measure 16
1000
0000
0000
0000
,  // measure 17
1000
0000
0000
0000
,  // measure 18
0001
0000
0000
0000
,  // measure 19
0001
0000
0000
0000
,  // measure 20
1000
0000
0000
0000
,  // measure 21
1000
0000
0000
0000
,  // measure 22
0002
0000
0000
0000
,  // measure 23
0003
0000
0000
0000
,  // measure 24
0100
0000
0100
0000
,  // measure 25
0100
0000
0000
0000
,  // measure 26
0010
0000
0000
0000
,  // measure 27
0010
0000
0000
0000
,  // measure 28
1000
0000
1000
0000
,  // measure 29
1000
0000
0000
0001
,  // measure 30
0000
0000
0000
0000
,  // measure 31
0001
0000
0000
0000
,  // measure 32
0100
0000
0100
0000
,  // measure 33
0100
0000
0000
0000
,  // measure 34
0010
0000
0010
0000
,  // measure 35
0010
0000
0000
0000
,  // measure 36
1000
0000
1000
0000
,  // measure 37
1000
0000
0000
0000
,  // measure 38
0002
0000
0000
0000
,  // measure 39
0000
0000
0000
1003
,  // measure 40
1000
0000
0000
0000
,  // measure 41
1001
0000
0000
0000
,  // measure 42
0001
0000
0000
0000
,  // measure 43
1001
0000
0000
0000
,  // measure 44
0100
0000
0100
0000
,  // measure 45
0010
0000
0010
0000
,  // measure 46
0110
0000
0000
0000
,  // measure 47
0110
0000
0000
0000
,  // measure 48
0000
0000
0000
0000
,  // measure 49
0000
0000
0000
0000
,  // measure 50
0010
0000
0010
0000
,  // measure 51
0010
0000
0000
0000
,  // measure 52
1000
0000
0001
0000
,  // measure 53
1000
0000
0001
0000
,  // measure 54
2000
0000
0000
0000
,  // measure 55
0000
0000
0000
3001
,  // measure 56
0001
0000
0000
0000
,  // measure 57
1001
0000
0000
0000
,  // measure 58
1000
0000
0000
0000
,  // measure 59
1001
0000
0000
0000
,  // measure 60
0100
0000
0100
0000
,  // measure 61
0100
0000
0000
0000
,  // measure 62
0010
0000
0010
0000
,  // measure 63
0010
0000
0000
0000
,  // measure 64
1000
0000
1000
0000
,  // measure 65
1000
0000
0000
0000
,  // measure 66
0001
0000
0001
0000
,  // measure 67
0001
0000
0000
0000
,  // measure 68
1000
0000
0001
0000
,  // measure 69
1000
0000
0001
0000
,  // measure 70
2000
0000
0000
0000
,  // measure 71
0000
0000
3001
0000
;
