#VERSION:0.81;
#TITLE:Fluoride Soundscapes (Brushie Brushie Mix);
#SUBTITLE:;
#ARTIST:Derpy Hooves;
#TITLETRANSLIT:;
#SUBTITLETRANSLIT:;
#ARTISTTRANSLIT:;
#GENRE:Trance;
#ORIGIN:;
#CREDIT:;
#BANNER:Flouride Soundscapes (Brushie Brushie Mix).png;
#BACKGROUND:Flouride Soundscapes (Brushie Brushie Mix)-bg.png;
#PREVIEWVID:;
#JACKET:Flouride Soundscapes (Brushie Brushie Mix)-jacket.png;
#CDIMAGE:;
#DISCIMAGE:;
#LYRICSPATH:;
#CDTITLE:;
#MUSIC:Flouride Soundscapes (Brushie Brushie Mix).ogg;
#OFFSET:-8.000;
#SAMPLESTART:24.000;
#SAMPLELENGTH:15.000;
#SELECTABLE:YES;
#BPMS:0.000=120.000;
#STOPS:;
#DELAYS:;
#WARPS:;
#TIMESIGNATURES:0.000=4=4;
#TICKCOUNTS:0.000=4;
#COMBOS:0.000=1;
#SPEEDS:0.000=1.000=0.000=0;
#SCROLLS:0.000=1.000;
#FAKES:;
#LABELS:0.000=Song Start;
#BGCHANGES:;
#KEYSOUNDS:;
#ATTACKS:
;

//---------------dance-single - ----------------
#NOTEDATA:;
#CHARTNAME:;
#STEPSTYPE:dance-single;
#DESCRIPTION:;
#CHARTSTYLE:;
#DIFFICULTY:Beginner;
#METER:1;
#RADARVALUES:0.071,0.082,0.000,0.041,0.000,45.000,0.000,4.000,0.000,0.000,0.000,0.000,0.000,0.071,0.082,0.000,0.041,0.000,45.000,0.000,4.000,0.000,0.000,0.000,0.000,0.000;
#CREDIT:;
#NOTES:
1000
0000
0000
0000
,
0010
0000
0000
0000
,
0100
0000
0000
0000
,
0001
0000
0000
0000
,
0010
0000
0000
0000
,
0100
0000
0000
0000
,
0001
0000
0000
0000
,
0100
0000
0000
0000
,
1000
0000
0000
0000
,
0010
0000
0000
0000
,
0100
0000
0000
0000
,
0000
0000
0000
0000
,
0001
0000
0000
0000
,
0100
0000
0000
0000
,
1000
0000
0000
0000
,
0000
0000
0000
0000
,
0100
0000
0000
0000
,
0010
0000
0000
0000
,
1000
0000
0000
0000
,
0001
0000
0000
0000
,
0010
0000
0000
0000
,
0100
0000
0000
0000
,
0001
0000
0000
0000
,
0100
0000
0000
0000
,
1000
0000
0001
0000
,
1000
0000
0000
0000
,
0010
0000
0100
0000
,
0010
0000
0000
0000
,
2000
0000
3000
0000
,
0200
0000
0300
0000
,
0020
0000
0030
0000
,
0002
0000
0003
0000
,
1000
0000
0100
0000
,
1000
0000
0000
0000
,
0001
0000
0010
0000
,
0001
0000
0000
0000
,
0100
0000
0010
0000
,
0100
0000
0000
0000
,
0001
0000
1000
0000
,
0001
0000
0000
0000
,
1000
0000
0000
0000
;

//---------------dance-single - ----------------
#NOTEDATA:;
#CHARTNAME:;
#STEPSTYPE:dance-single;
#DESCRIPTION:;
#CHARTSTYLE:;
#DIFFICULTY:Easy;
#METER:3;
#RADARVALUES:0.131,0.163,0.010,0.122,0.000,77.000,1.000,12.000,0.000,0.000,0.000,0.000,0.000,0.131,0.163,0.010,0.122,0.000,77.000,1.000,12.000,0.000,0.000,0.000,0.000,0.000;
#CREDIT:;
#NOTES:
1000
0000
1000
0000
,
0001
0000
0001
0000
,
0100
0000
0100
0000
,
0010
0000
0010
0000
,
1000
0000
0001
0000
,
1000
0000
0001
0000
,
0100
0000
0010
0000
,
0100
0000
0010
0000
,
1000
0000
0100
0000
,
0010
0000
0001
0000
,
0010
0000
0100
0000
,
0000
0000
0000
0000
,
1000
0000
0010
0000
,
0100
0000
0001
0000
,
1000
0000
0100
0000
,
0000
0000
0000
0000
,
0010
0000
0001
0000
,
0100
0000
0010
0000
,
0100
0000
0001
0000
,
0010
0000
0100
0000
,
0001
0000
0100
0000
,
1000
0000
0001
0000
,
0100
0000
1000
0000
,
0100
0000
0010
0000
,
2000
0000
3000
0000
,
0002
0000
0003
0000
,
0200
0000
0300
0000
,
0020
0000
0030
0000
,
2000
3000
0020
0030
,
0200
0300
0002
0003
,
0020
0030
0200
0300
,
2000
3000
0002
0003
,
0100
0000
0010
0000
,
0100
0000
0001
0010
,
0100
0000
0001
0000
,
0100
0000
1000
0001
,
0100
0000
0010
0000
,
1000
0000
0100
0010
,
0100
0000
1000
0000
,
0010
0000
0100
0001
,
1001
0000
0000
0000
;

//---------------dance-single - ----------------
#NOTEDATA:;
#CHARTNAME:;
#STEPSTYPE:dance-single;
#DESCRIPTION:;
#CHARTSTYLE:;
#DIFFICULTY:Medium;
#METER:7;
#RADARVALUES:0.255,0.292,0.082,0.020,0.000,165.000,8.000,2.000,0.000,0.000,0.000,0.000,0.000,0.255,0.292,0.082,0.020,0.000,165.000,8.000,2.000,0.000,0.000,0.000,0.000,0.000;
#CREDIT:;
#NOTES:
1000
0010
0100
0001
,
0010
0000
0100
0000
1000
0000
0010
0100
,
0010
1000
0100
0010
,
0001
0000
0100
0000
0010
0000
1000
0001
,
1000
0100
0010
0100
,
1000
0000
0001
0000
0100
0000
0010
1000
,
0001
0010
0100
0001
,
0100
1000
0001
0010
,
0100
0000
1000
0000
0001
0100
0010
0000
,
0100
0000
0001
0000
0010
0100
1000
0000
,
0001
0000
0100
0000
0010
1000
0010
1000
,
0000
0100
0000
0100
,
1000
0000
0010
0000
0100
0001
0100
0000
,
0010
0000
1000
0000
0001
0010
0100
0000
,
1000
0000
0100
0000
0010
0001
0100
0001
,
0000
0010
0000
0100
,
1000
0100
0001
0100
,
1000
0010
0001
0010
,
1000
0100
0010
0100
,
1000
0000
0001
0000
0100
0000
0010
0100
,
0001
0010
0100
1000
,
0001
0000
0100
0000
0010
0000
1000
0001
,
0010
0100
1000
0100
,
0010
0000
0001
0000
1000
0000
0010
0100
,
0002
0003
0000
0000
0000
0000
0000
0000
0000
0000
0000
0000
0000
0000
0000
0000
0000
0000
0000
0000
0000
0000
0000
0000
0000
0000
0000
0000
0000
0000
0000
0000
0000
0000
0000
0000
0000
0000
0000
0000
0000
0000
0000
0000
0000
0000
0000
0000
0101
0000
0000
0000
0000
0000
0000
0000
0000
0000
0000
0000
0000
0000
0000
0000
0000
0000
0000
0000
0000
0000
0000
0000
0000
0000
0000
0000
0000
0000
0000
0000
0000
0000
0000
0000
0000
0000
0000
0000
0000
0000
0000
0000
0000
0000
0000
0000
1000
0000
0000
0000
0000
0000
0000
0000
0000
0000
0000
0000
0000
0000
0000
0000
0000
0000
0000
0000
0000
0000
0000
0000
0000
0000
0000
0000
0000
0000
0000
0000
0000
0000
0000
0000
0000
0000
0000
0000
0000
0000
0000
0000
0000
0000
0000
0000
1100
0000
0000
0000
0000
0000
0000
0000
0000
0000
0000
0000
0000
0000
0000
0000
0000
0000
0000
0000
0000
0000
0000
0000
0000
0000
0000
0000
0000
0000
0000
0000
0000
0000
0000
0000
0000
0000
0000
0000
0000
0000
0000
0000
0000
0000
0000
0000
,
0001
0011
1000
1010
,
0010
0110
0100
1001
,
0100
0110
0010
1001
,
0010
0000
1000
0000
0100
0001
0100
0000
,
1000
0000
0010
0000
0100
0001
0010
0000
,
0100
0000
0001
0000
0100
1000
0001
0000
,
0100
1000
0100
0000
0010
1000
0001
0000
,
0010
0000
0100
0000
,
1000
0000
0001
0100
,
0010
0000
1000
0000
,
0100
0000
1000
0001
,
0100
0000
0010
0000
,
0100
0000
0001
0010
,
0100
0000
1000
0000
,
0010
0100
0001
1000
,
0020
0000
0000
0000
,
0000
0000
0000
0000
,
0000
0000
0000
0000
,
0000
0000
0000
0000
,
0030
0000
0000
0000
;

//---------------dance-single - ----------------
#NOTEDATA:;
#CHARTNAME:;
#STEPSTYPE:dance-single;
#DESCRIPTION:;
#CHARTSTYLE:;
#DIFFICULTY:Hard;
#METER:9;
#RADARVALUES:0.385,0.359,0.153,0.153,0.000,234.000,15.000,15.000,0.000,0.000,0.000,0.000,0.000,0.385,0.359,0.153,0.153,0.000,234.000,15.000,15.000,0.000,0.000,0.000,0.000,0.000;
#CREDIT:;
#NOTES:
0010
0000
1000
0000
0100
1000
0010
0000
,
0100
0000
0001
0000
1000
0100
0010
0000
,
0100
0000
1000
0000
0010
0100
0001
0000
,
1000
0000
0100
0000
0010
0001
0100
0010
,
1000
0000
0001
0000
0010
0100
0010
0000
,
0001
0000
1000
0000
0010
0100
0001
0100
,
0010
0000
1000
0000
0100
1000
0001
0000
,
0010
0100
1000
0001
,
0100
0010
0100
0001
0010
0100
1000
0001
,
0100
0010
0000
0010
1000
0100
1000
0001
,
0100
0010
0000
0010
0100
0001
1000
0100
,
0010
0001
0100
0010
,
1000
0100
0010
0001
1000
0010
0100
0001
,
1000
0100
0000
0100
1000
0010
0100
0001
,
0010
0100
0000
0100
0010
0001
0100
0010
,
1000
0001
0010
0100
,
0010
0001
0100
0000
1000
0010
0100
0000
,
0001
0010
0100
0000
0100
0010
0001
0000
,
1000
0010
0100
0000
0100
0010
1000
0000
,
1000
0001
0010
0100
1000
0100
0010
0001
,
1000
0010
0100
0000
0100
0010
1000
0000
,
1000
0001
0010
0000
0010
0001
0100
0000
,
0010
1000
0100
0000
0100
1000
0010
0000
,
0100
0001
0010
0100
1000
0010
0100
0001
,
0012
0013
0120
0130
,
1200
1300
2001
3001
,
0102
0103
0210
0310
,
1020
1030
2001
3001
,
0011
0000
1000
0100
1100
0000
1000
0010
,
1010
0000
0100
0001
0101
0000
0001
0010
,
0011
0000
1000
0001
1001
0000
1000
0100
,
1000
0001
0100
0010
1000
0001
0010
0100
,
2000
0000
0010
0000
3100
0001
0100
0000
,
0002
0000
0010
0000
0103
1000
0010
0000
,
0200
0000
0010
0000
1300
0001
0010
0000
,
0200
0000
1000
0000
0310
0100
0001
0000
,
2000
0000
0010
0000
3100
0001
0010
0100
,
0010
0000
0001
0100
0010
1000
0100
0010
,
0002
0000
0100
0000
0013
0100
1000
0001
,
0100
0010
1000
0000
0001
0010
0100
1000
,
1002
0000
0000
0000
,
0000
0000
0000
0000
,
0000
0000
0000
0000
,
0000
0000
0000
0000
,
0003
0000
0000
0000
;

//---------------dance-solo - Blank----------------
#NOTEDATA:;
#CHARTNAME:;
#STEPSTYPE:dance-solo;
#DESCRIPTION:Blank;
#CHARTSTYLE:;
#DIFFICULTY:Hard;
#METER:13;
#RADARVALUES:0.673,0.718,0.092,0.633,0.821,391.000,9.000,62.000,0.000,0.000,0.000,0.000,0.000,0.673,0.718,0.092,0.633,0.821,391.000,9.000,62.000,0.000,0.000,0.000,0.000,0.000;
#CREDIT:;
#NOTES:
100000
001000
100000
001000
000000
001000
010000
000000
010000
000010
010000
000010
000000
000010
001000
000010
,
001000
000001
001000
000001
000000
000001
000100
000000
001000
100000
000100
001000
000000
001000
000010
001000
,
000001
000010
001000
100000
000000
100000
000100
000000
100000
010000
001000
000001
000000
100000
000100
100000
,
001000
000100
001000
100000
000000
100000
000100
000000
001000
000010
001000
000010
010000
000010
010000
001000
,
000100
000010
001000
000100
000000
010000
000100
000000
010000
001000
010000
001000
000000
100000
001000
000100
,
000001
100000
000010
100000
000000
000100
100000
000000
001000
000100
001000
100000
000000
100000
010000
100000
,
001000
000100
000001
000010
000000
000010
000001
000000
100000
000001
010000
000001
000000
100000
000100
001000
,
000100
100000
001000
100000
000000
100000
000100
000000
000100
001000
000100
001000
000001
100000
000001
100000
,
002000
003200
002300
023000
030020
020030
032000
003200
,
000320
000032
000023
000032
020003
030020
200030
300020
,
020030
032000
203000
302000
003200
000302
002003
003002
,
100003
000000
000001
100000
000000
100000
000100
000000
100000
000000
100000
000001
000000
000001
000010
001000
,
000200
000302
002003
003002
200003
302000
003200
000320
,
002030
003200
020300
230000
300020
000032
002003
003200
,
020300
030020
200030
302000
003200
000302
002003
003200
,
100300
000000
000100
100000
000000
100000
000001
000000
000100
000000
000001
000100
001000
100000
000100
010000
,
000020
000000
000000
000000
010030
000000
000010
010000
000000
001000
000000
000000
000000
000100
001000
000100
,
000000
001000
000100
001000
000000
000100
000000
000000
000000
000010
000000
000010
000000
010000
000010
001000
,
000002
000000
000000
000000
100003
000000
000001
100000
000000
000100
000000
000000
000000
001000
000100
001000
,
000000
000100
001000
000100
000000
002000
000000
000000
000000
000010
000000
003010
000000
001000
000010
001000
,
000002
000000
000000
000000
000103
000000
000001
001000
000000
000100
000000
000000
000000
010000
000100
010000
,
000000
000010
010000
000010
000000
002000
000000
000000
000000
003100
000000
000100
000000
010000
000010
001000
,
000002
000000
000000
000000
100003
000000
000001
100000
000000
000200
000000
000000
000000
001300
000100
001000
,
000000
000100
001000
000100
000000
010000
000000
000000
000000
001000
000000
001000
000000
001000
000100
000010
,
010000
001000
001100
000100
,
000110
000010
000011
000010
,
000100
001000
000100
001000
000100
000000
001000
000000
100000
001000
100000
001000
100000
000000
010000
000000
,
001000
000010
001000
000010
001000
000000
000001
000000
000010
000001
000010
000001
000010
000000
001000
000000
,
000100
000110
000010
001010
,
001000
011000
010000
110000
,
100000
001000
100000
001000
100000
000000
000100
000000
100000
000001
100000
000001
100000
000000
000010
000000
,
001000
000010
001000
000010
001000
000000
000001
000000
100000
001000
000100
000001
000010
001000
100000
010000
,
002000
000000
000000
000000
003100
000000
001000
000100
000000
020000
000000
000000
000000
030010
010000
000010
,
000000
010000
100000
010000
000000
001000
000000
000000
000000
010000
000000
010000
000000
000010
001000
000100
,
020000
000000
000000
000000
030001
000000
010000
000001
000000
002000
000000
000000
000000
003100
001000
000100
,
000000
001000
000100
001000
000000
000002
000000
000000
000000
010003
000000
010000
000000
000001
010000
000010
,
100000
000100
100000
000110
,
001000
000001
001000
010100
,
020000
000000
000000
000000
030010
000000
010000
000010
000000
001000
000000
000000
000000
000100
010000
000100
,
000000
010000
000010
010000
000000
000020
000000
000000
000000
001030
000000
001000
000000
000001
000100
001000
,
100000
000100
010000
000100
,
100000
000000
000100
000000
010000
000010
010000
000010
,
001000
000001
000100
000001
,
001000
000000
000100
000000
100000
000001
100000
000001
,
000100
000000
000000
000000
;

//---------------dance-solo - Blank----------------
#NOTEDATA:;
#CHARTNAME:;
#STEPSTYPE:dance-solo;
#DESCRIPTION:Blank;
#CHARTSTYLE:;
#DIFFICULTY:Medium;
#METER:7;
#RADARVALUES:0.305,0.327,0.184,0.092,0.000,182.000,18.000,9.000,0.000,0.000,0.000,0.000,0.000,0.305,0.327,0.184,0.092,0.000,182.000,18.000,9.000,0.000,0.000,0.000,0.000,0.000;
#CREDIT:;
#NOTES:
100000
000000
000001
000000
100000
000010
000001
000000
,
000001
000000
100000
000000
000001
010000
100000
000000
,
001000
000000
000100
000000
001000
000100
000010
000000
,
001000
000000
000100
000000
001000
000100
010000
000000
,
000001
000000
100000
000000
000001
010000
100000
000000
,
100000
000000
000001
000000
100000
000010
000001
000000
,
001000
000000
000100
000000
001000
000100
010000
000000
,
001000
000000
000100
000000
001000
000100
000010
001000
,
000100
010000
000100
010000
000010
010000
000010
010000
,
000010
001000
000010
001000
000001
001000
000001
001000
,
000001
100000
000001
100000
001000
100000
001000
100000
,
001000
000100
001000
000100
,
000010
010000
000010
010000
001000
010000
001000
010000
,
001000
100000
001000
100000
000001
100000
000001
100000
,
000001
000100
000001
000100
000010
000100
000010
000100
,
000010
000000
001000
000000
000100
000000
010000
000100
,
001000
000001
200000
300001
,
000001
002000
003001
000001
,
000010
001000
010000
000100
,
001000
000000
000002
000000
100003
000001
100000
000001
,
000100
002000
013000
001000
,
000100
000020
000031
000010
,
000100
001000
200000
300010
,
001000
000002
010003
010000
,
010010
000000
100001
000000
,
000011
000000
010010
000000
,
110000
000000
100001
000000
,
001100
000000
001100
000000
,
010010
000000
000110
000000
,
010010
000000
010100
000000
,
100001
000000
001100
010010
,
100001
000000
101000
000000
,
001000
000100
002000
013000
,
001000
000100
002000
003010
,
001000
100000
000001
001000
,
000100
010000
000010
001000
,
000001
000001
100000
100000
,
000100
000100
001000
001000
,
000010
010000
000010
010000
,
001000
000100
001000
000100
,
001100
000000
000000
000000
;

//---------------dance-solo - Blank----------------
#NOTEDATA:;
#CHARTNAME:;
#STEPSTYPE:dance-solo;
#DESCRIPTION:Blank;
#CHARTSTYLE:;
#DIFFICULTY:Easy;
#METER:4;
#RADARVALUES:0.131,0.122,0.092,0.020,0.000,79.000,9.000,2.000,0.000,0.000,0.000,0.000,0.000,0.131,0.122,0.092,0.020,0.000,79.000,9.000,2.000,0.000,0.000,0.000,0.000,0.000;
#CREDIT:;
#NOTES:
// measure 0
100000
000000
100000
000000
,  // measure 1
001000
000000
001000
000000
,  // measure 2
000100
000000
000100
000000
,  // measure 3
000001
000000
000001
000000
,  // measure 4
100000
000000
010000
000000
,  // measure 5
100000
000000
000001
000000
,  // measure 6
000010
000000
000001
000000
,  // measure 7
001000
000000
000100
000000
,  // measure 8
010000
000000
000010
000000
,  // measure 9
010000
000000
000010
000000
,  // measure 10
100000
000000
000001
000000
,  // measure 11
200000
000000
000000
000000
,  // measure 12
300010
000000
010000
000000
,  // measure 13
000010
000000
010000
000000
,  // measure 14
000001
000000
100000
000000
,  // measure 15
000002
000000
000000
000000
,  // measure 16
001003
000000
001000
000000
,  // measure 17
010000
000000
010000
000000
,  // measure 18
001000
000000
001000
000000
,  // measure 19
000010
000000
000010
000000
,  // measure 20
100000
000000
000001
000000
,  // measure 21
010000
000000
001000
000000
,  // measure 22
100000
000000
000010
000000
,  // measure 23
000001
000000
010000
000000
,  // measure 24
100000
000000
100001
000000
,  // measure 25
000001
000000
100001
000000
,  // measure 26
010000
000000
010001
000000
,  // measure 27
000010
000000
100010
000000
,  // measure 28
100000
000000
100001
000000
,  // measure 29
000001
000000
100001
000000
,  // measure 30
010000
000000
010001
000000
,  // measure 31
000010
000000
100010
000000
,  // measure 32
100000
000000
001000
000000
,  // measure 33
000100
000000
000001
000000
,  // measure 34
010000
000000
000010
000000
,  // measure 35
010000
000000
000010
000000
,  // measure 36
000001
000000
000100
000000
,  // measure 37
001000
000000
100000
000000
,  // measure 38
000010
000000
010000
000000
,  // measure 39
000010
000000
010000
000000
,  // measure 40
010010
000000
000000
000000
;
