#TITLE:Flip Flap;
#SUBTITLE:;
#ARTIST:kors k;
#TITLETRANSLIT:;
#SUBTITLETRANSLIT:;
#ARTISTTRANSLIT:;
#GENRE:Happy Hardcore;
#CREDIT:;
#BANNER:Flip Flap.png;
#BACKGROUND:Flip Flap-bg.png;
#LYRICSPATH:;
#CDTITLE:;
#MUSIC:Flip Flap.mp3;
#OFFSET:0.000;
#SAMPLESTART:21.980;
#SAMPLELENGTH:15.000;
#SELECTABLE:YES;
#BPMS:0.000=175.000
;
#STOPS:
;
#BGCHANGES:;
#KEYSOUNDS:;
#ATTACKS:;

//---------------dance-single - ----------------
#NOTES:
     dance-single:
     :
     Easy:
     6:
     0.456,0.570,0.472,0.053,0.058,299.000,53.000,6.000,0.000,0.000,0.000,0.456,0.570,0.472,0.053,0.058,299.000,53.000,6.000,0.000,0.000,0.000:
0010
1000
0010
0000
,
1000
1000
0010
1000
,
0001
0010
0001
0000
,
0010
0010
0001
0010
,
0100
0010
0100
0000
,
0010
0010
0100
0010
,
0001
1000
0001
0000
,
1000
1000
0010
0100
,
0110
0000
0000
0000
0000
0000
0000
0000
1001
0000
0000
0000
,
1001
0000
0000
0000
0000
0000
0000
0000
0110
0000
0000
0000
,
0110
0000
0000
0000
0000
0000
0000
0000
1001
0000
0000
0000
,
1001
0000
0000
0000
0000
0110
0000
0000
0110
0000
0000
0000
,
0110
0010
1010
1010
,
1010
0010
0100
0101
,
0101
0001
0011
0011
,
0011
0110
1100
1001
,
1000
1000
0010
0100
,
0010
0010
1000
1001
,
0010
0010
0001
0100
,
0001
0001
0010
0110
,
0100
0100
1000
0010
,
0001
0001
0010
1010
,
0001
0001
1000
0100
,
0010
0100
1000
1001
,
0001
0100
0010
0110
,
0010
1000
0100
1100
,
0100
0010
0001
0010
,
0100
1000
0010
1000
,
0001
0010
0100
0110
,
0100
1000
0010
1010
,
1000
0001
0010
0100
,
1000
1100
0110
0010
,
0001
0000
0000
0001
0000
0000
0000
0000
1000
0000
0000
0000
,
0010
0010
0100
0100
,
0010
0000
0000
1000
0000
0000
0000
0000
0001
0000
0000
0000
,
0100
0100
0010
0010
,
1000
0000
0000
1000
0000
0000
0000
0000
0001
0000
0000
0000
,
0010
0010
0100
0100
,
1000
0000
0000
0010
0000
0000
0000
0000
1000
0000
0000
0000
,
0100
0100
0010
0010
,
0001
0000
0000
0010
0000
0000
0000
0000
0110
0000
0000
0000
,
0100
1000
0010
0001
,
0010
0000
0000
0100
0000
0000
0000
0000
0110
0000
0000
0000
,
0010
1000
0100
0001
,
1000
0000
0000
0010
0000
0000
0000
0000
0110
0000
0000
0000
,
0010
0001
0100
0010
,
1000
0000
0000
0010
0000
0000
0000
0000
0110
0000
0000
0000
,
0010
1000
0001
1000
,
0100
0100
0010
0000
,
0100
0100
1000
0001
,
0100
0100
0010
0000
,
0100
0001
1000
0100
,
0020
0100
0100
0130
,
0200
1000
1000
1300
,
2000
0001
0001
3001
,
0002
0103
0100
0110
,
0010
0010
1000
0100
,
0010
0010
0001
0100
,
0001
0001
1000
0100
,
1000
1000
0010
0100
,
0001
0001
0020
0130
,
1000
1000
0002
0103
,
0110
0110
0110
0110
,
1010
0110
0101
1001
,
1000
1000
0100
0110
,
0100
0100
1000
0001
,
0100
0100
0001
0011
,
0100
0100
1000
0010
,
1000
1000
0001
0011
,
0100
0100
0010
0100
,
0010
0010
0001
0101
,
0010
0010
1000
0100
,
0010
0100
0010
1001
,
0100
0010
0100
1001
,
0100
0001
0010
0100
,
1000
0010
0001
0010
,
0100
0010
0100
1001
,
0010
0100
0010
1001
,
1000
0100
0010
0001
,
1000
1000
0001
0000
,
0110
0000
0000
0000
;

//---------------dance-single - ----------------
#NOTES:
     dance-single:
     :
     Hard:
     14:
     0.765,0.820,0.428,0.018,1.000,551.000,48.000,2.000,0.000,0.000,0.000,0.765,0.820,0.428,0.018,1.000,551.000,48.000,2.000,0.000,0.000,0.000:
0010
0000
0000
1000
0000
0000
0001
0000
1000
0000
0000
0000
,
0100
0000
0000
0010
0000
0001
0010
0000
0000
0100
0000
0000
,
1000
0000
0000
0010
0000
0000
1000
0000
0001
0000
0000
0000
,
0010
0000
0100
1000
0000
0010
1000
0000
0000
0001
0000
0010
,
0100
0000
0000
1000
0000
0000
0010
0000
1000
0000
0000
0000
,
0001
0000
0000
0010
0000
0001
0100
0000
0000
0010
0000
0000
,
1000
0000
0000
0001
0000
0000
0010
0000
0100
0000
0000
0000
,
1000
0000
0001
1000
0000
0001
0100
0000
0000
0001
0000
0010
,
0100
0000
0000
1000
0000
0000
0010
0000
0100
0010
0000
0100
,
0001
0000
0000
1000
0000
0000
0100
0000
1000
0100
0000
1000
,
0010
0000
0000
0100
0000
0000
0001
0000
1000
0001
0000
1000
,
0010
0000
0010
0100
0000
0100
0001
0000
0010
0100
0000
0010
,
0011
1100
0011
1100
,
1010
0101
1010
0101
,
1001
0000
0100
0010
0000
0001
1000
0000
0100
0010
0000
0001
,
0011
0000
0000
0101
0000
0000
0010
0100
1000
0010
0000
0100
,
0101
0000
0000
0101
0000
0000
0001
1000
0001
1000
0000
0100
,
0010
0000
0000
0100
0000
0000
1000
0000
0000
1001
0000
0001
,
1000
0000
0000
0100
0000
0010
0100
1000
0010
0100
0000
0001
,
0100
0000
0010
1000
0000
0001
0010
0100
0010
0100
0000
1000
,
1100
0000
0000
1100
0000
0000
1000
0001
1000
0001
0000
0100
,
0001
0000
0000
0011
0000
0010
0100
0000
0000
0110
0000
0010
,
0100
0000
0000
1000
0000
0100
1000
0010
0100
0010
0000
0100
,
0001
1000
0001
1000
0100
1000
0100
0010
0100
0010
0001
0010
,
0001
0000
1000
0010
0100
0001
1000
0000
0000
1001
0000
0000
,
0001
0010
0100
1000
0010
1000
0001
0000
0000
0011
0000
0010
,
0100
0000
0000
1000
0000
0100
0010
0001
1000
0010
0000
0100
,
0001
0000
1000
0001
0000
0010
0001
0000
0000
0011
0000
0000
,
0110
0000
0100
1000
0010
0100
0001
0000
0000
1001
0000
0000
,
1000
0010
1000
0100
0010
0100
0001
0000
0000
0101
0000
0100
,
1000
0000
1000
0010
0000
0010
0100
0010
0100
0001
0000
1000
,
0001
0010
0100
1001
,
0010
0000
0000
0010
0000
0000
0000
0010
0100
1000
0000
0000
,
0010
0000
0000
0010
0000
0000
0110
0000
0100
0001
0000
0000
,
1000
0000
0000
1000
0000
0000
0000
0000
0100
0010
0000
0001
,
1000
0000
0000
1000
0000
0000
0010
1000
0001
0010
0000
0100
,
0010
0000
0000
0010
0000
0000
0000
0001
0010
0100
0000
0000
,
0010
0000
0000
0010
0000
0000
0100
0000
1000
0001
0000
0000
,
0100
0000
0000
0100
0000
0000
0000
0000
0010
1000
0000
0001
,
0100
0000
0000
0001
0000
0000
0010
0100
1000
0010
0000
1000
,
0001
0000
0000
0001
0000
0000
0000
0100
0010
0100
0000
0000
,
0001
0000
0000
0001
0000
0001
0010
0000
0010
0100
0000
0000
,
1000
0000
0000
1000
0000
0000
0100
0000
0010
0100
0000
0100
,
1000
0000
0000
1000
0000
0000
0010
1000
0100
1000
0000
0010
,
0100
0000
0000
0100
0000
0000
0000
0001
1000
0001
0000
0000
,
0010
0000
0000
0010
0100
0010
0100
1000
0001
0100
0000
0000
,
0010
1000
0010
1000
0010
1000
0001
0100
0001
0100
0001
0100
,
0010
1000
0001
0010
0100
1000
0010
1000
0001
0100
0000
0001
,
0100
0000
0000
0010
0000
0000
1000
0000
1001
0000
0000
0000
,
1000
0000
0000
0100
0000
0010
0100
0000
0000
1000
0000
0000
,
0001
0000
0000
0101
0000
0000
0100
0000
0010
0000
0000
0000
,
1010
0000
1000
0001
0000
0001
0010
0000
0000
0100
0000
1000
,
0002
0000
0000
1000
0000
0000
0010
0000
0010
0000
0000
0000
,
0100
0000
0000
1000
0000
0010
1000
0000
0000
0100
0000
1000
,
0103
0000
0000
0001
0000
0000
1000
0000
0010
0000
0000
0000
,
1000
0000
0000
0001
0000
0010
0100
0000
0010
0100
0000
0010
,
0110
0000
0000
0110
0000
0000
0100
1000
0100
1000
0000
1000
,
0001
0000
0000
0101
0000
0100
0010
0000
0000
0110
0000
0010
,
1000
0000
0000
0001
0000
1000
0001
0010
0100
0010
0000
0100
,
0010
0000
0001
0010
0000
0100
1000
0100
1000
0100
0000
1000
,
1001
0000
0000
1001
0000
0000
0001
0010
0100
1000
0000
0001
,
1001
0000
0000
1001
0000
0000
1000
0010
0100
0001
0000
1000
,
0010
1000
0010
0100
0001
0100
0001
0010
0001
1000
0100
1000
,
1001
0000
0000
1001
0000
0000
0110
0000
0000
0010
0000
1000
,
1100
0000
0000
1100
0000
0000
0100
0010
0100
0010
0000
0001
,
0010
0000
0000
0001
0000
0010
0100
0000
0000
1000
0000
0001
,
1000
0000
0000
1010
0000
0010
0100
0001
0010
0100
0000
0010
,
0100
0000
1000
0100
0000
0010
0001
1000
0010
0100
0000
0010
,
0110
0000
0000
0110
0000
0000
0010
1000
0100
1000
0000
0001
,
1000
0000
0000
0010
0000
0000
0100
0000
0000
0110
0000
0010
,
1000
0000
0000
0001
0000
1000
0001
0010
0100
0010
0000
0001
,
0010
0100
1000
0100
0010
0001
1000
0010
0100
0001
0010
0100
,
1000
0000
0100
1000
0010
0100
0001
1000
0001
1000
0000
0100
,
0010
0000
0100
1000
0010
0100
0001
1000
0001
1000
0000
0100
,
0010
0000
0000
0011
0000
0001
0100
0010
1000
0001
0000
0010
,
0001
0000
0010
0100
0000
0100
1000
0000
1000
0001
0000
0001
,
1000
0000
0010
1000
0100
0010
0001
0100
0001
0100
0010
1000
,
0100
0000
0010
0001
0100
0010
1000
0100
1000
0100
0010
0001
,
0100
0000
0001
0100
0000
0001
0010
0001
0100
0010
0000
1000
,
0010
0000
0000
0000
0010
0000
0100
0000
0000
0000
0100
0000
0002
0000
0000
0000
0000
0000
0000
0000
0000
0003
0000
0000
,
0110
0000
0000
0000
;

//---------------dance-single - ----------------
#NOTES:
     dance-single:
     :
     Beginner:
     4:
     0.153,0.250,0.098,0.036,0.000,105.000,11.000,4.000,0.000,0.000,0.000,0.153,0.250,0.098,0.036,0.000,105.000,11.000,4.000,0.000,0.000,0.000:
0000
0000
0000
0000
,
0000
0000
0000
0000
,
0000
0000
0000
0000
,
0000
0000
0000
0000
,
0000
0000
0000
0000
,
0000
0000
0000
0000
,
0000
0000
0000
0000
,
0000
0000
0000
0000
,
1000
0000
0000
0000
,
1001
0000
0000
0000
,
0001
0000
0000
0000
,
1001
0000
0000
0000
,
0100
0000
0100
0000
,
0100
0000
0100
0000
,
0010
0000
0010
0000
,
0010
0010
0010
0000
,
0001
0000
0000
0000
,
0010
0000
0000
0000
,
0100
0000
0000
0000
,
1000
0000
0000
0000
,
0010
0000
0000
0000
,
1000
0000
0000
0000
,
0001
0000
0000
0000
,
0100
0000
0000
0000
,
0020
0000
1030
0000
,
0020
0000
1030
0000
,
0010
0000
1000
0000
,
0010
0000
1000
0000
,
0002
0000
0013
0000
,
0002
0000
0013
0000
,
0001
0000
0010
0000
,
0001
0000
0010
0000
,
0100
0000
0000
0000
,
0110
0000
0000
0000
,
0010
0000
0000
0000
,
0110
0000
0000
0000
,
0001
0000
0000
0000
,
1001
0000
0000
0000
,
1000
0000
0000
0000
,
1001
0000
0000
0000
,
0100
0000
0000
0000
,
0110
0000
0000
0000
,
0010
0000
0000
0000
,
0110
0000
0000
0000
,
0010
0000
0000
0000
,
1010
0000
0000
0000
,
0100
0000
0000
0000
,
0110
0000
0000
0000
,
0010
0000
0000
0000
,
0010
0000
0000
0000
,
0001
0000
0000
0000
,
0001
0000
0000
0000
,
1000
0000
1000
0000
,
1000
0000
1000
0000
,
0010
0000
0010
0000
,
0010
0000
0010
0000
,
0100
0000
0000
0000
,
0001
0000
0000
0000
,
1000
0000
0000
0000
,
0010
0000
0000
0000
,
1000
0000
1000
0000
,
0001
0000
0001
0000
,
0010
0010
0010
0010
,
0010
0010
0010
0000
,
0100
0000
0000
0000
,
0100
0000
0000
0000
,
1000
0000
0000
0000
,
0001
0000
0000
0000
,
0010
0000
0000
0000
,
0010
0000
0000
0000
,
0001
0000
0000
0000
,
1000
0000
0000
0000
,
0010
0000
0010
0000
,
1000
0000
1000
0000
,
0001
0000
0001
0000
,
0100
0000
0100
0000
,
0010
0000
0010
0000
,
1000
0000
1000
0000
,
0001
0000
0001
0000
,
0100
0000
0100
0000
,
0110
0000
0000
0000
;

//---------------dance-single - ----------------
#NOTES:
     dance-single:
     :
     Medium:
     10:
     0.503,0.570,0.276,0.018,0.365,362.000,31.000,2.000,0.000,0.000,0.000,0.503,0.570,0.276,0.018,0.365,362.000,31.000,2.000,0.000,0.000,0.000: // measure 0
1000
0010
0100
0000
,  // measure 1
0010
0000
0000
1000
0000
0001
1000
0000
0000
0001
0000
0000
,  // measure 2
0010
0001
0100
0000
,  // measure 3
0010
0000
1000
0010
0000
0000
1000
0000
0000
0001
0000
0000
,  // measure 4
0010
0100
1000
0000
,  // measure 5
0010
0000
0000
1000
0000
0001
1000
0000
0000
0001
0000
0000
,  // measure 6
0010
0001
0100
0000
,  // measure 7
0010
0000
1000
0010
0000
0000
1000
0000
0000
0001
0000
0000
,  // measure 8
0011
0000
0000
0000
0000
0000
0000
0000
0110
0000
0000
0000
,  // measure 9
1100
0000
0000
0000
0000
0000
0000
0000
1001
0000
0000
0000
,  // measure 10
0101
0000
0000
0000
0000
0000
0000
0000
0110
0000
0000
0000
,  // measure 11
1010
0000
0000
0000
0000
0000
0000
0000
1001
0000
0000
0000
,  // measure 12
0011
0010
0001
0010
,  // measure 13
0110
0100
1000
0100
,  // measure 14
1000
0000
1000
0100
0000
0100
0010
0000
0010
0001
0000
0001
,  // measure 15
0100
0010
0110
1001
,  // measure 16
1000
0000
0000
0010
0000
0000
1000
0000
0001
1000
0000
0000
,  // measure 17
0001
0000
0000
0010
0000
0000
0001
0000
0000
1000
0000
1000
,  // measure 18
0001
0000
0000
0100
0000
0000
0001
0000
1000
0100
0000
0000
,  // measure 19
1000
0000
0000
0100
0000
0000
1000
0000
0000
0001
0000
1000
,  // measure 20
0001
0000
0000
0010
0000
0000
0001
0000
0010
0100
0000
0000
,  // measure 21
1000
0000
0000
0010
0000
0000
1000
0000
0000
0010
0000
0100
,  // measure 22
0010
0000
0000
1000
0000
0000
0001
0000
0010
0100
0000
0000
,  // measure 23
1000
0100
0010
0001
,  // measure 24
1000
0000
0000
0010
1000
0010
1000
0000
0000
0000
0000
0000
,  // measure 25
0001
0000
0000
0010
0001
0010
0001
0000
0000
0000
0000
0000
,  // measure 26
0010
0000
0000
0110
0000
0000
0100
0000
1000
0001
0000
0000
,  // measure 27
0100
0000
0001
1000
0000
0001
1000
0000
0000
0000
0000
0000
,  // measure 28
0100
0000
0000
0010
0001
0010
0001
0000
0000
0000
0000
0000
,  // measure 29
0100
0000
0000
0010
1000
0010
1000
0000
0000
0000
0000
0000
,  // measure 30
0100
0000
0000
0010
0000
0000
0001
0000
1000
0001
0000
0000
,  // measure 31
1001
0011
0110
1100
,  // measure 32
1000
0000
0000
1000
0000
0000
0000
0000
0001
1000
0000
0000
,  // measure 33
0001
0000
0000
0001
0000
0000
0010
0000
0100
0010
0000
0000
,  // measure 34
0100
0000
0000
0100
0000
0000
0000
0000
1000
0100
0000
0000
,  // measure 35
0010
0000
0000
0010
0000
0000
0001
0000
1000
0001
0000
0001
,  // measure 36
1000
0000
0000
1000
0000
0000
0000
0000
0100
0010
0000
0000
,  // measure 37
0100
0000
0000
0100
0000
0000
1000
0000
0001
1000
0000
0000
,  // measure 38
0010
0000
0000
0010
0000
0000
0000
0000
0100
0001
0000
0000
,  // measure 39
1000
0000
0000
1000
0000
0000
1001
0000
0000
0110
0000
0010
,  // measure 40
0000
0000
0000
0010
0000
0000
0000
0000
1000
0001
0000
0000
,  // measure 41
0010
0000
0000
0010
0000
0000
0001
0000
0100
1000
0000
0000
,  // measure 42
0001
0000
0000
0001
0000
0000
0000
0000
0010
0100
0000
0000
,  // measure 43
0001
0000
0000
0001
0000
0000
1000
0000
0100
0010
0000
0000
,  // measure 44
0001
0000
0000
0001
0000
0000
0000
0000
0010
0100
0000
0000
,  // measure 45
1000
0000
0000
1000
0000
0000
0001
0000
0100
1000
0000
0000
,  // measure 46
0100
0000
0000
0100
0000
0000
0000
0000
0010
1000
0000
0000
,  // measure 47
0100
0100
0110
1001
,  // measure 48
1000
0100
1000
0000
,  // measure 49
0001
0000
0000
1000
0000
0010
1000
0000
0000
0100
0000
0000
,  // measure 50
0010
0001
0100
0000
,  // measure 51
0010
0000
1000
0010
0000
1000
0010
0000
0000
0100
0000
0000
,  // measure 52
0002
1000
1000
0000
,  // measure 53
0010
0010
0010
0000
,  // measure 54
0100
0100
0100
0000
,  // measure 55
1000
1003
1001
0000
,  // measure 56
1000
0000
0000
0100
0000
0000
0010
0000
0001
0100
0000
0000
,  // measure 57
0001
0000
0000
0100
0000
0000
1000
0000
0000
0100
0000
0010
,  // measure 58
0100
0000
0000
0010
0000
0000
1000
0000
0001
1000
0000
0000
,  // measure 59
0001
0000
0010
0001
0000
0010
0100
0000
0000
0010
0000
0000
,  // measure 60
0001
0000
0000
1000
0000
0000
0010
1000
0010
1000
0000
0000
,  // measure 61
1000
0000
0000
0001
0000
0000
0010
0100
0010
0100
0000
0000
,  // measure 62
0110
0011
0110
1100
,  // measure 63
1010
0101
0011
1100
,  // measure 64
1000
0000
0000
1000
0000
0000
0001
0000
1000
0001
0000
0000
,  // measure 65
0010
0000
0000
0010
0000
0000
0100
0000
0000
1000
0000
0001
,  // measure 66
1000
0000
0000
0001
0000
0000
0100
0000
0010
1000
0000
0000
,  // measure 67
0100
0000
0010
0100
0000
1000
0100
0000
0000
0010
0000
0000
,  // measure 68
0001
0000
0000
0001
0000
0000
1000
0000
0010
1000
0000
0000
,  // measure 69
0001
0000
0000
0010
0000
0000
0100
0000
0000
0010
0000
0001
,  // measure 70
0010
0001
1000
0010
,  // measure 71
0100
0100
0010
0110
,  // measure 72
0010
0000
0000
1000
0010
0100
0001
0000
0000
0000
0000
0000
,  // measure 73
0010
0000
0000
0001
0010
0100
1000
0000
0000
0000
0000
0000
,  // measure 74
0001
0000
0000
1000
0000
0001
1000
0000
0001
1000
0000
0000
,  // measure 75
0001
0000
0100
0010
0000
0010
1000
0000
0000
0001
0000
0000
,  // measure 76
1000
0000
0000
0100
0010
0001
1000
0000
0000
0000
0000
0000
,  // measure 77
0001
0000
0000
0100
0010
1000
0001
0000
0000
0000
0000
0000
,  // measure 78
0010
0000
0000
0100
0000
1000
0100
0000
0100
0010
0000
0000
,  // measure 79
0001
0000
0010
0100
0000
0100
2000
0000
0000
0000
0000
0000
,  // measure 80
3001
0000
0000
0000
;
