#TITLE:Find a Pet;
#SUBTITLE:;
#ARTIST:♪♪♪♪♪;
#TITLETRANSLIT:;
#SUBTITLETRANSLIT:;
#ARTISTTRANSLIT:;
#GENRE:My Little Pony;
#CREDIT:;
#BANNER:Find a Pet.png;
#BACKGROUND:Find a Pet-bg.png;
#LYRICSPATH:;
#CDTITLE:;
#MUSIC:Find a Pet.mp3;
#OFFSET:-0.102;
#SAMPLESTART:31.760;
#SAMPLELENGTH:15.000;
#SELECTABLE:YES;
#BPMS:0.000=97.351
,1.000=108.190
,2.000=103.789
,3.000=108.340
,4.000=109.334
,5.000=122.642
,6.000=108.363
,7.000=111.896
,8.000=110.112
,9.000=113.767
,10.000=104.676
,11.000=105.578
,12.000=111.303
,13.000=110.864
,14.000=108.974
,15.000=107.938
,16.000=114.185
,17.000=113.816
,18.000=108.376
,19.000=114.209
,20.000=106.853
,21.000=110.902
,22.000=105.751
,23.000=113.154
,24.000=108.540
,25.000=107.426
,26.000=115.662
,27.000=108.746
,28.000=109.925
,29.000=115.279
,30.000=107.600
,31.000=107.789
,32.000=116.155
,33.000=110.112
,34.000=115.470
,35.000=99.759
,36.000=100.227
,37.000=114.214
,38.000=109.082
,39.000=104.136
,40.000=114.456
,41.000=105.751
,42.000=114.849
,43.000=124.847
,44.000=114.209
,45.000=112.942
,46.000=106.095
,47.000=111.078
,48.000=106.350
,49.000=115.697
,50.000=111.915
,51.000=106.987
,52.000=105.025
,53.000=106.996
,54.000=108.572
,55.000=112.980
,56.000=106.535
,57.000=110.906
,58.000=114.194
,59.000=112.744
,60.000=109.316
,61.000=110.906
,62.000=106.663
,63.000=106.462
,64.000=21.292
,65.000=115.074
,66.000=117.454
,67.000=130.538
,68.000=135.103
,69.000=135.096
,70.000=129.092
,71.000=128.136
,72.000=122.483
,73.000=133.880
,74.000=133.219
,75.000=137.820
,76.000=131.504
,77.000=129.395
,78.000=126.955
,79.000=125.635
,80.000=127.734
,81.000=130.435
,83.000=129.910
,84.000=128.024
,85.000=131.779
,86.000=133.038
,87.000=124.617
,88.000=127.469
,89.000=138.338
,90.000=130.770
,91.000=131.865
,92.000=130.140
,93.000=133.320
,94.000=117.246
,95.000=133.273
,96.000=132.128
,97.000=129.903
,98.000=135.283
,99.000=125.403
,100.000=134.165
,101.000=137.148
,102.000=129.547
,103.000=128.347
,104.000=126.150
,105.000=132.393
,106.000=132.128
,107.000=138.382
,108.000=116.832
,109.000=120.949
,110.000=129.617
,111.000=129.004
,112.000=130.783
,113.000=134.732
,114.000=135.331
,115.000=131.871
,116.000=133.826
,117.000=125.934
,118.000=130.990
,119.000=138.028
,120.000=123.651
,121.000=127.444
,122.000=132.745
,123.000=127.981
,124.000=124.132
,125.000=133.286
,126.000=121.655
,127.000=137.134
,128.000=129.344
,129.000=131.845
,130.000=127.487
,131.000=131.270
,132.000=136.132
,133.000=127.316
,134.000=131.806
,135.000=124.611
,136.000=129.130
,137.000=130.422
,138.000=130.435
,139.000=126.712
,140.000=136.525
,141.000=123.610
,142.000=133.280
,143.000=129.916
,144.000=126.937
,145.000=135.623
,146.000=128.803
,147.000=132.379
,148.000=134.773
,149.000=134.725
,150.000=125.922
,151.000=129.363
,152.000=137.726
,153.000=126.440
,154.000=129.319
,155.000=125.160
,156.000=123.104
,157.000=129.098
,158.000=127.981
,159.000=127.690
,160.000=125.701
,161.000=119.050
,162.000=125.569
,163.000=129.124
,164.000=151.598
,165.000=132.260
,166.000=136.780
,167.000=139.087
,168.000=130.159
,169.000=126.403
,170.000=130.435
,171.000=129.897
,172.000=127.199
,173.000=129.655
,174.000=130.146
,175.000=132.446
,176.000=133.259
,177.000=136.251
,178.000=128.784
,179.000=129.363
,180.000=130.705
,181.000=134.759
,182.000=131.852
,183.000=133.280
,184.000=130.101
,185.000=131.648
,186.000=109.538
;
#STOPS:
;
#BGCHANGES:-0.750=Find a Pet.avi=1.000=1=0=0=StretchNoLoop==CrossFade==,
99999=-nosongbg-=1.000=0=0=0 // don't automatically add -songbackground-
;
#KEYSOUNDS:;
#ATTACKS:;

//---------------dance-single - ----------------
#NOTES:
     dance-single:
     :
     Hard:
     12:
     0.598,0.536,0.334,0.198,0.595,350.000,32.000,19.000,0.000,0.000,0.000,0.598,0.536,0.334,0.198,0.595,350.000,32.000,19.000,0.000,0.000,0.000:
1000
0000
0000
0010
0000
0000
1000
0001
1000
0100
0010
0100
,
1000
0100
0010
0001
1000
0010
0100
0000
0010
1000
0100
0010
,
0001
0000
0000
1001
0000
1000
0010
0100
0010
1000
0100
1000
,
0010
0100
0001
0010
0100
1000
0010
0100
0010
0200
0000
0000
,
0302
0000
0000
2003
0000
0000
3100
0000
0000
1000
0010
1000
,
0010
0100
0000
0000
0001
0010
0200
0000
0000
0310
0000
0100
,
1000
0001
0000
0000
0000
0100
0001
0100
1000
0001
0010
1000
,
0010
0100
0010
0100
0001
1000
0100
0000
0000
0010
0000
0000
,
0001
0000
0000
0010
1000
0010
0002
0000
0000
0023
0000
0130
,
0010
0100
0000
0010
0001
0100
0020
0000
0000
0230
0000
0000
,
1300
0100
0000
0010
1000
0001
0010
0100
0010
0100
0001
0100
,
0001
1000
0001
1000
0010
0001
0100
0000
0000
1001
0000
0000
,
0110
0000
0000
0000
0000
0000
0010
0000
1000
0010
0000
1000
,
0001
0000
1000
0100
0000
0100
0010
0000
0100
1000
0000
0100
,
0001
0000
0100
0010
0000
0010
0001
0100
0001
0100
0000
1010
,
0000
0000
0000
1001
0000
1000
0100
0010
0100
1000
0001
0000
,
1100
0000
0000
0000
0000
0000
1000
0000
0001
0000
1000
0001
1000
0000
0000
0100
,
0000
0000
0010
0001
0010
0000
0001
0000
0100
0000
0001
0000
0100
0000
0000
0000
,
0010
0000
0010
0000
0100
0000
0001
0010
0001
0010
0000
0000
0010
0000
0100
0000
,
1100
0011
0000
1001
,
0000
0000
1000
0000
0100
0010
0100
0000
1000
0000
0001
0000
1000
0000
1001
0000
,
0000
1000
0010
0010
0100
0001
1000
0000
,
0000
0110
1001
0110
,
0010
0000
0001
0000
0202
0000
0303
0000
0001
0100
0010
1000
0002
0000
0000
0000
,
0000
1003
0011
0000
0000
0001
1010
0000
,
1001
1000
0100
0100
0010
0001
1000
0000
,
0010
1000
0110
0000
0101
0100
0001
0010
,
0001
0000
0000
0000
0110
0000
0000
0000
0100
0000
1000
0010
2000
0000
0000
0000
,
3001
0000
1000
0100
0010
0000
0110
0000
0000
0000
0100
0000
1001
0000
0000
0000
,
1000
0010
0100
0010
0001
1000
0001
0000
,
0010
1000
1010
0000
1000
0100
0010
0100
,
0110
0000
2002
0000
0000
0000
0003
0100
,
0000
0001
0000
0100
0000
0001
0000
0100
,
3001
0000
0000
0000
1000
0010
1000
0010
1000
0000
0010
0000
0100
0010
0100
0010
,
0100
0000
0010
0000
1000
0010
1000
0001
0010
0000
0100
0000
0110
0000
0100
1000
,
0001
0000
0100
0000
0010
0000
1000
0010
1000
0001
0100
0000
0110
0000
0000
0000
,
0010
1000
1100
0000
0100
0010
0100
0010
,
0100
0000
1000
0000
0010
1000
0010
0000
1000
0000
0001
0000
1000
0000
0010
0000
,
1010
0000
0010
0100
0001
0000
0010
0000
1000
0000
0001
0000
0100
0000
0000
0000
,
0010
0000
0100
0010
0100
0010
0100
0000
0010
0000
0001
0000
0010
0100
1000
0000
,
0010
0000
0100
0001
2000
0000
0000
0000
3200
0000
0000
0000
0320
0000
0000
0000
,
0032
0000
0000
1003
0000
1000
0001
0000
0100
0010
0000
1000
,
0010
0000
0100
0001
0000
0010
0100
0000
1000
0100
0000
0010
,
0100
0000
1000
0001
0000
0100
0010
0000
1000
0010
0000
0100
,
0001
0000
0010
0001
0000
0010
0100
0010
0001
0010
0100
1000
,
0001
0000
1000
0000
0010
0000
0200
0000
0000
0000
0000
0000
0310
0000
0000
0100
0000
0000
0001
0000
0000
1000
0000
0000
,
0100
0110
1001
1001
;

//---------------dance-single - Blank----------------
#NOTES:
     dance-single:
     :
     Medium:
     9:
     0.420,0.366,0.136,0.042,0.209,265.000,13.000,4.000,0.000,0.000,0.000,0.420,0.366,0.136,0.042,0.209,265.000,13.000,4.000,0.000,0.000,0.000:
0010
0000
0000
0010
0000
0000
0100
0000
1000
0100
0000
0000
,
0010
0000
0100
0010
0000
0100
1000
0000
0001
1000
0000
0001
,
1000
0000
0000
0010
0000
0000
0100
0000
0001
0100
0000
0000
,
0010
0000
0100
0010
0000
0100
0001
0000
0000
0010
0000
0000
,
0110
0000
0000
0000
0000
0000
0100
0000
0000
1000
0100
0010
,
0001
0000
0000
0010
0001
0100
0010
0000
0000
1000
0000
0000
,
0010
0000
0000
0000
0000
0000
0100
0010
1000
0100
0000
0000
,
0010
0001
0010
0001
0000
0001
0100
0000
0000
0010
0000
0000
,
1000
0000
0000
0000
0001
1000
0001
0000
0000
1000
0000
0000
,
0010
0000
0000
0000
0100
0001
0100
0000
0000
0010
0000
0000
,
1000
0000
0000
0000
0001
1000
0001
0000
0000
0010
0000
0000
,
0100
1000
1001
0110
,
1001
0000
1000
0010
,
1000
0100
0010
0001
,
1000
0000
0000
0100
0000
0000
0010
0100
0010
0100
0000
0010
,
0000
0000
0000
0001
0000
0010
0100
1000
0100
1000
0001
0000
,
1001
0000
0000
1000
0100
0000
0010
0000
,
0010
0000
0100
1000
0001
0100
0010
0000
,
0000
0000
0100
0001
0100
0000
0001
1000
,
0001
1000
0000
0110
,
0000
0000
0010
1000
0100
1000
0100
0010
,
0000
0010
0100
1000
0001
0100
0010
0000
,
0100
0101
0101
0102
,
0013
0010
0020
0000
0130
0100
0100
0000
,
0000
1000
1001
0000
0000
0001
1001
0000
,
0000
1000
0100
0001
0100
1000
0010
0000
,
0000
0100
0001
0000
1000
0001
1000
0001
,
1000
0000
0010
0000
0000
0100
0010
0000
,
1000
0010
0100
0000
0001
0100
0010
0000
,
1000
0001
1000
0100
0001
1000
0010
0000
,
0100
1000
0100
0000
0010
0001
0100
0010
,
0001
0000
0010
1000
0000
1000
0000
1000
,
0000
0001
0000
0001
0000
0001
0000
0001
,
1000
0000
0100
0100
0100
1000
0010
0010
,
0010
0100
0001
0001
0001
1000
0100
0100
,
0100
0010
0001
1000
0001
1000
0001
0000
,
0100
0010
0100
0000
0010
0000
1000
0000
,
0001
1000
0010
0010
0010
1000
0100
0100
,
0100
0010
0001
0010
0100
1000
0001
0000
,
0100
0001
0100
0100
0100
0010
1000
1000
,
1000
0001
0020
0000
0000
0000
0230
0000
,
0000
0000
0000
1300
0000
1000
0100
0000
0000
1000
0000
1000
,
0001
0000
0000
0001
0000
0001
0100
0000
0000
0001
0000
0001
,
0010
0000
0000
0100
0000
0100
0010
0000
0000
0100
0000
0100
,
1000
0000
0000
1000
0000
1000
0010
0000
0010
0100
0000
0100
,
0001
0000
0000
0000
0001
0000
1000
0000
0000
0000
0000
0000
0001
0000
0000
1000
0000
0000
0010
0000
0000
0100
0000
0000
,
0010
0010
0110
1001
;

//---------------dance-single - Blank----------------
#NOTES:
     dance-single:
     :
     Easy:
     5:
     0.259,0.218,0.177,0.125,0.000,145.000,17.000,12.000,0.000,0.000,0.000,0.259,0.218,0.177,0.125,0.000,145.000,17.000,12.000,0.000,0.000,0.000:
0010
0010
1000
0100
,
0010
0001
0200
0000
,
0000
0310
0010
1000
,
0001
0010
0200
0000
,
0000
0000
0310
0000
,
0010
0000
0100
1000
,
0001
0000
0100
0001
,
0010
0100
1000
0000
,
0000
0010
2000
0000
,
3002
0000
0023
0000
,
0230
0000
1300
0100
,
0010
0001
0100
0100
,
0110
0000
0010
1000
,
0010
1000
0001
0010
,
0001
0010
0100
0000
,
0100
0000
0110
0000
,
0110
0100
1000
0000
,
0001
0001
0001
0000
,
1000
1000
1000
0001
,
0011
0000
0110
0000
,
0100
0100
0100
1000
,
0010
0010
0010
0100
,
0010
1000
0001
0010
,
0200
0000
1300
0000
,
1100
0000
0011
0000
,
0001
1000
0001
0000
,
1000
0010
0001
0010
,
1000
0000
1001
0000
,
0001
0000
0011
0000
,
0010
0010
0100
0100
,
1000
0010
0100
0001
,
0020
0000
0000
0000
,
0100
0100
0100
0130
,
0010
0001
0100
0010
,
1000
0010
0100
0001
,
0010
0010
0100
1000
,
0020
0000
0230
0000
,
0300
0011
0000
1010
,
0000
0011
1010
0000
,
1000
0100
0010
0001
,
2000
0000
3002
0000
,
1003
1000
0001
0001
,
0010
0001
0100
0010
,
1000
1000
0001
0001
,
0010
0100
1000
0010
,
0100
0001
1000
1001
,
0110
1001
1001
0000
;

//---------------dance-single - Blank----------------
#NOTES:
     dance-single:
     :
     Beginner:
     2:
     0.089,0.098,0.031,0.031,0.000,54.000,3.000,3.000,0.000,0.000,0.000,0.089,0.098,0.031,0.031,0.000,54.000,3.000,3.000,0.000,0.000,0.000: // measure 0
0000
0000
1000
0000
,  // measure 1
0000
0000
0000
0000
,  // measure 2
0000
0000
0001
0000
,  // measure 3
0000
0000
0000
0000
,  // measure 4
0000
0000
1000
0000
,  // measure 5
0100
0000
1000
0000
,  // measure 6
0000
0000
0001
0000
,  // measure 7
0100
0000
0001
0000
,  // measure 8
0000
0000
2000
0000
,  // measure 9
0000
0000
3020
0000
,  // measure 10
0000
0000
0230
0000
,  // measure 11
0000
0000
0301
0000
,  // measure 12
0000
0000
0001
0000
,  // measure 13
0000
0000
1000
0000
,  // measure 14
0000
0000
0001
0000
,  // measure 15
0001
0000
0001
0000
,  // measure 16
1000
0000
0000
0001
,  // measure 17
0000
0001
0000
0000
,  // measure 18
0000
0000
0000
1000
,  // measure 19
0000
1000
0000
0000
,  // measure 20
0000
0001
0000
0000
,  // measure 21
0000
0010
0000
0000
,  // measure 22
0000
0100
0000
0000
,  // measure 23
0000
1000
0000
0000
,  // measure 24
0000
1001
0000
0000
,  // measure 25
0000
0100
0000
0000
,  // measure 26
0000
0010
0000
0000
,  // measure 27
0000
0100
0000
0000
,  // measure 28
0000
1001
0000
0000
,  // measure 29
0000
0010
0000
0000
,  // measure 30
0000
0100
0000
0000
,  // measure 31
0000
0010
0000
0000
,  // measure 32
0000
0010
0000
0000
,  // measure 33
0000
1000
0000
1000
,  // measure 34
0000
1000
0000
0000
,  // measure 35
0000
0001
0000
0001
,  // measure 36
0000
0001
0000
0000
,  // measure 37
0000
0100
0000
0100
,  // measure 38
0000
0100
0000
0000
,  // measure 39
0000
0010
0000
0010
,  // measure 40
0000
0010
0000
0000
,  // measure 41
0000
1000
0000
0001
,  // measure 42
0000
1000
0000
0000
,  // measure 43
0000
0001
0000
1000
,  // measure 44
0000
0001
0000
0000
,  // measure 45
0000
0000
0000
0000
,  // measure 46
0000
0000
0000
1001
;
