#TITLE:FRIENDSHIP;
#SUBTITLE:;
#ARTIST:Pon;
#TITLETRANSLIT:;
#SUBTITLETRANSLIT:;
#ARTISTTRANSLIT:;
#GENRE:Rock;
#CREDIT:;
#BANNER:FRIENDSHIP.png;
#BACKGROUND:FRIENDSHIP-bg.png;
#LYRICSPATH:;
#CDTITLE:;
#MUSIC:FRIENDSHIP.mp3;
#OFFSET:-0.516;
#SAMPLESTART:52.940;
#SAMPLELENGTH:15.000;
#SELECTABLE:YES;
#BPMS:0.000=208.000
;
#STOPS:
;
#BGCHANGES:;
#KEYSOUNDS:;
#ATTACKS:;

//---------------dance-single - ----------------
#NOTES:
     dance-single:
     :
     Easy:
     7:
     0.323,0.317,0.187,0.103,0.000,211.000,20.000,11.000,0.000,0.000,0.000,0.323,0.317,0.187,0.103,0.000,211.000,20.000,11.000,0.000,0.000,0.000:
0000
0000
0000
0000
,
0000
0000
0000
0000
,
0000
0000
0000
0000
,
0000
0000
1000
0000
,
2002
0000
0000
0000
,
3003
0000
0001
0000
,
0010
0000
0010
0000
,
0010
0000
0000
0000
,
0100
1000
0100
0000
,
1000
0001
1000
0000
,
0001
0100
0001
0000
,
0010
0100
0010
0000
,
0100
1000
0100
1000
,
0001
0000
0001
0000
,
0100
0001
0100
0001
,
1000
0000
1000
0000
,
0010
0000
0110
0000
,
0100
0000
0101
0000
,
0001
0000
1001
0000
,
1000
0000
1100
0000
,
1001
0000
0101
0000
,
1001
0000
1000
0100
,
0020
0000
0000
0230
,
0000
0000
1300
0000
,
1000
0100
1000
0000
,
0100
0010
0100
0000
,
0010
0001
0010
0000
,
0001
1000
0010
0100
,
0010
0000
0010
0000
,
0010
0000
0010
1000
,
0001
0000
0001
0000
,
0001
0000
0001
1000
,
0100
0000
0100
0000
,
0100
0000
0100
0010
,
0001
1000
0001
1000
,
0010
0010
0010
0000
,
1000
0010
1000
0010
,
0100
0100
0100
0001
,
0100
0010
0100
0010
,
1000
1000
0000
0100
,
0100
0010
0100
0010
,
0001
0001
0000
1000
,
1000
0010
1000
0010
,
0110
0000
0000
0100
,
0001
0000
0000
1000
0000
0000
0002
0000
,
0000
0000
1000
1003
,
0001
0010
0001
0010
,
0100
0100
0000
0010
,
0100
0000
0000
0100
0000
0000
0100
0000
,
0000
1000
0100
0010
,
0001
0000
1001
0000
,
1000
0000
1010
0000
,
0220
0000
0000
0000
0030
0000
0000
0302
,
0000
0000
0000
1003
0000
0000
0000
0000
,
1000
0100
1000
0000
,
1001
0000
0001
0000
,
0101
0000
0100
0010
,
0200
0000
0000
0320
,
0000
0000
1030
0000
,
0010
1000
0010
1000
,
0001
0000
0000
0000
0010
0000
0000
0010
,
0000
0100
0000
0000
1000
0000
0100
0000
,
1000
0000
0100
1000
,
0001
1000
0001
1000
,
0010
0000
0010
0010
,
1000
0001
1000
0001
,
0100
0000
0100
0000
,
0010
0000
1010
0000
,
0100
0000
0101
0000
,
0001
0000
0011
0000
,
0100
0000
1100
0000
,
1000
0000
0000
0100
0000
0000
0010
0000
,
0001
0000
0000
0100
0000
0000
0010
0000
,
1000
0000
0000
1001
0000
0000
0000
0000
,
0000
0000
0000
0000
,
1000
0100
1000
0100
,
0010
0010
0000
0100
,
0100
0000
0000
0100
0000
0000
0100
0000
,
0000
1000
0100
0010
,
0001
0000
0000
0001
0000
0001
0000
0000
,
1000
0000
1000
0000
,
0020
0000
0000
0000
,
0000
0000
0000
0000
,
0130
0000
0000
0100
0000
0000
0000
0100
,
0000
0000
0100
0000
,
1001
0000
0000
0000
;

//---------------dance-single - ----------------
#NOTES:
     dance-single:
     :
     Hard:
     13:
     0.771,0.863,0.579,0.084,0.079,507.000,62.000,9.000,0.000,0.000,0.000,0.771,0.863,0.579,0.084,0.079,507.000,62.000,9.000,0.000,0.000,0.000:
1000
0010
0100
0001
0000
1000
0000
1001
,
0000
0001
0000
0010
0100
0010
0001
0000
,
0100
0001
1000
0010
0000
1000
0000
1001
,
0000
0010
0000
0100
1000
0001
0000
0000
,
1002
0000
0100
0000
,
1000
0000
0000
0000
0103
0001
0010
0000
,
0210
0000
0000
1000
0000
0000
0320
0000
,
0000
0000
0000
0000
0031
0010
0000
0001
,
0010
0100
0010
0100
1000
0100
1000
0100
,
0010
0001
0010
0001
0100
0001
0100
0001
,
1000
0010
1000
0010
1000
0001
1000
0001
,
0010
0100
1000
0001
0100
0010
0000
0000
,
0110
0000
0010
1000
0000
1000
0010
0001
,
0000
0001
0010
0000
0010
0100
0001
1000
,
0000
0000
0100
1000
0000
1000
0001
0100
,
0000
0000
0100
0000
0010
0000
0000
0000
1010
0000
0000
0000
0110
0000
0100
0001
,
0100
0000
0001
0010
0000
0010
0100
0000
,
1000
0100
0001
0100
1000
0000
0010
0000
,
0100
0000
0001
1000
0001
0000
0010
0000
,
0100
0010
0001
1000
0010
0100
0000
0000
,
0110
0000
1000
0000
0010
0100
0000
0000
,
0110
0000
0100
0000
0001
1000
0001
0000
,
0021
0000
0000
0100
0000
0000
0032
0000
,
0000
0000
0000
0000
1003
0001
0000
0001
,
0010
0100
1000
0001
0000
0101
0000
1010
,
0000
0000
0010
0100
0000
0010
1000
0010
,
0000
1010
0000
1000
0001
0010
0100
0001
,
0000
0100
1000
0010
0100
0010
0000
0100
,
0010
0000
0010
1010
0000
0101
0000
1010
,
0000
0000
1000
0001
0010
0100
0000
0010
,
0001
0000
0010
0011
0000
1100
0000
0011
,
0000
0000
0001
0000
1000
0000
0000
0000
0010
0000
1000
0000
0010
0100
0010
0100
,
0001
0100
1000
0001
0010
1000
0001
1000
,
0100
0010
0001
0100
0010
1000
0010
0100
,
0001
1000
0010
1010
0000
0011
0000
1010
,
0000
1100
0000
0100
0001
0100
1000
0000
,
0010
0100
0001
0101
0000
1100
0000
0101
,
0000
0011
0000
0010
1000
0010
0100
0010
,
0100
1000
0001
0100
0010
0000
0100
0001
,
1000
0100
0010
0000
0100
1000
0100
1000
,
0001
0010
0100
0001
1000
0000
0010
0000
,
1010
0000
0011
0000
0001
0010
0100
1000
,
0001
0000
0100
0001
0100
0001
0010
0000
,
0100
0010
0000
0010
0001
0100
0010
0000
,
0110
0000
0000
1010
0000
0000
1002
0000
,
0000
0000
0010
0000
0013
0001
0010
0100
,
1000
0001
0100
0001
1000
1000
0010
1000
,
0001
1000
0010
0000
0100
0010
1000
0100
,
0010
0100
1000
1001
0000
0001
1001
0000
,
1000
0010
0100
0000
0110
0000
0101
0000
,
0001
1000
0001
1000
0010
0100
0010
0100
,
0001
0010
1000
0010
0001
0100
1000
0100
,
0001
0010
0100
1000
0001
0100
0010
1000
,
0001
0000
0010
0000
0100
0000
0110
0000
0100
1000
0100
1000
0100
1000
0100
1000
,
0100
0000
0010
0100
1000
0001
0000
0000
,
0101
0000
0010
0000
1000
0001
0000
0000
,
0101
0000
0001
0000
0010
0100
0010
0000
,
0210
0000
0000
1000
0000
0000
0310
0000
,
0100
0010
0001
0000
0010
0001
0100
0010
,
0000
0100
0010
1000
0000
0010
1000
0001
,
0000
0010
0100
1000
0000
0010
0100
0001
,
0000
1001
0000
1000
0010
0100
0001
0011
,
0000
0000
0010
0100
0010
0000
0001
0000
0100
0000
0010
0000
0000
0000
0100
0000
,
0010
0000
0010
1010
0000
0101
0000
1010
,
0000
1000
0001
0010
0100
0010
0000
0100
,
0010
0000
0001
0011
0000
1100
0000
0011
,
0000
0000
0001
0000
1000
0000
0000
0000
1000
0000
0000
1000
0001
0000
0010
0000
,
0100
1000
0100
1000
0001
0010
0001
0010
,
0100
0010
0100
0010
0001
1000
0001
1000
,
0010
1000
0001
0010
0100
0000
0100
0110
,
0000
0000
0000
0010
0000
0000
0001
0000
0000
0100
0000
0000
0010
0000
1000
0000
0100
0000
0010
0000
0001
0000
0100
0000
,
0010
0000
0000
0110
0000
0000
0110
0000
,
1000
0000
0000
1001
0000
0000
1001
0000
,
0001
0000
0000
0011
0000
0000
0010
0110
,
0000
0000
0100
0000
1000
0000
0100
0000
1000
0100
0010
0000
0001
0000
0100
0001
,
1000
0010
1000
0010
0100
0010
0100
0010
,
0100
0001
0100
0000
0001
1000
0001
1000
,
0100
0010
0100
0110
0000
0100
1100
0000
,
1000
0000
0001
0000
0100
0000
0010
0000
1000
0000
0010
0000
0100
0000
0001
0010
,
0001
0100
0001
0010
0100
0010
0001
1000
,
0010
0000
0100
0000
0010
0000
0100
0001
0100
0000
0001
0000
0100
0000
0000
0000
,
0001
0010
0100
1000
0000
0001
0000
1001
,
0000
0110
0000
0010
0001
0100
0010
0000
,
1000
0010
0100
0001
0000
1000
0000
1001
,
0000
0110
0000
0010
1000
0100
0010
0000
,
0220
0000
0000
0000
,
0000
0000
0000
0000
,
0000
0000
0000
0000
,
0330
0000
0000
0000
;

//---------------dance-single - ----------------
#NOTES:
     dance-single:
     :
     Beginner:
     4:
     0.137,0.159,0.037,0.047,0.000,94.000,4.000,5.000,0.000,0.000,0.000,0.137,0.159,0.037,0.047,0.000,94.000,4.000,5.000,0.000,0.000,0.000:
0000
0000
0000
0000
,
0000
0000
0000
0000
,
0000
0000
0000
0000
,
0000
0000
0100
0000
,
0200
0000
0000
0000
,
0000
0000
1300
0000
,
1000
0000
0000
0001
,
0000
0000
1000
0000
,
0010
0000
0000
0000
,
0010
0000
0000
0000
,
1000
0000
0000
0000
,
0001
0000
0000
0000
,
0010
0000
0000
0000
,
0010
0000
0000
0000
,
0100
0000
0000
0000
,
1000
0000
0000
0000
,
0010
0000
0000
0000
,
0010
0000
0000
0000
,
0100
0000
0000
0000
,
0001
0000
0000
0000
,
1000
0000
1000
0000
,
1000
0000
0000
0000
,
0001
0000
0000
0000
,
0001
0000
0000
0000
,
0010
0000
0010
0000
,
0010
0000
0000
0000
,
0100
0000
0000
0000
,
0100
0000
0000
0000
,
1000
0000
1000
0000
,
1000
0000
0000
0000
,
0010
0000
0000
0000
,
0010
0000
0000
0000
,
0100
0000
0100
0000
,
0100
0000
0000
0000
,
0001
0000
0000
0000
,
0001
0000
0000
0000
,
0010
0000
0000
0000
,
0100
0000
0100
0000
,
0100
0000
0000
0000
,
1000
0000
0000
0000
,
0100
0000
0000
0000
,
0010
0000
0000
0000
,
0001
0000
0000
0000
,
0100
0000
0000
0000
,
0001
0000
0000
0020
,
0000
0000
0130
0000
,
0010
0000
0000
0000
,
0001
0000
0000
0000
,
0010
0000
0000
0100
,
0000
0000
1000
0000
,
1000
0000
0000
0000
,
0001
0000
0000
0000
,
0200
0000
0000
0000
,
0310
0000
0000
0000
,
0110
0000
0000
0000
,
0010
0000
0010
0000
,
0010
0000
0000
0000
,
1000
0000
0000
0000
,
1000
0000
0000
0000
,
0001
0000
0001
0000
,
0001
0000
0000
0000
,
0100
0000
0000
0000
,
0100
0000
0000
0000
,
0001
0000
0001
0000
,
0001
0000
0000
0000
,
1000
0000
0000
0000
,
1000
0000
0000
0000
,
0100
0000
0100
0000
,
0100
0000
0000
0000
,
0010
0000
0000
0000
,
0010
0000
0000
0000
,
0110
0000
0000
0000
,
0110
0000
0000
0000
,
1001
0000
0000
0000
,
0000
0000
0000
0000
,
1000
0000
1000
0000
,
1000
0000
0000
0000
,
0001
0000
0000
0000
,
0001
0000
0000
0000
,
0010
0000
0010
0000
,
0010
0000
0000
0000
,
0200
0000
0000
0000
,
0000
0000
0000
0000
,
2300
0000
0000
0000
,
0000
0000
0000
0000
,
3001
0000
0000
0000
;

//---------------dance-single - ----------------
#NOTES:
     dance-single:
     :
     Medium:
     10:
     0.520,0.516,0.355,0.205,0.000,330.000,38.000,22.000,0.000,0.000,0.000,0.520,0.516,0.355,0.205,0.000,330.000,38.000,22.000,0.000,0.000,0.000: // measure 0
0000
0000
0000
0000
,  // measure 1
0000
0000
0000
0000
,  // measure 2
0000
0000
0000
0000
,  // measure 3
0000
0000
0000
0000
1000
0001
0000
0000
,  // measure 4
2002
0000
0000
0000
,  // measure 5
0000
0000
3003
0000
0001
0010
0100
0000
,  // measure 6
0010
0000
0000
0100
0000
0000
2000
0000
,  // measure 7
0000
0000
0000
0000
3001
1000
0000
0001
,  // measure 8
0000
0010
0000
0001
0000
0100
0000
0010
,  // measure 9
0000
0000
0000
1000
0000
0010
1000
0001
,  // measure 10
0000
0020
0000
0000
0000
0000
0000
0000
,  // measure 11
0100
0000
0130
0010
0001
0100
0000
0000
,  // measure 12
0010
0000
0010
1000
0000
1000
0000
1000
,  // measure 13
0000
0000
0000
0000
0001
0010
0000
0100
,  // measure 14
0000
0000
0010
0001
0000
0001
0000
0002
,  // measure 15
0000
0000
0103
0000
0001
1000
0001
1000
,  // measure 16
0100
0000
0000
0010
0000
0000
0110
0000
,  // measure 17
0000
0100
0000
0000
1000
0000
0100
0000
,  // measure 18
1100
0000
0000
1001
0000
0000
0000
0000
,  // measure 19
0001
0000
0100
0000
0010
1000
0000
0000
,  // measure 20
0002
0000
0000
0000
1003
0001
0000
0000
,  // measure 21
0020
0000
0000
0000
0130
0010
0100
0000
,  // measure 22
1000
0000
0000
1010
0000
0000
0220
0000
,  // measure 23
0000
0000
0000
0330
0100
0010
0000
1000
,  // measure 24
0000
0001
0000
0010
0000
0001
0000
0101
,  // measure 25
0000
0000
0000
0100
0000
0010
0100
0010
,  // measure 26
0000
0110
0000
0000
0010
1000
0010
1000
,  // measure 27
0000
1000
0001
0010
0001
0010
0000
0000
,  // measure 28
0110
0000
0100
1000
0000
0001
0000
0100
,  // measure 29
0000
0000
0000
0000
0010
0100
0000
0100
,  // measure 30
0010
0000
0010
1000
0000
0001
0000
0020
,  // measure 31
0000
0130
0010
0000
0100
0000
0100
0000
,  // measure 32
1000
0000
0000
1100
0000
0000
0110
0000
,  // measure 33
0001
0000
0000
0101
0000
0000
0110
0000
,  // measure 34
0010
0000
0000
1000
0000
0001
0000
1000
,  // measure 35
0000
0001
0000
0010
0100
0010
0100
0000
,  // measure 36
1000
0000
0000
0001
0000
1000
0000
0001
,  // measure 37
0000
1000
0000
0010
0100
0010
0100
0000
,  // measure 38
0010
1000
0010
1000
0010
0000
1000
0000
,  // measure 39
0001
1000
0001
0000
0000
1000
0001
0000
,  // measure 40
0010
0001
0010
0001
0010
0000
0001
0000
,  // measure 41
1001
0000
1001
0000
0000
1000
0100
0010
,  // measure 42
0100
0000
1000
0100
0010
0100
1000
0000
,  // measure 43
1000
0001
0000
0000
0001
0100
0001
0000
,  // measure 44
0101
0000
0000
0110
0000
0000
2020
0000
,  // measure 45
0000
0000
3030
0000
1000
0001
1000
0001
,  // measure 46
0010
0100
0010
0100
0010
0000
0001
0000
,  // measure 47
0100
0010
0100
0000
0000
0000
0010
0000
,  // measure 48
1000
0001
0010
0100
0000
0010
0100
0000
,  // measure 49
0010
0100
1000
0000
0001
0000
0100
0000
,  // measure 50
0001
0000
0010
0100
0000
0000
0010
0000
,  // measure 51
0110
0010
0011
0001
,  // measure 52
0201
0000
0000
0000
0310
0000
0100
0010
,  // measure 53
1000
0000
0001
1000
0000
0000
0000
0000
,  // measure 54
0001
0000
0010
0001
0010
0001
0000
0000
,  // measure 55
0202
0000
0000
0303
0100
0010
0000
0000
,  // measure 56
2020
0000
0000
3030
1000
0001
1000
0000
,  // measure 57
0001
0000
0000
0011
0000
0000
0210
0000
,  // measure 58
0000
0000
1300
0000
0100
1000
0000
0010
,  // measure 59
0000
0001
0000
1000
0000
0100
0000
0001
,  // measure 60
0000
0000
0001
1000
0000
0001
0010
0001
,  // measure 61
0000
0100
0000
0000
0010
0100
0010
0100
,  // measure 62
0000
0000
0010
1000
0100
0010
0000
0000
,  // measure 63
0110
0000
0100
1000
0000
0001
0000
0100
,  // measure 64
0000
0000
0010
0000
0100
0010
0000
1000
,  // measure 65
0000
0000
0001
0010
0000
0100
0000
0020
,  // measure 66
0000
0031
0010
0000
0001
0000
0001
0000
,  // measure 67
0011
0000
0000
0101
0000
0000
0010
0000
,  // measure 68
1010
0000
0000
1100
0000
0000
0100
0000
,  // measure 69
0110
0000
0000
0010
0100
0000
1000
0100
,  // measure 70
0000
0100
1000
0000
1000
0001
0100
0000
,  // measure 71
0010
0000
0000
1010
0000
0000
0101
0000
,  // measure 72
0010
0000
0000
0011
0000
0000
1100
0000
,  // measure 73
0101
0000
0000
1001
0000
0000
1000
0100
,  // measure 74
0000
1000
0100
0010
0001
0000
0100
0000
,  // measure 75
0010
0100
0010
0100
0010
0000
1000
0000
,  // measure 76
0001
1000
0001
0000
1000
0001
0100
0000
,  // measure 77
0010
0100
0001
0100
0000
0001
0010
0000
,  // measure 78
0100
0010
0100
0000
1000
0000
0100
0000
,  // measure 79
0010
0000
0001
0100
0000
0001
0000
0000
,  // measure 80
2000
0000
3002
0000
,  // measure 81
0203
0000
0000
0000
,  // measure 82
0000
0000
0000
0000
,  // measure 83
0310
0100
0001
1000
0000
0100
0000
0010
,  // measure 84
0000
0001
0000
1000
0001
1000
0001
0000
,  // measure 85
1001
0000
0000
0000
;
