#VERSION:0.81;
#TITLE:Evil Enchantress (Euro-Spell Mix);
#SUBTITLE:;
#ARTIST:Eurobeat Brony;
#TITLETRANSLIT:;
#SUBTITLETRANSLIT:;
#ARTISTTRANSLIT:;
#GENRE:Eurobeat;
#ORIGIN:;
#CREDIT:;
#BANNER:Evil Enchantress (Euro-Spell Mix).png;
#BACKGROUND:Evil Enchantress (Euro-Spell Mix)-bg.png;
#PREVIEWVID:;
#JACKET:Evil Enchantress (Euro-Spell Mix)-jacket.png;
#CDIMAGE:;
#DISCIMAGE:;
#LYRICSPATH:;
#CDTITLE:;
#MUSIC:Evil Enchantress (Euro-Spell Mix).mp3;
#OFFSET:-0.062;
#SAMPLESTART:25.860;
#SAMPLELENGTH:15.000;
#SELECTABLE:YES;
#BPMS:0.000=158.000,
64.000=79.000,
66.000=158.000,
158.000=79.000,
160.000=158.000;
#STOPS:;
#DELAYS:;
#WARPS:;
#TIMESIGNATURES:0.000=4=4;
#TICKCOUNTS:0.000=4;
#COMBOS:0.000=1;
#SPEEDS:0.000=1.000=0.000=0;
#SCROLLS:0.000=1.000;
#FAKES:;
#LABELS:0.000=Song Start;
#BGCHANGES:;
#KEYSOUNDS:;
#ATTACKS:
;

//---------------dance-single - ----------------
#NOTEDATA:;
#CHARTNAME:;
#STEPSTYPE:dance-single;
#DESCRIPTION:;
#CHARTSTYLE:;
#DIFFICULTY:Hard;
#METER:13;
#RADARVALUES:0.712,0.787,0.438,0.053,0.278,421.000,41.000,5.000,0.000,0.000,0.000,0.000,0.000,0.712,0.787,0.438,0.053,0.278,421.000,41.000,5.000,0.000,0.000,0.000,0.000,0.000;
#CREDIT:;
#NOTES:
// measure 0
0000
0000
0000
0000
,  // measure 1
1000
0010
0100
0010
1000
0100
0010
0100
,  // measure 2
1000
0001
0010
0001
0100
0001
0010
0100
,  // measure 3
1000
0100
0010
0100
1000
0010
0100
0010
,  // measure 4
1000
0001
0010
0001
1000
0001
0010
0100
,  // measure 5
1000
0010
0100
0010
1000
0100
0010
0100
,  // measure 6
0010
0001
0100
0001
0010
0100
0001
0100
,  // measure 7
1000
0010
1000
0100
0010
0100
1000
0100
,  // measure 8
1100
0000
0000
0011
0000
0000
1010
0000
0000
0000
1000
0000
0100
0000
0100
0000
,  // measure 9
0001
0000
0001
0010
0000
0010
0100
0100
,  // measure 10
0001
1000
0010
1000
0000
0100
1000
1000
,  // measure 11
0010
0000
0010
0001
0000
0001
0010
0010
,  // measure 12
1000
0100
0001
0100
0000
0110
0010
1000
,  // measure 13
0010
0010
0001
0100
0010
0010
0110
0000
,  // measure 14
0100
0100
0010
1000
0100
0100
0010
1000
,  // measure 15
0010
0001
0100
1000
0100
0001
1000
0001
,  // measure 16
0100
0010
0100
0100
0010
0100
0001
1000
1001
0000
0000
0000
1000
0000
0010
0000
,  // measure 17
1000
0110
0000
0101
0000
0011
0000
0010
,  // measure 18
0100
0000
1100
0000
0000
0000
0000
0000
1000
0010
1000
0010
0100
0000
0100
0001
,  // measure 19
0100
0001
0010
0000
0010
0100
0010
0100
1000
0000
0000
0000
0011
0000
0000
0000
,  // measure 20
1010
0000
0011
0000
1001
0000
0001
0010
,  // measure 21
0001
0110
0000
1100
0000
1010
0000
0010
,  // measure 22
0100
0000
0101
0000
0000
0000
0000
0000
0001
0010
0001
0010
0100
0000
0100
1000
,  // measure 23
0100
1000
0010
0000
0010
0100
0010
0100
0001
0000
0000
1001
0000
0000
1010
0000
,  // measure 24
0000
1000
0010
0100
0001
0010
0100
0010
,  // measure 25
0001
0100
0010
0100
0001
0010
0100
0010
,  // measure 26
0001
0010
0100
1000
0010
1000
0100
1000
,  // measure 27
0010
0100
1000
0100
0010
1000
0100
1000
,  // measure 28
0010
1000
0100
0010
0001
0100
0010
0100
,  // measure 29
0001
0010
0100
0010
0001
0100
0010
0100
,  // measure 30
0001
0100
0010
1000
0100
1000
0010
1000
,  // measure 31
0100
0000
0010
0000
1000
0000
0010
0000
0100
0000
1000
0010
0000
0010
0100
0000
,  // measure 32
0000
0001
0010
0100
0010
0010
0100
0001
,  // measure 33
0000
0001
0100
1000
0010
0010
0100
1000
,  // measure 34
0000
1000
0100
0001
1000
0100
0001
0100
,  // measure 35
0000
0100
0010
0100
0010
0001
0100
1000
,  // measure 36
0000
1100
1000
1000
0100
0001
0100
0100
,  // measure 37
0010
1000
1010
0000
1010
1000
0100
0010
,  // measure 38
0001
0100
0010
1000
0100
0010
0001
1000
,  // measure 39
0000
0000
0010
0000
0010
0000
1000
0000
0100
0010
0010
0010
0000
0100
1000
0001
,  // measure 40
0101
0000
0001
0010
0100
0001
0000
0101
,  // measure 41
0000
1100
0000
1000
0010
0100
0000
0000
,  // measure 42
0001
0100
0010
1000
0001
0000
0001
0010
0100
0010
0001
0000
0001
1000
0100
1000
,  // measure 43
0010
1010
0011
1010
,  // measure 44
1100
0000
1000
0010
0100
1000
0000
1100
,  // measure 45
0000
0101
0000
0001
0010
0100
0000
0000
,  // measure 46
1000
0100
0010
0001
1000
0000
1000
0010
0100
0010
1000
0000
1000
0001
0100
0001
,  // measure 47
0010
0000
0000
0100
0000
0000
0110
0000
0000
0000
0000
0000
0000
0000
0000
0000
,  // measure 48
2000
0000
0010
0000
0001
0000
3010
1000
,  // measure 49
0200
0000
0010
0310
0000
0010
0001
0100
,  // measure 50
0001
0010
0001
1000
0100
0000
1000
0010
1000
0001
0100
0000
0001
1000
0001
1000
,  // measure 51
0001
1000
1001
0001
1001
1000
1001
0001
,  // measure 52
0020
0000
0000
0000
0130
0000
1000
0000
0001
0000
1000
0000
0010
1000
0010
1000
,  // measure 53
0001
0010
0000
0011
0000
1001
0000
1010
,  // measure 54
1000
0100
1000
0100
0010
0000
0010
0100
0010
0100
0001
0000
0001
0100
0010
1000
,  // measure 55
0001
0000
0000
0100
0000
0000
0110
0000
0000
0000
1000
0000
0100
0000
0010
0000
,  // measure 56
0220
0000
0000
0000
,  // measure 57
0000
0000
0000
0000
,  // measure 58
0000
0000
0000
0000
,  // measure 59
0330
0000
0000
0000
;

//---------------dance-single - ----------------
#NOTEDATA:;
#CHARTNAME:;
#STEPSTYPE:dance-single;
#DESCRIPTION:;
#CHARTSTYLE:;
#DIFFICULTY:Medium;
#METER:9;
#RADARVALUES:0.474,0.448,0.395,0.053,0.037,269.000,37.000,5.000,0.000,0.000,0.000,0.000,0.000,0.474,0.448,0.395,0.053,0.037,269.000,37.000,5.000,0.000,0.000,0.000,0.000,0.000;
#CREDIT:;
#NOTES:
0000
0000
0000
0000
,
0000
1000
0000
0010
0000
1000
0000
0001
,
0000
0010
0000
0001
0000
0010
0000
0100
,
0000
1000
0000
0010
0000
1000
0000
0001
,
0000
0010
0000
0001
0000
0100
0000
0010
,
0000
1000
0000
0100
0000
1000
0000
0001
,
0000
0100
0000
0001
0000
0100
0000
0010
,
0000
1000
0000
0001
0000
1000
0000
0001
,
0010
0000
0000
0010
0000
0000
0100
0000
0000
0000
0000
0000
1000
0000
0010
0000
,
1000
0000
1000
0001
0000
0000
0001
0010
,
0001
0000
0001
1000
0000
0000
1000
0100
,
0010
0000
0100
1000
0000
0000
0001
0100
,
0010
0000
0100
0001
0000
0000
1000
0000
,
1100
0010
0011
1000
,
1010
0100
0101
1001
,
0110
1001
0110
0011
,
1100
0000
0000
0000
0000
0000
0100
0010
0001
0000
0000
0000
0101
0000
0000
0000
,
0001
0010
0000
0110
0000
0110
0000
0100
,
1000
0010
0000
0000
1000
0100
0001
0100
,
0010
0001
0100
1000
0100
0000
0110
0000
,
0110
0110
0101
0011
,
0100
1000
0000
1010
0000
0101
0000
0000
,
0001
0010
0000
0000
0001
0100
1000
0100
,
0010
0000
1000
0000
0100
0000
0001
0000
0100
0000
0000
0100
0000
0000
0010
0000
,
0000
0000
0000
0000
0001
0010
0000
0001
,
0000
0010
0000
0100
0000
1000
0000
0100
,
0000
1000
0000
1010
1000
0010
0000
0100
,
0000
0001
0000
0010
0000
0100
0000
1000
,
0000
0001
0000
0001
1001
1000
0000
0100
,
0000
0010
0000
0100
0000
0100
0000
1000
,
0000
0001
0000
0010
0011
0001
0000
1000
,
0000
0000
0010
0000
0000
0000
1000
0000
0001
0000
0000
0001
0000
0000
1000
0000
,
0000
0000
0010
1000
0010
0000
1000
0001
,
0000
0000
0010
0001
0010
0000
0001
1000
,
0000
0000
0100
1000
0100
0000
1000
0001
,
0000
0000
0100
0001
0010
0100
1000
0010
,
0000
0110
0000
0000
0100
0100
0001
0000
,
0010
0010
0100
0000
1000
1000
0010
0100
,
0001
0100
0010
0000
1000
1000
0100
0010
,
0100
0000
0100
0000
1000
0000
0001
0000
0100
0000
0000
0000
0000
0000
0010
0100
,
0001
0000
0011
0000
0010
0100
0000
1010
,
0000
1010
0000
0000
0010
0100
0000
0000
,
0001
0010
1000
0010
0100
0001
0010
0001
,
0100
0110
0110
1001
,
0110
0000
0011
0000
0100
1000
0000
1010
,
0000
0101
0000
0000
0001
0010
0000
0000
,
1000
0010
0001
0010
0100
1000
0010
0001
,
0010
0000
0000
0010
0000
0000
0110
0000
0000
0000
0000
0000
0000
0000
0000
0000
,
2000
0000
0000
0000
0000
0000
3001
1000
,
0200
0000
0010
0310
0000
0010
0100
2000
,
0000
0000
0000
3001
1000
0100
0010
0001
,
0100
0010
0000
0010
0000
0010
0000
0010
,
2000
0000
0000
0000
0000
0000
3001
1000
,
0200
0000
0310
0100
0000
0110
0000
0100
,
1000
0010
0100
0001
1000
0100
0010
0001
,
1000
0000
0000
0010
0000
0000
1000
0000
0000
0000
0010
0000
0100
0000
0001
0000
,
0101
0000
0000
0000
;

//---------------dance-single - ----------------
#NOTEDATA:;
#CHARTNAME:;
#STEPSTYPE:dance-single;
#DESCRIPTION:;
#CHARTSTYLE:;
#DIFFICULTY:Easy;
#METER:6;
#RADARVALUES:0.328,0.359,0.160,0.075,0.000,193.000,15.000,7.000,0.000,0.000,0.000,0.000,0.000,0.328,0.359,0.160,0.075,0.000,193.000,15.000,7.000,0.000,0.000,0.000,0.000,0.000;
#CREDIT:;
#NOTES:
0000
0000
0000
0000
,
1000
1000
0010
0010
,
1000
0000
1000
0000
0000
0001
0000
0001
,
1000
1000
0100
0100
,
1000
0000
1000
0000
0000
0001
0000
0001
,
0010
0001
1000
0100
,
0010
1000
0001
0100
,
0001
0010
0100
1000
,
1001
0000
0000
1000
,
0001
0000
0000
0100
0000
0000
0010
0000
,
1000
0000
0000
0100
0000
0000
0010
0000
,
0001
0000
0000
1000
0000
0000
0010
0000
,
1000
0000
0000
0001
0000
0000
0001
0000
,
0010
0010
0100
0100
,
0010
0100
1000
0001
,
0100
0100
0010
0010
,
0110
0000
1001
1000
,
0100
0000
0000
0010
0000
0010
0000
0000
,
0100
0000
0001
0010
,
1000
0100
1000
1000
,
1000
1000
0001
0010
,
0100
0000
0001
0100
,
1000
0000
1000
0100
,
0010
0100
0101
0000
,
0000
0000
1000
1000
,
0001
0001
0010
0010
,
0000
0001
0000
0001
1000
0000
1000
0000
,
0001
0001
0100
0100
,
0000
0001
0000
0001
1000
0000
0010
0000
,
1000
0001
0010
0001
,
0000
0100
0000
0100
0010
0000
1000
0000
,
0100
0010
0011
0000
,
0000
0100
2000
3010
,
0100
0010
2000
3010
,
0100
0001
0002
0013
,
0100
0010
0002
0013
,
0100
1000
0020
1030
,
0001
1000
0020
0130
,
0100
0010
2000
3001
,
0001
1000
1001
0000
,
1010
0000
0010
0000
0100
0000
0000
0010
,
0000
0010
0000
0000
0100
0000
0000
0000
,
0001
0010
0001
0100
,
1000
1000
1000
1000
,
0100
0010
0100
0000
,
0001
0010
0001
0000
,
0001
1000
0010
0100
,
0101
0000
0000
0000
,
0001
0010
0001
1000
,
0010
1000
0010
0100
,
0001
0010
0100
1000
,
1001
1001
1001
1001
,
1000
0010
1000
0000
,
0001
0100
0001
0000
,
0010
0100
1000
0010
,
0110
0000
0101
0000
,
1001
0000
0000
0000
;

//---------------dance-single - ----------------
#NOTEDATA:;
#CHARTNAME:;
#STEPSTYPE:dance-single;
#DESCRIPTION:;
#CHARTSTYLE:;
#DIFFICULTY:Beginner;
#METER:2;
#RADARVALUES:0.098,0.120,0.032,0.000,0.000,61.000,3.000,0.000,0.000,0.000,0.000,0.000,0.000,0.098,0.120,0.032,0.000,0.000,61.000,3.000,0.000,0.000,0.000,0.000,0.000,0.000;
#CREDIT:;
#NOTES:
0000
0000
0000
0000
,
1000
0000
0000
0000
,
0001
0000
0000
0000
,
0100
0000
0000
0000
,
0010
0000
0000
0000
,
0010
0000
0000
0000
,
0100
0000
0000
0000
,
0001
0000
0000
0000
,
1000
0000
0000
0000
,
1000
0000
0000
0000
,
0000
0000
0000
0000
,
0010
0000
0000
0000
,
0000
0000
0000
0000
,
0100
0000
0000
0000
,
0000
0000
0000
0000
,
0001
0000
0000
0000
,
0000
0000
0010
0000
,
0010
0000
0010
0000
,
0000
0000
0001
0000
,
0001
0000
0001
0000
,
0000
0000
0100
0000
,
0100
0000
0100
0000
,
0000
0000
1000
0000
,
1000
0000
1000
0000
,
0000
0000
1000
0000
,
0000
0000
0010
0000
,
0000
0000
0100
0000
,
0000
0000
0001
0000
,
0000
0000
0010
0000
,
0000
0000
0001
0000
,
0000
0000
0100
0000
,
0000
0000
0010
0000
,
0000
0000
1000
0000
,
0000
0000
0001
0000
,
0000
0000
1000
0000
,
0000
0000
0000
0000
,
0000
0000
0010
0000
,
0000
0000
0100
0000
,
0000
0000
0010
0000
,
0000
0000
0000
0000
,
1000
0000
1000
0000
,
1000
0000
0000
0000
,
0001
0000
0001
0000
,
0001
0000
0000
0000
,
0100
0000
0100
0000
,
0100
0000
0000
0000
,
0010
0000
0010
0000
,
0010
0000
0000
0000
,
0010
0000
0000
0000
,
1001
0000
0000
0000
,
0100
0000
0000
0000
,
1001
0000
0000
0000
,
1000
0000
0001
0000
,
1000
0000
0001
0000
,
1000
0000
0000
0000
,
0001
0000
0000
0000
,
1001
0000
0000
0000
;
