#TITLE:Dubstep Dishwasher;
#SUBTITLE:;
#ARTIST:The Living Tombstone;
#TITLETRANSLIT:;
#SUBTITLETRANSLIT:;
#ARTISTTRANSLIT:;
#GENRE:;
#CREDIT:;
#BANNER:Dubstep Dishwasher.png;
#BACKGROUND:Dubstep Dishwasher-bg.png;
#LYRICSPATH:;
#CDTITLE:;
#MUSIC:Dubstep Dishwasher.ogg;
#OFFSET:-0.032;
#SAMPLESTART:16.107;
#SAMPLELENGTH:15.000;
#SELECTABLE:YES;
#BPMS:0.000=112.000
;
#STOPS:0.000=7.000
;
#BGCHANGES:;
#KEYSOUNDS:;
#ATTACKS:;

//---------------dance-single - ----------------
#NOTES:
     dance-single:
     :
     Beginner:
     3:
     0.151,0.149,0.087,0.010,0.000,100.000,9.000,1.000,0.000,0.000,0.000,0.151,0.149,0.087,0.010,0.000,100.000,9.000,1.000,0.000,0.000,0.000:
0000
0001
0000
0000
,
1000
0000
0001
0000
,
1000
0000
0010
0000
,
1000
0000
1000
0000
,
0010
0000
0001
0000
,
0001
0000
0001
0000
,
1000
2000
3001
0000
,
0010
0000
0001
0000
,
0010
0000
1000
0000
,
0010
0000
1000
0000
,
0001
0000
0010
0000
,
0001
0000
0001
0010
,
0010
0000
0011
0000
,
0001
0000
0001
0000
,
1000
0000
0100
0000
,
0010
0000
0100
0100
,
0100
0000
1000
0000
,
0001
0000
1000
0001
,
0001
0000
0010
0000
,
0001
0000
0001
0000
,
1000
0000
0010
0000
,
1000
0000
0010
0000
,
0001
0000
0100
0000
,
1000
0000
0100
0000
,
0001
0000
1010
1000
,
1000
0000
0001
0001
,
0001
0000
1100
0000
,
0001
0100
1000
0001
,
0000
0110
0000
0000
,
0001
0001
0010
0000
,
1000
1000
0100
0000
,
0010
0010
0100
0000
,
0001
0001
0010
0000
,
1000
0100
0100
0000
,
1000
0000
0010
0010
,
1000
0000
0010
0000
,
0001
0000
0010
0000
,
1000
0000
1010
0001
,
0010
0000
0011
0000
,
1000
0000
0100
0000
,
0010
0000
0001
0000
,
1100
0000
0010
0000
,
0001
0000
0110
0000
,
0000
0000
0000
0000
,
0000
1001
0000
0000
;

//---------------dance-single - ----------------
#NOTES:
     dance-single:
     :
     Easy:
     6:
     0.278,0.255,0.173,0.221,0.000,161.000,18.000,23.000,0.000,0.000,0.000,0.278,0.255,0.173,0.221,0.000,161.000,18.000,23.000,0.000,0.000,0.000:
0000
1001
0010
1000
,
1000
0001
0001
1000
,
1000
0200
0310
1000
,
0001
0001
1000
0001
,
0100
1010
0001
1000
,
0100
0010
0001
0100
,
1000
2000
3001
0010
,
0010
0001
0100
0000
,
2020
3030
0000
0110
0000
0000
0100
0000
0000
0100
0000
0000
,
0001
1000
0010
0100
,
0010
0000
0000
0000
0200
0000
0000
0300
0010
0000
0000
0000
0010
0000
0000
0000
,
1000
0000
0010
0000
0001
0000
0220
0330
,
2002
3003
0200
0000
0310
0000
1000
0000
,
0010
0001
0100
1000
,
0100
0020
0031
1100
,
1000
0101
0100
0010
,
0000
2000
3100
1001
,
0010
0001
0000
0010
,
0001
0001
0100
0010
,
0010
0100
0001
1000
,
0110
0000
0010
1000
,
0001
0001
1000
0001
,
0100
0000
0000
0000
1000
0000
0000
0000
0200
0000
0000
0300
0001
0000
0000
0000
,
0001
1000
0010
0010
,
0002
0003
0000
0000
1010
0000
0010
0000
,
0001
0100
1000
0010
,
0001
0100
1000
0000
,
0001
0100
1000
0001
,
0220
0330
1000
0001
,
0100
0001
0010
0000
,
1000
2000
3100
0001
,
0100
0010
0100
0001
,
0010
2000
3001
0001
,
0010
0001
0100
0001
,
1000
0000
0001
0010
,
1001
0001
0110
0010
,
1000
0002
0013
1000
,
1000
0100
1010
0001
,
0010
2000
3001
1000
,
0010
0001
0100
2000
,
0000
3100
0101
1000
,
1000
0001
0010
1000
,
0010
1001
0220
0000
,
0000
0000
0000
0000
,
0330
0001
0000
0000
;

//---------------dance-single - ----------------
#NOTES:
     dance-single:
     :
     Medium:
     8:
     0.411,0.364,0.192,0.279,0.000,250.000,20.000,29.000,0.000,0.000,0.000,0.411,0.364,0.192,0.279,0.000,250.000,20.000,29.000,0.000,0.000,0.000:
0000
0000
1001
0000
0010
0000
1000
0100
,
1000
0000
0001
0010
0001
0000
1000
1000
,
1000
0001
0200
0000
0310
0000
1000
0100
,
0001
0000
0001
0010
1000
0000
0101
0100
,
0101
0000
1010
0000
0001
0000
1000
0100
,
0100
0000
0001
0010
0010
0000
2000
3000
,
0020
0030
2000
0000
3001
0000
0010
0100
,
0010
0000
0001
1000
0100
0000
0000
0100
,
2020
0000
0000
0000
3030
0000
0000
0000
0000
0000
0000
0000
0002
0000
0000
0000
0000
0000
0000
0000
0000
0003
0000
0000
0100
0000
0000
0000
0000
0000
0000
0000
0000
0000
0000
0000
0100
0000
0000
0000
0000
0000
0100
0000
0000
0000
0000
0000
,
0001
0000
1000
1000
0010
0000
0000
0001
,
0010
0000
0001
0000
0200
0000
0000
0300
0010
0000
0010
0000
0010
0000
0000
0000
,
1000
0100
0010
0000
0001
0000
0220
0330
,
2002
3003
0200
0000
0310
0000
1000
0100
,
0010
0000
0010
0001
0100
1000
0010
0001
,
0100
0000
0020
0000
0031
0000
1100
0100
,
1000
0000
0101
0001
0100
0000
0010
0010
,
2000
0000
3000
0000
1100
0000
0010
0010
,
0010
0001
0001
1000
0000
0010
0010
0000
,
0001
0001
0001
2000
3100
0000
0010
0010
,
0010
1000
0100
0000
0001
0100
1000
0000
,
0110
0000
2000
0000
3010
0000
1000
0010
,
0001
0000
0001
0100
1000
0000
0001
0010
,
0100
0000
1000
0000
1000
0000
1000
0000
0200
0000
0000
0300
0001
0000
0001
0000
,
0001
0000
1000
1000
0010
0000
0010
0010
,
0002
0003
0000
0000
1010
0010
1000
0000
,
0001
0010
0001
0000
1000
0100
1000
0000
,
0002
0003
0020
0000
0130
0000
0100
0100
,
0001
0000
0100
0100
1000
0000
0001
0010
,
0100
1000
0110
0000
1000
0000
0001
0100
,
0100
0000
0001
0001
0010
0000
0000
0100
,
1000
0001
2000
0000
3100
0000
0001
0001
,
0100
0000
0010
1000
0100
0000
0001
0001
,
0010
1000
2000
0000
3001
0000
0001
0010
,
0010
0000
0010
0100
0100
0000
1000
0001
,
1000
0200
0000
0000
0301
0000
0010
0100
,
1001
0000
0001
0001
0011
0000
1000
0100
,
1000
1010
0002
0000
0013
0000
1000
0000
,
1000
0010
0001
0010
0011
0000
0001
0001
,
0001
1000
0200
0000
0301
0000
1000
0010
,
0110
0000
0001
1000
1100
0000
0002
0020
,
0000
0033
0100
0000
0101
0000
1000
0100
,
1000
0000
0001
0001
0010
0000
1000
0100
,
0010
0001
0000
0000
0010
1000
0010
1000
,
0001
0000
1000
0010
1000
0010
1000
0001
,
0100
2000
3001
0000
;

//---------------dance-single - ----------------
#NOTES:
     dance-single:
     :
     Hard:
     13:
     0.627,0.514,0.173,0.337,0.736,403.000,18.000,35.000,0.000,0.000,0.000,0.627,0.514,0.173,0.337,0.736,403.000,18.000,35.000,0.000,0.000,0.000:
0000
0000
0000
0000
1001
0000
0000
0000
0001
0000
0001
0100
0000
0001
0100
0000
,
0100
0000
1000
0010
0000
1000
0010
1000
0010
0000
0000
0100
0001
0100
0001
0000
,
2000
0000
3001
0000
0200
0000
0000
0000
0310
0000
0100
0010
0000
0100
0010
0000
,
0001
0000
0000
0000
0000
0000
1000
0000
0000
0001
0000
0000
0000
0000
0000
1000
0000
0000
0001
0000
0000
0000
0000
0000
1000
0000
0000
0000
0000
0000
0000
0000
0000
0000
0000
0000
0101
0000
0000
0000
0001
0000
0000
0000
0100
0000
0000
0000
,
0101
0000
0000
0000
1010
0000
0000
0000
0100
0000
0100
1000
0000
0100
0010
0000
,
0001
0000
0001
0100
0000
1000
0100
0000
0001
0000
0001
0100
0000
0010
1000
0000
,
2000
0000
3001
0000
0002
0000
0000
0000
1003
0000
0010
1000
0000
0100
1000
0000
,
0010
0000
0000
0000
0000
0000
0100
0000
0000
0010
0000
0000
0000
0000
0000
1000
0000
0000
0010
0000
0000
0000
0000
0000
0001
0000
0000
0000
0000
0000
0010
0000
0000
0000
0000
0000
1000
0000
0000
0000
0100
0000
0000
0000
0001
0000
0000
0000
,
2020
0000
0000
0000
3030
0000
0000
0000
0000
0000
0000
0000
0002
0000
0000
0000
0000
0000
0000
0000
0000
0003
0000
0000
0100
0000
0000
0000
0000
0000
0000
0000
0000
0100
0000
0000
0001
0000
0000
0100
0000
0000
0001
0000
0000
0000
0000
0000
,
1000
1000
0010
0000
0100
0001
0000
0000
0010
0000
0010
0100
0000
1000
0100
0000
,
1100
0000
0001
0000
0200
0000
0000
0300
1000
0000
1000
0100
0000
0001
0010
1000
,
0010
0100
1000
0100
0001
0010
2200
3300
,
0022
0000
0033
0000
0200
0000
0000
0000
0310
0000
0000
0100
0010
0000
0000
0001
,
0010
0000
0100
0010
0000
0100
0010
0100
0001
0000
1000
0100
0000
0001
0100
0001
,
0100
0000
0011
0000
2000
0000
0000
0000
3001
0000
0100
0010
0000
0100
0001
0000
,
0010
0000
0000
0000
0000
0000
0100
0000
0000
0010
0000
0000
0000
0000
0000
1000
0000
0000
0010
0000
0000
0000
0000
0000
0001
0000
0000
0000
0000
0000
0010
0000
0000
0000
0000
0000
0001
0000
0000
0000
0100
0000
0000
0000
0010
0000
0000
0000
,
2000
0000
0000
0000
3000
0000
0000
0000
0101
0000
0000
0000
0010
0000
0010
1000
,
0000
0100
1000
0000
0001
0010
0001
0010
0000
0100
0010
1000
0010
0000
0000
0100
,
0001
0100
0001
0000
0002
0000
1003
0000
0100
0000
1000
0010
0001
0000
0010
0100
,
0000
0010
0001
0000
0100
0000
1000
0100
0000
0001
0100
0000
1000
0000
0010
0000
,
0100
0000
0000
0000
0000
0000
0000
0000
0000
0000
0000
0000
0202
0000
0000
0000
0303
0000
0000
0000
0000
0000
0000
0000
2000
0000
0000
0000
3000
0000
0000
0000
0000
1000
0000
0000
0010
0000
0000
1000
0000
0000
0010
0000
0000
0001
0000
0000
,
0010
0000
0001
0010
0000
0001
0010
0000
1000
0000
1000
0010
0000
0100
0001
0000
,
0000
0001
0010
0000
0011
0000
1000
0000
0200
0000
0000
0300
0001
0000
0001
0100
,
0000
0001
0010
1000
0010
0000
1000
0010
0000
0001
0100
0000
0001
0000
0010
0000
,
2000
0000
3000
0000
0020
0000
0030
0000
1000
0000
1000
0010
0000
1000
0010
0000
,
0010
0000
0001
0100
0000
0001
0100
1000
0100
0000
0000
0010
1000
0010
0001
0000
,
0002
0000
1003
0000
0020
0000
0000
0000
0130
0000
0010
1000
0000
0010
0100
0000
,
1000
0000
0001
0100
0000
0001
1000
0000
0010
0000
0000
0000
0011
0001
0010
0001
,
0010
0100
1000
0000
0202
0000
0303
0000
1010
0000
0000
0100
0001
0000
0100
0001
,
0100
0000
0000
1000
0010
0000
1000
0001
0000
0000
0100
0000
0010
1000
0010
1000
,
0000
0000
0001
0000
2000
0000
0000
0000
3100
0000
0000
1000
0001
0010
0001
0100
,
0000
0010
1000
0000
0000
0010
1000
0000
0010
0000
0001
0000
0010
0000
1000
0100
,
0010
0001
0010
0100
2000
0000
0000
0000
3001
0000
0000
0100
0001
0000
0010
1000
,
0010
1000
0000
0000
0010
0001
0000
1000
0100
1000
0100
0000
0000
0001
0001
1000
,
0000
0010
0100
0020
0000
0000
0000
0000
1030
0000
1000
0010
0000
0001
0100
0000
,
0011
0000
0000
0000
0000
0000
0000
0000
0000
0100
0000
0000
1000
0000
0000
0000
0000
0000
0100
0000
0000
1000
0000
0000
0101
0000
0000
0000
0000
0000
0000
0000
0000
0000
0000
0000
0010
0000
0000
0000
0010
0000
0000
0000
1000
0000
0000
0000
,
0100
0000
0000
0000
0010
0000
0000
0000
0000
0000
0000
0000
0002
0000
0000
0000
0000
0000
0000
0000
0000
0000
0000
0000
0013
0000
0000
0000
0000
0000
0000
0000
0000
0001
0000
0000
0010
0000
0000
0000
0000
0000
0010
0000
0000
0001
0000
0000
,
0000
0010
0001
0000
0001
0000
0100
1000
0000
0100
0001
0100
0010
0000
0000
0001
,
0100
0001
1000
0000
0200
0000
0300
0000
1100
0000
0000
0010
0100
0010
0100
0000
,
0000
1000
0000
0010
0001
0100
0000
0000
0001
0010
0001
0010
1000
0000
0010
0000
,
0200
0000
0000
0000
0302
0000
0000
0000
1003
0000
0010
0100
0010
0100
0000
1000
,
0100
1000
0100
0000
0001
0000
0000
0010
0001
0010
0100
0000
0000
0000
1000
0001
,
0000
0001
0010
0100
2000
0000
3000
0000
0001
0010
0001
0010
0000
0100
1000
0100
,
1000
0000
0000
0010
1000
0010
1000
0000
0001
0100
0001
0100
0001
0000
0010
0100
,
0010
0100
1000
0000
2000
0000
0000
0000
3010
0000
0000
0000
0000
0000
0000
0000
;

//---------------dance-double - ----------------
#NOTES:
     dance-double:
     :
     Easy:
     6:
     0.327,0.278,0.173,0.221,0.000,197.000,18.000,23.000,0.000,0.000,0.000,0.327,0.278,0.173,0.221,0.000,197.000,18.000,23.000,0.000,0.000,0.000: // measure 0
00000000
00000000
00010000
01000000
,  // measure 1
10000000
01000000
00010000
01000000
,  // measure 2
00100000
00100000
00002000
00000000
00013000
00000000
00000100
00000000
,  // measure 3
00001000
00010000
00100000
00022000
,  // measure 4
00033000
00000110
00001000
00000010
,  // measure 5
00000001
00000010
00001000
00000010
,  // measure 6
00000100
00000100
00020000
00000000
00031000
00000000
00100000
00000000
,  // measure 7
00010000
00000000
00001000
00000000
00000100
00000000
00010000
00001000
,  // measure 8
00020000
01030000
10000000
00100000
,  // measure 9
00010000
00000000
01000000
00000000
10000000
00000000
01000000
00100000
,  // measure 10
00010000
00200000
00301000
00000100
,  // measure 11
00000001
00000010
00001000
00000020
,  // measure 12
00000032
00001003
00000110
00000001
,  // measure 13
00000100
00001000
00000010
00000001
,  // measure 14
00000010
00000100
00001000
00000000
00000200
00000000
00010300
00000000
,  // measure 15
00100000
10000000
01000000
00020000
,  // measure 16
02030000
13000000
10010000
01000000
,  // measure 17
00100000
01000000
00001000
00010000
,  // measure 18
00000100
00001000
00001001
00000010
,  // measure 19
00000100
00000010
00010000
00002000
,  // measure 20
00203000
01300000
10100000
00010000
,  // measure 21
00110000
00100000
00101000
00001000
,  // measure 22
00011000
00020000
00030100
00001000
,  // measure 23
00001010
00000000
00000010
00000000
00000110
00000000
00000100
00000001
,  // measure 24
00001000
00000100
00001000
00000010
,  // measure 25
00001000
00000100
00001000
00000000
00000100
00001000
00000100
00000000
,  // measure 26
00010000
00000000
00002000
00000000
01003000
00000000
00010000
00100000
,  // measure 27
00010000
00000000
00100000
00010000
00100000
00000000
00001000
00010000
,  // measure 28
00001000
00001000
00010000
00000000
00000100
00000000
00000010
00000000
,  // measure 29
00000001
00001000
00000100
00010000
,  // measure 30
01000000
10000000
20000000
00000000
30100000
00000000
01000000
00000000
,  // measure 31
10000000
00000000
00010000
00000000
00100000
00000000
00001000
00010000
,  // measure 32
00000100
00001000
00000020
00000000
00001030
00000000
00000100
00000000
,  // measure 33
00010000
00000000
00000100
00000000
00001000
00000000
00000001
00000001
,  // measure 34
00001000
00000200
00010300
00001000
,  // measure 35
00100000
00000000
00001000
00000000
00010000
00000000
01000000
00100000
,  // measure 36
00200000
10300000
01100000
00100000
,  // measure 37
01010000
00010000
01001000
00001000
,  // measure 38
00011000
00000020
00000130
00000100
,  // measure 39
00001010
00001000
00010010
00010000
,  // measure 40
00011000
00000000
00002000
00000000
00013000
00100000
00100000
00000000
,  // measure 41
10000000
00000000
01000000
00000000
00010000
00000000
00001000
00000010
,  // measure 42
00000010
00000000
00000002
00000000
00001003
00000100
00001000
00000100
,  // measure 43
00001000
00000100
00001000
00000000
00000001
00000000
00000100
00000000
,  // measure 44
00000010
00002000
00003000
00000000
;

//---------------dance-double - ----------------
#NOTES:
     dance-double:
     :
     Medium:
     9:
     0.471,0.364,0.115,0.250,0.048,305.000,12.000,26.000,0.000,0.000,0.000,0.471,0.364,0.115,0.250,0.048,305.000,12.000,26.000,0.000,0.000,0.000: // measure 0
00000000
00000000
00110000
00000000
01000000
00010000
00100000
00100000
,  // measure 1
00001000
00010000
00000100
00000100
00000010
00000001
00001000
00001000
,  // measure 2
00000001
00000001
00000200
00000000
00000310
00001000
00000100
00000100
,  // measure 3
00010000
00000000
00000000
00001000
00000000
00000000
00100000
00000000
00000000
00100000
00000000
00000000
01000000
00000000
00000000
10000000
00000000
00000000
00010000
00000000
10000000
00000000
00010000
00000000
,  // measure 4
10000000
00000000
02000000
00000000
03010000
00001000
00000010
00000000
,  // measure 5
00000010
00000100
00001000
00000000
00000100
00010000
01000000
00100000
,  // measure 6
00001000
00001000
00020000
00000000
00031000
00010000
01000000
00000000
,  // measure 7
01000000
00000000
00000000
00100000
00000000
00000000
00010000
00000000
00000000
00000000
00000000
00000000
00100000
00000000
00000000
00001000
00000000
00000000
00010000
00000000
00001000
00000000
00010000
00000000
,  // measure 8
00000100
00000100
00002000
00000000
00003100
00001000
00000010
00000100
,  // measure 9
00000010
00001000
00000100
00001000
00000010
00000100
00000010
00000010
,  // measure 10
00001000
00000100
00020000
00000000
00130000
00010000
01000000
00100000
,  // measure 11
01000000
00010000
00100000
00010000
01000000
00100000
20000000
00000000
,  // measure 12
30020000
00000000
02030000
00000000
03010000
00100000
00100000
00000000
,  // measure 13
00001000
01000000
01000000
00000000
00001000
00010000
00000100
00001000
,  // measure 14
00000001
00000001
00000020
00000000
00001030
00000100
00000100
00000000
,  // measure 15
00010000
00000000
00000000
00000010
00000000
00000000
00000010
00000000
00000000
00000000
00000000
00000000
00010000
00000000
00000000
00001000
00000000
00000000
00100000
00000000
00010000
00000000
10000000
00000000
,  // measure 16
02000000
20000000
33000000
00000000
00110000
01000000
00100000
01000000
,  // measure 17
00001000
00010000
00000100
00000010
00000001
00001000
00000100
00010000
,  // measure 18
00010000
00001000
00011000
00000000
00001100
00000010
00000100
00000010
,  // measure 19
00010000
00000000
00000000
00001000
00000000
00000000
00100000
00000000
00000000
01000000
00000000
00000000
10000000
00000000
00000000
00010000
00000000
00000000
00100000
00000000
00000000
00000000
00001000
00000000
,  // measure 20
00010000
00000000
00000000
00000000
00010000
00000000
00002000
00000000
00000000
00000000
00000000
00000000
00003100
00000000
00000000
00000001
00000000
00000000
00001000
00000000
00000000
00000100
00000000
00000000
,  // measure 21
00000001
00000100
00010000
00001000
01000000
00100000
10000000
00100000
,  // measure 22
00010000
00001000
00020000
00000000
00130000
10000000
00010000
00100000
,  // measure 23
10000000
00100000
00001000
00010000
00000010
00000100
00000002
00000000
,  // measure 24
00000000
00000000
00001003
00000000
00001001
00000000
00000100
00000100
,  // measure 25
00001001
00000000
00000010
00000000
00001001
00000000
00000100
00010000
,  // measure 26
00011000
00001000
02000000
00000000
03100000
00000000
00010000
00010000
,  // measure 27
01100000
00000000
10000000
10000000
01100000
00000000
00010000
00001000
,  // measure 28
00000010
00000001
00001100
00000000
00000010
00001000
00000100
00000100
,  // measure 29
00010000
00001000
00100000
00100000
01000000
10000000
00010000
00010000
,  // measure 30
10000000
10000000
00200000
00000000
01300000
00010000
00100000
00100000
,  // measure 31
00001000
00010000
00000100
00000100
00000010
00000001
00001000
00000100
,  // measure 32
00010000
00100000
02000000
00000000
03010000
00001000
00000010
00000000
,  // measure 33
00000010
00000100
00001000
00000000
00000100
00010000
01000000
00100000
,  // measure 34
00001000
00001000
00020000
00000000
00031000
00010000
01000000
00000000
,  // measure 35
01000000
00000000
00000000
00100000
00000000
00000000
00010000
00000000
00000000
00000000
00000000
00000000
00100000
00000000
00000000
00001000
00000000
00000000
00010000
00000000
00001000
00000000
00010000
00000000
,  // measure 36
00000100
00000100
00002000
00000000
00003100
00001000
00000010
00000100
,  // measure 37
00000010
00001000
00000100
00001000
00000010
00000100
00000010
00000010
,  // measure 38
00001000
00000100
00020000
00000000
00130000
00010000
01000000
00100000
,  // measure 39
01000000
00010000
00100000
00010000
01000000
00100000
20000000
00000000
,  // measure 40
30020000
00000000
02030000
00000000
03010000
00100000
00100000
00000000
,  // measure 41
00001000
01000000
01000000
00000000
00001000
00010000
00000100
00001000
,  // measure 42
00000001
00000001
00000020
00000000
00001030
00001000
00010000
00010000
,  // measure 43
00100000
00100000
10000000
10000000
01000000
01000000
00010000
00001000
,  // measure 44
00000010
00000001
00002002
00000000
00003003
00000000
00000000
00000000
;

//---------------dance-double - ----------------
#NOTES:
     dance-double:
     :
     Hard:
     13:
     0.709,0.642,0.154,0.231,1.000,476.000,16.000,24.000,0.000,0.000,0.000,0.709,0.642,0.154,0.231,1.000,476.000,16.000,24.000,0.000,0.000,0.000: // measure 0
00000000
00000000
00000000
00000000
00001001
00000000
00000000
00000000
00001000
00000100
00001000
00000010
00000000
00000100
00000010
00000100
,  // measure 1
00000000
00000001
00000100
00000001
00000000
00001000
00000100
00001000
00000000
00000100
00010000
00001000
00010000
00001000
00010000
00000000
,  // measure 2
00010000
00000000
01000000
00000000
20000000
00000000
00000000
00000000
30010000
00100000
00010000
01000000
00000000
00100000
01000000
00100000
,  // measure 3
00000000
00000000
00000000
10000000
00000000
00000000
00100000
00000000
00000000
10000000
00000000
00000000
00000000
00000000
00000000
00010000
00000000
00000000
00100000
00000000
00000000
00010000
00000000
00000000
00000000
00000000
00000000
00100000
00000000
00000000
00001000
00000000
00000000
00010000
00000000
00000000
00001000
00000000
00000000
00000000
00000100
00000000
00000000
00000000
00000001
00000000
00000000
00000000
,  // measure 4
00001001
00000000
00000000
00000000
00000000
00000000
00000000
00000000
00000000
00000000
00000000
00000000
00000220
00000000
00000000
00000000
00000000
00000000
00000000
00000000
00000330
00000000
00000000
00000000
00000001
00000000
00000000
00000000
00000000
00000000
00000100
00000000
00000000
00000001
00000000
00000000
00000000
00000000
00000000
00000001
00000000
00000000
00000100
00000000
00000000
00000000
00000000
00000000
,  // measure 5
00000010
00000000
00001000
00000010
00000000
00000010
00001000
00000000
00000100
00000000
00010000
00001000
00000000
00001000
00010000
01000000
,  // measure 6
20000000
00000000
30020000
00000000
02030000
00000000
00000000
00000000
03100000
00000000
00100000
10000000
00000000
10000000
00100000
00000000
,  // measure 7
01000000
00000000
00000000
00000000
00000000
00000000
00010000
00000000
00000000
01000000
00000000
00000000
00000000
00000000
00000000
01000000
00000000
00000000
00010000
00000000
00000000
00000000
00000000
00000000
00100000
00000000
00000000
00000000
00000000
00000000
00001000
00000000
00000000
00010000
00000000
00000000
00000010
00000000
00000000
00000000
00000100
00000000
00000000
00000000
00000010
00000000
00000000
00000000
,  // measure 8
00000220
00000000
00000000
00000000
00000000
00000000
00000000
00000000
00000330
00000000
00000000
00000000
00001001
00000000
00000000
00000000
00000000
00000000
00000000
00000000
00000000
00000000
00000000
00000000
00000001
00000000
00000000
00000010
00000000
00000000
00000100
00000000
00000000
00001000
00000000
00000000
00000000
00000000
00000000
00000001
00000000
00000000
00000100
00000000
00000000
00000001
00000000
00000000
,  // measure 9
00000000
00001000
00000100
00001000
00000000
00000001
00000010
00000001
00000000
00001000
00000010
00001000
00000100
00010000
00000100
00000000
,  // measure 10
00010000
00000000
01000000
00000000
10010000
00000000
00000000
00000000
10000000
01000000
00100000
00010000
00000000
10000000
00100000
10000000
,  // measure 11
00000000
00000000
00000000
00010000
00000000
00000000
00100000
00000000
00000000
00010000
00000000
00000000
00000000
00000000
00000000
10000000
00000000
00000000
01000000
00000000
00000000
10000000
00000000
00000000
00000000
00000000
00000000
00010000
00000000
00000000
01000000
00000000
00000000
00010000
00000000
00000000
00100000
00000000
00000000
00000000
00000000
00000000
00000000
00000000
00001000
00000000
00000000
00000000
,  // measure 12
00010000
00000000
00000000
00000000
00000000
00000000
00000000
00000000
00000010
00000000
00000000
00000000
00000200
00000000
00000000
00000000
00000000
00000000
00000000
00000000
00000000
00000000
00000000
00000000
00000301
00000000
00000000
00000010
00000000
00000000
00000001
00000000
00000000
00001000
00000000
00000000
00000000
00000000
00000000
00000100
00000000
00000000
00001000
00000000
00000000
00000010
00000000
00000000
,  // measure 13
00001000
00000001
00001000
00000100
00000000
00000010
00000001
00000100
00000001
00000010
00000001
00001000
00000100
00010000
00001000
00000000
,  // measure 14
00001000
00100000
01000000
00000000
02000000
00000000
00000000
00000000
13000000
01000000
10000000
00010000
00000000
00100000
00010000
01000000
,  // measure 15
00010000
10000000
00010000
00100000
00000000
01000000
10000000
00100000
10000000
01000000
10000000
00010000
00100000
00001000
00010000
00001000
,  // measure 16
00010000
00000100
00000010
00000100
00000020
00000000
00000000
00000000
00001030
00010000
00100000
00010000
00000000
00001000
00000100
00001000
,  // measure 17
00000000
00010000
00100000
00010000
00000000
00001000
00000100
00001000
00000000
00010000
00100000
00010000
00000000
00001000
00000100
00000001
,  // measure 18
00000010
00000000
00000010
00000000
00000200
00000000
00000000
00000000
00010300
00001000
00000010
00001000
00000000
00010000
01000000
00010000
,  // measure 19
00000000
00000000
00000000
00001000
00000000
00000000
00000010
00000000
00000000
00001000
00000000
00000000
00000000
00000000
00000000
00010000
00000000
00000000
01000000
00000000
00000000
00010000
00000000
00000000
00000000
00000000
00000000
00001000
00000000
00000000
00000010
00000000
00000000
00001000
00000000
00000000
00010000
00000000
00000000
00000000
00000000
00000000
00000000
00000000
01000000
00000000
00000000
00000000
,  // measure 20
10000000
00000000
00000000
00000000
00020000
00000000
00000000
00000000
01030000
00010000
01000000
00010000
00000000
10000000
00100000
10000000
,  // measure 21
00010000
01000000
00001000
00010000
00000000
00001000
00010000
00000010
00001000
00000001
00000100
00000001
00001000
00000100
00001000
00000000
,  // measure 22
00001000
00000000
00000100
00000000
00020000
00000000
00000000
00000000
00030010
00001000
00000010
00001000
00000000
00000001
00000100
00000001
,  // measure 23
00001000
00000000
00000000
00000010
00000000
00000000
00010000
00000000
00000000
00001000
00000000
00000000
00000000
00000000
00000000
00010000
00000000
00000000
00001000
00000000
00000000
01000000
00000000
00000000
00010000
00000000
00000000
10000000
00000000
00000000
00100000
00000000
00000000
10000000
00000000
00000000
01000000
00000000
00000000
00000000
00000000
00000000
00000000
00000000
00100000
00000000
00000000
00000000
,  // measure 24
00020000
00000000
10030000
00000000
00110000
01000000
10000000
01000000
,  // measure 25
00101000
00010000
01000000
00010000
01100000
00010000
00001000
00010000
,  // measure 26
00001010
00001010
00000200
00000300
00001100
00000010
00000001
00000010
,  // measure 27
00010100
00000000
00001000
00000000
00000010
00000000
00001000
00000000
00000110
00000000
00001000
00000000
00000001
00000000
00001000
00000100
,  // measure 28
00010000
00001000
01000000
00000000
01100000
00000000
00000000
00000000
10000000
00100000
01000000
00010000
00000000
01000000
00001000
01000000
,  // measure 29
00000000
00010000
00100000
00010000
00000000
10000000
00100000
10000000
00000000
00010000
00100000
00001000
00000000
00001000
00000100
00000000
,  // measure 30
00000001
00000000
00000001
00000000
00002000
00000000
00003000
00000000
00000001
00000100
00000010
00001000
00000000
00000010
00010000
00000010
,  // measure 31
00000000
00001000
00000100
00001000
00000000
00000001
00000100
00000001
00000000
00001000
00000100
00010000
00001000
00000000
00001000
00100000
,  // measure 32
00010000
01000000
00100000
00000000
02000000
00000000
00000000
00000000
03010000
00100000
00010000
01000000
00000000
00100000
01000000
00100000
,  // measure 33
00000000
10000000
00100000
10000000
00000000
00010000
00100000
00010000
00000000
00100000
00001000
00010000
00001000
00010000
00000100
00000000
,  // measure 34
00000100
00001000
00000100
00001000
00000002
00000000
00000000
00000000
00001003
00000100
00001000
00000010
00000000
00000100
00000010
00000100
,  // measure 35
00000000
00000000
00000000
00000001
00000000
00000000
00000100
00000000
00000000
00000001
00000000
00000000
00000000
00000000
00000000
00001000
00000000
00000000
00000100
00000000
00000000
00001000
00000000
00000000
00000000
00000000
00000000
00000100
00000000
00000000
00010000
00000000
00000000
00001000
00000000
00000000
00010000
00000000
00000000
00000000
01000000
00000000
00000000
00000000
10000000
00000000
00000000
00000000
,  // measure 36
01010000
00000000
00001000
00000000
00000020
00000000
00000000
00000000
00000031
00000000
00000100
00000001
00000000
00000001
00000100
00000000
,  // measure 37
00000010
00000000
00001000
00000010
00000000
00000010
00001000
00000000
00000100
00000000
00010000
00001000
00000000
00001000
00010000
01000000
,  // measure 38
10000000
00000000
00010000
00000000
02000000
00000000
00000000
00000000
03100000
00000000
00100000
10000000
00000000
10000000
00100000
00000000
,  // measure 39
01000000
00000000
00000000
00000000
00000000
00000000
00010000
00000000
00000000
01000000
00000000
00000000
00000000
00000000
00000000
01000000
00000000
00000000
00010000
00000000
00000000
00000000
00000000
00000000
00100000
00000000
00000000
00000000
00000000
00000000
00001000
00000000
00000000
00010000
00000000
00000000
00000010
00000000
00000000
00000000
00000000
00000000
00000000
00000000
00010000
00000000
00000000
00000000
,  // measure 40
00001000
00000000
00000000
00000000
00000000
00000000
00000000
00000000
00000100
00000000
00000000
00000000
00020000
00000000
00000000
00000000
00000000
00000000
00000000
00000000
00000000
00000000
00000000
00000000
01030000
00000000
00000000
10000000
00000000
00000000
00100000
00000000
00000000
01000000
00000000
00000000
00000000
00000000
00000000
00010000
00000000
00000000
00100000
00000000
00000000
01000000
00000000
00000000
,  // measure 41
00000000
10000000
00100000
01000000
00000000
00010000
00100000
01000000
00000000
10000000
00100000
01000000
00010000
00100000
00010000
00000000
,  // measure 42
10000000
01000000
10000000
01000000
20000000
00000000
00000000
00000000
30010000
01000000
00010000
01000000
00001000
00010000
00001000
00010000
,  // measure 43
00000100
00001000
00000100
00001000
00000001
00001000
00000010
00000100
00000001
00001000
00000100
00000010
00000100
00010000
00001000
00100000
,  // measure 44
01000000
10000000
00010000
01000000
00200000
00000000
00000000
00000000
00300000
00000000
00000000
00000000
00000000
00000000
00000000
00000000
;
