#TITLE:Dual Love;
#SUBTITLE:;
#ARTIST:Gavin G & Dan Rolla J;
#TITLETRANSLIT:;
#SUBTITLETRANSLIT:;
#ARTISTTRANSLIT:;
#GENRE:;
#CREDIT:;
#BANNER:Dual Love.png;
#BACKGROUND:Dual Love-bg.png;
#LYRICSPATH:;
#CDTITLE:./CDTITLES/Dance Dance Revolution ULTRAMIX4.png;
#MUSIC:Dual Love.mp3;
#OFFSET:-0.050;
#SAMPLESTART:45.715;
#SAMPLELENGTH:15.000;
#SELECTABLE:YES;
#DISPLAYBPM:167.000;
#BPMS:0.000=168.006
,248.000=151.260
;
#STOPS:
;
#BGCHANGES:;
#KEYSOUNDS:;
#ATTACKS:;

//---------------dance-single - ----------------
#NOTES:
     dance-single:
     :
     Beginner:
     3:
     0.152,0.138,0.044,0.055,0.000,88.000,4.000,5.000,0.000,0.000,0.000,0.152,0.138,0.044,0.055,0.000,88.000,4.000,5.000,0.000,0.000,0.000: // measure 0
0000
0000
0000
0000
,  // measure 1
0000
0000
0000
0000
,  // measure 2
0000
0000
0000
0000
,  // measure 3
0000
0000
0000
0000
,  // measure 4
1000
0000
0000
0000
,  // measure 5
0001
0000
0000
0000
,  // measure 6
1000
0000
0000
0000
,  // measure 7
1001
0000
0000
0000
,  // measure 8
0010
0000
0000
0000
,  // measure 9
0100
0000
0000
0000
,  // measure 10
0001
0000
0000
0000
,  // measure 11
0001
0000
0000
0000
,  // measure 12
0010
0000
0000
0000
,  // measure 13
0100
0000
0000
0000
,  // measure 14
1000
0000
0000
0000
,  // measure 15
1000
0000
0000
0000
,  // measure 16
1001
0000
1000
0000
,  // measure 17
1000
0000
0000
0000
,  // measure 18
0010
0000
0010
0000
,  // measure 19
0010
0000
0000
0000
,  // measure 20
0100
0000
0100
0000
,  // measure 21
0100
0000
0000
0000
,  // measure 22
0001
0000
0000
0000
,  // measure 23
1000
0000
0000
0000
,  // measure 24
1001
0000
0001
0000
,  // measure 25
0001
0000
0000
0000
,  // measure 26
0010
0000
0010
0000
,  // measure 27
0010
0000
0000
0000
,  // measure 28
0100
0000
0100
0000
,  // measure 29
0100
0000
0100
0000
,  // measure 30
0110
0000
0000
0000
,  // measure 31
0000
0000
0000
0000
,  // measure 32
1000
0000
0001
0000
,  // measure 33
1000
0000
1000
0000
,  // measure 34
0010
0000
0100
0000
,  // measure 35
0010
0000
0010
0000
,  // measure 36
0200
0000
0000
0300
,  // measure 37
0100
0000
0000
0000
,  // measure 38
0001
0000
1000
0000
,  // measure 39
0001
0000
1000
0000
,  // measure 40
0010
0000
0100
0000
,  // measure 41
0010
0000
0010
0000
,  // measure 42
1000
0000
0001
0000
,  // measure 43
1000
0000
1000
0000
,  // measure 44
0200
0000
0000
0300
,  // measure 45
0100
0000
0000
0000
,  // measure 46
1000
0000
0001
0000
,  // measure 47
1000
0000
0001
0000
,  // measure 48
0100
0000
0100
0000
,  // measure 49
0010
0000
0010
0000
,  // measure 50
1000
0000
1000
0000
,  // measure 51
0001
0000
0001
0000
,  // measure 52
2000
0000
0000
3000
,  // measure 53
1000
0000
0000
0000
,  // measure 54
0010
0000
0100
0000
,  // measure 55
0010
0000
0100
0000
,  // measure 56
0001
0000
0001
0000
,  // measure 57
1000
0000
1000
0000
,  // measure 58
0100
0000
0100
0000
,  // measure 59
0010
0000
0010
0000
,  // measure 60
0002
0000
0000
0003
,  // measure 61
0001
0000
0000
0000
,  // measure 62
2000
0000
0000
3000
,  // measure 63
1000
0000
0000
0000
;

//---------------dance-single - ----------------
#NOTES:
     dance-single:
     :
     Easy:
     5:
     0.242,0.276,0.088,0.187,0.000,129.000,8.000,17.000,0.000,0.000,0.000,0.242,0.276,0.088,0.187,0.000,129.000,8.000,17.000,0.000,0.000,0.000:
0000
0000
0000
0000
,
0000
0000
0000
0000
,
0000
0000
0000
0000
,
0000
0000
0000
0000
,
0000
1000
0000
0001
,
0000
1000
0000
0001
,
0000
0010
0000
0100
,
0220
0000
0000
0330
,
0200
0000
0300
0000
,
0020
0000
0030
0000
,
0002
0000
0003
0000
,
2000
0000
3000
0000
,
0020
0000
0130
0000
,
0002
0000
0013
0000
,
0200
0000
1300
0001
,
1001
0000
0000
1001
,
1001
0000
0010
0000
,
0100
0000
1000
0000
,
1000
0000
0010
0000
,
0100
0000
0001
0000
,
0002
0000
0000
0003
,
2000
0000
0000
3000
,
0001
0000
1000
0000
,
0001
0000
1000
0000
,
1001
0000
0010
0000
,
0100
0000
1000
1000
,
0001
0000
0010
0000
,
0100
0000
1000
1000
,
0010
0000
0100
0000
,
0001
0000
0010
0010
,
0220
0000
0000
0330
,
0000
0000
0000
0000
,
1000
0100
1000
0010
,
0000
0100
0000
0010
,
0000
0100
0001
1000
,
0000
0001
0000
1000
,
0100
0000
0100
0100
,
0010
0000
0001
0001
,
0100
0000
0001
0001
,
0010
0000
0100
0100
,
1000
0010
1000
0100
,
0000
0010
0000
0100
,
0000
0010
0001
1000
,
0000
0001
0000
1000
,
0010
0000
0010
0010
,
0100
0000
0001
0001
,
0010
0000
0001
0001
,
0100
0000
0010
0010
,
1000
0000
0001
0000
,
1000
0100
1000
0000
,
0001
0100
0001
0000
,
1000
0100
1000
0001
,
0200
0000
0000
0300
,
0020
0000
0000
0030
,
0100
0000
0100
0000
,
0001
0000
1000
0000
,
1001
0000
0100
0000
,
0010
0001
0010
0000
,
0100
0000
1000
0000
,
0010
1000
0010
0000
,
0100
0000
0100
0000
,
0010
0000
0010
0000
,
2002
0000
0000
3003
;

//---------------dance-single - ----------------
#NOTES:
     dance-single:
     :
     Medium:
     9:
     0.412,0.414,0.252,0.121,0.000,229.000,23.000,11.000,0.000,0.000,0.000,0.412,0.414,0.252,0.121,0.000,229.000,23.000,11.000,0.000,0.000,0.000:
0000
0000
0000
0000
,
0000
0000
0000
0000
,
0000
0000
0000
0000
,
0000
0000
0000
0000
0000
1100
0000
1100
,
0000
0000
0000
0000
0000
0101
0000
0101
,
0000
0000
0000
0000
0000
0011
0000
1001
,
0000
0000
0000
0000
0000
1010
0000
2002
,
0000
0000
3003
0000
0000
1001
0000
1001
,
0001
0010
0100
1000
,
0001
0100
1000
0100
,
0001
1000
0100
0010
,
0100
0000
1000
0000
0001
0000
0100
0010
,
0100
0001
0000
0001
0000
0001
0000
0001
,
1000
0100
0000
0100
0000
0100
0000
0100
,
0010
0001
0000
0001
0000
0001
0000
0001
,
0100
0020
0000
0030
0000
0110
0000
1001
,
0001
0000
0000
0001
0000
0000
0001
0000
,
0001
0000
0000
0001
0000
0000
0001
0000
,
0010
0000
0000
0010
0000
0000
0010
0000
,
0010
0000
0000
0010
0000
0000
0010
0000
,
0100
0000
0000
0100
0000
0000
0100
0000
,
0100
0000
0000
0100
0000
0000
0100
0000
,
1000
0000
0000
1000
0000
0000
1000
0000
,
0001
0000
0000
0001
0000
0000
0001
0000
,
1001
0000
0000
0001
0000
0000
0010
0000
,
0100
0000
0000
0100
0000
0000
1000
0000
,
0001
0000
0000
0001
0000
0000
0100
0000
,
0010
0000
0000
0010
0000
0000
1000
0000
,
0001
0001
0001
0001
,
1000
0000
1000
0000
1000
0000
0001
1000
,
0000
0010
0000
0010
0000
0100
0000
0100
,
0000
0001
0000
0001
0000
0000
0000
0000
,
1001
0001
0001
0010
,
0010
0100
0000
1000
0000
0001
0000
1000
,
0010
1000
1000
0010
,
0010
0100
0000
0001
0000
1000
0000
0001
,
0020
0100
0100
0130
,
2000
0001
0001
3001
,
0010
0011
1000
1100
,
0001
0101
0010
1010
,
1001
0001
0001
0100
,
0100
0000
0010
1000
0000
0001
0000
1000
,
0100
0010
0010
0001
,
0001
0000
0100
0001
0000
1000
0000
0001
,
0020
0001
0001
0031
,
2000
0100
0100
3100
,
1000
1010
0001
0101
,
1000
1100
0010
0011
,
1000
0000
0001
0000
0100
0000
0010
1000
,
0000
0100
0000
0010
0001
0000
0001
0100
,
0000
0010
0000
0100
0001
0000
0001
0010
,
0000
0100
0000
0010
0001
0000
0001
0100
,
0020
1000
1000
1030
,
0002
0000
0100
0000
0100
0000
0103
0010
,
0000
1000
0000
0001
0000
1000
0000
0100
,
0000
0001
0000
0100
0000
1000
0000
0001
,
1000
0010
0100
0010
,
1000
0000
0001
0010
0000
0100
0000
0010
,
0001
1000
0100
0010
,
0001
0000
1000
0001
0000
0100
0010
0200
,
0000
0000
0000
0000
0000
0000
0300
0020
,
0000
0000
0000
0000
0030
1000
0001
1000
,
0000
0000
1000
0001
0000
0000
0001
1000
;

//---------------dance-single - ----------------
#NOTES:
     dance-single:
     :
     Hard:
     11:
     0.635,0.553,0.461,0.362,0.000,330.000,42.000,33.000,0.000,0.000,0.000,0.635,0.553,0.461,0.362,0.000,330.000,42.000,33.000,0.000,0.000,0.000:
0000
0000
0000
0000
,
0000
0000
0000
0000
,
0000
0000
0000
0000
,
0000
0000
0000
0000
,
1000
1100
0001
0101
,
1000
1100
0001
0101
,
0011
1010
1100
0110
,
2002
0000
0000
0003
0000
3001
0000
1000
,
0001
0100
0001
0010
0001
0100
0001
0010
,
0100
0001
0100
0010
0100
0001
0100
1000
,
0010
0001
0010
1000
0010
0001
0010
0100
,
1000
0100
0001
0100
1000
0100
0001
1000
,
0010
0100
0010
1000
0010
0100
0010
1000
,
0001
0010
0100
0010
0001
0010
0100
0010
,
0001
0100
1000
0100
0001
0100
1000
0100
,
0002
2000
0000
0003
0000
3001
0000
1000
,
1001
0200
0000
0000
0300
0020
0000
0000
,
0030
0002
0000
0000
0003
2000
0000
3002
,
0000
2003
0000
0000
3000
0020
0000
0000
,
0030
0200
0000
0000
0300
0002
0000
0023
,
0000
0032
0000
0000
0003
2000
0000
0000
,
0000
3020
0000
0000
0030
2000
0000
3200
,
0000
2300
0000
0000
3000
0002
0000
0000
,
0003
0200
0000
0000
0300
0001
0000
0010
,
1001
0001
0001
0010
,
0010
0100
0100
0100
,
0100
1000
1000
0001
,
0001
0000
0100
0000
0100
0000
0100
0001
,
0000
0101
0000
0101
0000
1100
0000
1100
,
0000
0110
0000
0110
0000
1001
0100
0010
,
2002
0000
0000
0000
0000
3003
0000
0010
,
0000
0100
0000
1000
0000
0000
0000
0000
,
0001
1000
0001
1000
0001
0100
0001
0100
,
0001
0010
0001
0010
0001
1000
0001
1000
,
0100
0010
0100
0010
0100
0001
0100
0001
,
0100
1000
0100
1000
0100
0010
0100
0010
,
0001
0100
0001
0100
0001
0010
0001
0010
,
0001
1000
0001
1000
0001
0100
0001
0100
,
0010
1000
0010
1000
0010
0100
0010
0100
,
0010
0001
0010
0001
0010
1000
0010
1000
,
0001
0010
0001
1000
0001
0100
0001
0010
,
0001
0100
0001
1000
0001
0010
0001
1000
,
0100
0010
0100
0001
0100
1000
0100
0010
,
0100
1000
0100
0001
0100
0010
0100
1000
,
0001
0010
0001
0100
0001
1000
0001
0010
,
0001
1000
0001
0100
0001
0010
0001
1000
,
0010
0100
0010
0001
0010
1000
0010
0100
,
0010
1000
0010
0001
0010
0100
0010
1000
,
0001
1100
1000
0101
,
0001
0000
1010
0000
1000
0000
0011
0100
,
0000
0110
0000
0110
0000
1100
0000
1100
,
0000
0101
0000
1001
0000
0011
0000
0001
,
1000
0100
1000
0010
1000
0001
1000
0100
,
1000
0001
1000
0010
1000
0100
1000
0001
,
0100
0010
0100
1000
0100
0001
0100
0010
,
0100
0001
0100
1000
0100
0010
0100
0001
,
1000
0101
0001
1100
,
1000
0000
0011
0000
0001
0000
1010
0100
,
0000
0110
0000
0110
0000
0101
0000
0101
,
0000
1100
0000
1001
0000
1010
0000
1000
,
0001
0200
0000
0320
0000
2030
0000
3200
,
0000
0320
0000
0032
0000
0203
0000
0310
,
2002
0000
0000
0000
,
3003
0000
0000
0000
;

//---------------dance-double - ----------------
#NOTES:
     dance-double:
     :
     Beginner:
     1:
     0.151,0.138,0.044,0.055,0.000,87.000,4.000,5.000,0.000,0.000,0.000,0.151,0.138,0.044,0.055,0.000,87.000,4.000,5.000,0.000,0.000,0.000:
00000000
00000000
00000000
00000000
,
00000000
00000000
00000000
00000000
,
00000000
00000000
00000000
00000000
,
00000000
00000000
00000000
00000000
,
00010000
00000000
00000000
00000000
,
00001000
00000000
00000000
00000000
,
00000000
00000000
00000000
00000000
,
00011000
00000000
00000000
00000000
,
00000010
00000000
00000000
00000000
,
00000100
00000000
00000000
00000000
,
00000001
00000000
00000000
00000000
,
00000001
00000000
00000000
00000000
,
00000010
00000000
00000000
00000000
,
00001000
00000000
00000000
00000000
,
00010000
00000000
00000000
00000000
,
00010000
00000000
00000000
00000000
,
00011000
00000000
00001000
00000000
,
00001000
00000000
00000000
00000000
,
00100000
00000000
00100000
00000000
,
00100000
00000000
00000000
00000000
,
00010000
00000000
00010000
00000000
,
00010000
00000000
00000000
00000000
,
01000000
00000000
00000000
00000000
,
00100000
00000000
00000000
00000000
,
01100000
00000000
00100000
00000000
,
00100000
00000000
00000000
00000000
,
00001000
00000000
00001000
00000000
,
00001000
00000000
00000000
00000000
,
00010000
00000000
00010000
00000000
,
00001000
00000000
00001000
00000000
,
00011000
00000000
00000000
00000000
,
00000000
00000000
00000000
00000000
,
00001000
00000000
00000001
00000000
,
00001000
00000000
00001000
00000000
,
00000100
00000000
00000010
00000000
,
00000100
00000000
00000100
00000000
,
00000020
00000000
00000000
00000030
,
00000010
00000000
00000000
00000000
,
00000001
00000000
00000100
00000000
,
00001000
00000000
00010000
00000000
,
01000000
00000000
00100000
00000000
,
01000000
00000000
01000000
00000000
,
10000000
00000000
00010000
00000000
,
10000000
00000000
10000000
00000000
,
00200000
00000000
00000000
00300000
,
00100000
00000000
00000000
00000000
,
10000000
00000000
01000000
00000000
,
00010000
00000000
00001000
00000000
,
00010000
00000000
00010000
00000000
,
00000100
00000000
00000100
00000000
,
00001000
00000000
00001000
00000000
,
00000001
00000000
00000001
00000000
,
00000200
00000000
00000000
00000300
,
00000100
00000000
00000000
00000000
,
00000001
00000000
00000010
00000000
,
00001000
00000000
00010000
00000000
,
00001000
00000000
00001000
00000000
,
00100000
00000000
00100000
00000000
,
00010000
00000000
00010000
00000000
,
10000000
00000000
10000000
00000000
,
02000000
00000000
00000000
03000000
,
01000000
00000000
00000000
00000000
,
00200000
00000000
00000000
00300000
,
00100000
00000000
00000000
00000000
;

//---------------dance-double - ----------------
#NOTES:
     dance-double:
     :
     Easy:
     3:
     0.240,0.276,0.099,0.209,0.000,125.000,9.000,19.000,0.000,0.000,0.000,0.240,0.276,0.099,0.209,0.000,125.000,9.000,19.000,0.000,0.000,0.000:
00000000
00000000
00000000
00000000
,
00000000
00000000
00000000
00000000
,
00000000
00000000
00000000
00000000
,
00000000
00000000
00000000
00000000
,
00000000
00000001
00000000
00001000
,
00000000
00000001
00000000
00001000
,
00000000
00000100
00000000
00010000
,
00022000
00000000
00033000
00000000
,
00002000
00000000
00003000
00000000
,
00020000
00000000
00030000
00000000
,
02000000
00000000
03000000
00000000
,
00200000
00000000
00300000
00000000
,
02000000
00000000
03010000
00000000
,
00002000
00000000
00003100
00000000
,
00000002
00000000
00001003
00000001
,
00001001
00000000
00000000
00011000
,
00011000
00000000
00001000
00000000
,
00100000
00000000
00010000
00000000
,
10000000
00000000
00100000
00000000
,
01000000
00000000
00100000
00000000
,
00020000
00000000
00000000
00030000
,
00002000
00000000
00000000
00003000
,
00010000
00000000
00000100
00000000
,
00001000
00000000
00000001
00000000
,
00001001
00000000
00001000
00000000
,
00000010
00000000
00000100
00000100
,
00000010
00000000
00001000
00000000
,
00000100
00000000
00010000
00010000
,
00001000
00000000
00100000
00000000
,
00010000
00000000
01000000
01000000
,
02200000
00000000
00000000
03300000
,
00000000
00000000
00000000
00000000
,
10000000
00010000
10000000
00100000
,
00000000
00010000
00000000
00001000
,
00000000
00000010
00000001
00001000
,
00000000
00000010
00000000
00000100
,
00002000
00000000
00000000
00000000
,
00013000
00000000
00001000
00010000
,
00001000
00000000
00100000
00010000
,
00100000
00000000
01000000
10000000
,
00010000
10000000
00010000
00100000
,
00000000
00001000
00000000
00010000
,
00000000
00000010
00001000
00000001
,
00000000
00000100
00000000
00001000
,
00020000
00000000
00000000
00000000
,
00031000
00000000
00010000
00001000
,
00010000
00000000
01000000
10000000
,
01000000
00000000
01000000
10000000
,
10010000
00000000
01000000
00000000
,
00100000
01000000
00100000
00000000
,
00001000
00010000
00001000
00000000
,
00000100
00000010
00000100
00000001
,
00002000
00000000
00000000
00003000
,
00000002
00000000
00000000
00000003
,
00000010
00000000
00000010
00000000
,
00001000
00000000
00010000
00000000
,
00011000
00000000
00010000
00000000
,
00001000
00100000
00010000
00000000
,
01000000
00000000
10000000
00000000
,
01000000
00010000
00100000
00000000
,
01000000
00000000
00010000
00000000
,
00001000
00000000
00000100
00000000
,
00000220
00000000
00000000
00000330
;

//---------------dance-double - ----------------
#NOTES:
     dance-double:
     :
     Medium:
     5:
     0.409,0.414,0.252,0.099,0.000,229.000,23.000,9.000,0.000,0.000,0.000,0.409,0.414,0.252,0.099,0.000,229.000,23.000,9.000,0.000,0.000,0.000:
00000000
00000000
00000000
00000000
,
00000000
00000000
00000000
00000000
,
00000000
00000000
00000000
00000000
,
00000000
00000000
00000000
00000000
00000000
10010000
00000000
10010000
,
00000000
00000000
00000000
00000000
00000000
01010000
00000000
01010000
,
00000000
00000000
00000000
00000000
00000000
00011000
00000000
00011000
,
00000000
00000000
00000000
00000000
00000000
00001100
00000000
00001100
,
00000000
00000000
00000000
00000000
00000000
00001001
00000000
00001001
,
00000100
00000001
00000100
00001000
,
00010000
01000000
10000000
01000000
,
00100000
00010000
01000000
00100000
,
01000000
00000000
00001000
00000000
00010000
00000000
00001000
00010000
,
00000100
00001000
00000000
00001000
00000000
00001000
00000000
00001000
,
00000010
00000100
00000000
00000100
00000000
00000100
00000000
00000100
,
00000001
00000010
00000000
00000010
00000000
00000010
00000000
00000010
,
00001000
00020000
00000000
00030000
00000000
00011000
00000000
00011000
,
00010000
00000000
00000000
00001000
00000000
00000000
00010000
00000000
,
00100000
00000000
00000000
10000000
00000000
00000000
00100000
00000000
,
00010000
00000000
00000000
00001000
00000000
00000000
00000100
00000000
,
00000001
00000000
00000000
00000100
00000000
00000000
00001000
00000000
,
00010000
00000000
00000000
01000000
00000000
00000000
10000000
00000000
,
01000000
00000000
00000000
00010000
00000000
00000000
00001000
00000000
,
00000010
00000000
00000000
00000001
00000000
00000000
00000010
00000000
,
00001000
00000000
00000000
00010000
00000000
00000000
00001000
00000000
,
00011000
00000000
00000000
00010000
00000000
00000000
00100000
00000000
,
10000000
00000000
00000000
01000000
00000000
00000000
00010000
00000000
,
00001000
00000000
00000000
00000100
00000000
00000000
00000001
00000000
,
00000010
00000000
00000000
00001000
00000000
00000000
00010000
00000000
,
00001000
00001000
00001000
00001000
,
00010000
00000000
00010000
00000000
00010000
00000000
00010000
01000000
,
00000000
10000000
00000000
10000000
00000000
00010000
00000000
00010000
,
00000000
01000000
00000000
01000000
00000000
00000000
00000000
00000000
,
10010000
00010000
00010000
00100000
,
00100000
00001000
00000000
00010000
00000000
00001000
00000000
00010000
,
00000100
00001000
00001000
00000001
,
00000001
00000100
00000000
00000010
00000000
00000100
00000000
00000010
,
00002000
00000100
00000100
00003100
,
00020000
00001000
00001000
00031000
,
00010000
01010000
10000000
10100000
,
00010000
00110000
10000000
10100000
,
10010000
00010000
00010000
01000000
,
01000000
00000000
00100000
00010000
00000000
00001000
00000000
00010000
,
00001000
00000100
00000100
00000001
,
00000001
00000000
00001000
00000001
00000000
00001000
00000000
00000100
,
00020000
00001000
00001000
00031000
,
00200000
00010000
00010000
00310000
,
10000000
10100000
01000000
11000000
,
00010000
01010000
10000000
11000000
,
00100000
00000000
00010000
00000000
01000000
00000000
00100000
10000000
,
00000000
01000000
00000000
00100000
00001000
00000000
00001000
00100000
,
00000000
00001000
00000000
00010000
00000100
00000000
00000100
00010000
,
00000000
00000100
00000000
00001000
00000001
00000000
00000001
00001000
,
00000200
00000010
00000010
00000310
,
00000002
00000000
00001000
00000000
00001000
00000000
00001003
00000100
,
00000000
00000010
00000000
00000001
00000000
00000100
00000000
00001000
,
00000000
00010000
00000000
01000000
00000000
10000000
00000000
00010000
,
10000000
00100000
01000000
00100000
,
00010000
00000000
00001000
00010000
00000000
00001000
00000000
00010000
,
00000100
00001000
00000100
00000010
,
00000001
00000000
00000100
00000010
00000000
00001000
00000100
00020000
,
00000000
00000000
00000000
00000000
00000000
00000000
00000000
00032000
,
00000000
00000000
00000000
00000000
00003000
00010000
00001000
00000100
,
00000000
00000000
00000001
00000100
00000000
00000000
00001000
00010000
;

//---------------dance-double - ----------------
#NOTES:
     dance-double:
     :
     Hard:
     8:
     0.602,0.553,0.373,0.439,0.011,310.000,34.000,40.000,0.000,0.000,0.000,0.602,0.553,0.373,0.439,0.011,310.000,34.000,40.000,0.000,0.000,0.000:
00000000
00000000
00000000
00000000
,
00000000
00000000
00000000
00000000
,
00000000
00000000
00000000
00000000
,
00000000
00000000
00000000
00000000
,
00001001
00000010
00000110
00001000
,
00011000
00100000
00011000
00000100
,
00011000
01010000
11000000
10100000
,
02200000
00000000
00000000
00300000
00000000
03100000
00000000
01000000
,
00100000
01000000
00010000
00100000
01000000
00100000
00010000
01000000
,
00100000
00010000
00001000
00010000
01000000
00010000
00001000
00000100
,
00000010
00000100
00000001
00000010
00000100
00000010
00000001
00001000
,
00000100
00010000
00001000
00100000
00001000
00010000
00000100
00010000
,
00001000
00100000
00010000
01000000
00100000
01000000
00010000
00100000
,
01000000
00010000
00001000
00010000
00100000
00010000
00001000
00000010
,
00000100
00000010
00000001
00000100
00000010
00001000
00000100
00010000
,
00002000
00020000
00000000
00003000
00000000
00031000
00000000
00010000
,
00011000
00002000
00000000
00000000
00000000
00200000
00000000
00003000
,
00000000
20000000
00000000
00300000
00000000
30200000
00000000
02300000
,
00000000
00200000
00000000
03000000
00000000
00002000
00000000
00300000
,
00000000
00000020
00000000
00003000
00000000
00000032
00000000
00000203
,
00000000
00000020
00000000
00000300
00000000
00002000
00000000
00000030
,
00000000
00200000
00000000
00003000
00000000
20300000
00000000
30020000
,
00000000
02000000
00000000
00030000
00000000
00020000
00000000
03000000
,
00000000
00000200
00000000
00030000
00000000
00000301
00000000
00001000
,
00001001
00000010
00000000
00000010
00000000
00001000
00000000
00001000
,
00000000
00000100
00000000
00000100
00000000
00000010
00000000
00001000
,
00000000
00010000
00000000
00010000
00000000
00001000
00000000
00001000
,
00000000
00100000
00000000
00100000
00000000
00010000
00000000
00010000
,
10000000
11000000
11000000
01100000
,
01100000
00000000
00000000
00000000
00110000
00000000
00000000
00000000
00110000
00000000
00000000
00001000
00010000
00000000
00000010
00000000
,
00002020
00000000
00000000
00000000
00000000
00003030
00000000
00000100
,
00000000
00000001
00000000
00000010
00000000
00000000
00000000
00000000
,
00000110
00000000
00001000
00000100
00001000
00000001
00000100
00000001
,
00000010
00001000
00000000
00020000
00000000
00032000
00000000
01003000
,
00100000
00000000
10000000
00100000
10000000
00010000
00100000
00010000
,
01000000
10000000
00000000
01000000
00000000
00010000
00100000
00001000
,
00020000
00000000
00000100
00000000
00001000
00000000
00030100
00002000
,
00000000
00000010
00000000
00000010
00000000
00000100
00000000
00003100
,
00000010
00001000
00000010
00001000
00010000
00001000
00010000
00001000
,
00100000
00010000
00100000
00010000
10000000
00100000
10000000
00100000
,
10010000
00000000
00010000
00100000
00010000
10000000
00100000
10000000
,
01000000
00000000
00010000
00002000
00000000
00023000
00000000
00030010
,
00000100
00000000
00000001
00000100
00000001
00001000
00000100
00001000
,
00000010
00000000
00000001
00000010
00000000
00001000
00000100
00010000
,
00002000
00000000
00100000
00000000
00010000
00000000
00103000
00020000
,
00000000
01000000
00000000
01000000
00000000
00100000
00000000
00130000
,
01000000
00010000
01000000
00010000
00001000
00010000
00001000
00010000
,
00000100
00001000
00000100
00001000
00000001
00000100
00000001
00000100
,
00000010
00001000
00000001
00001000
00000100
00000001
00000100
00000010
,
00000100
00010000
00001000
00100000
00001000
00010000
00000100
00010000
,
00000000
00001000
00000000
00001000
00000000
00010000
00000000
00010000
,
00000000
00110000
00000000
10100000
00000000
11000000
00000000
00010000
,
01000000
00010000
10000000
00010000
00100000
10000000
00100000
01000000
,
00100000
00001000
00010000
00000100
00010000
00001000
00100000
00001000
,
00000000
00010000
00000000
00010000
00000000
00001000
00000000
00001000
,
00000000
00001100
00000000
00000101
00000000
00000011
00000000
00001000
,
00000010
00001000
00000100
00000001
00000100
00000010
00001000
00010000
,
01000000
00100000
10000000
00100000
00010000
01000000
00010000
10000000
,
00000000
11000000
00000000
11000000
00000000
01010000
00000000
01010000
,
00000000
00011000
00000000
00001100
00000000
00000101
00000000
00001000
,
00000002
00000203
00002300
00023000
,
02030000
00000000
00000000
00000000
23000000
00000000
00000000
00000000
30010000
00000000
00000000
10000000
00010000
00000000
10000000
00000000
,
02200000
00000000
00000000
00000000
,
03300000
00000000
00000000
00000000
;

//---------------dance-single - Blank----------------
#NOTES:
     dance-single:
     :
     Challenge:
     11:
     0.684,0.588,0.604,0.055,0.016,376.000,55.000,5.000,0.000,0.000,0.000,0.684,0.588,0.604,0.055,0.016,376.000,55.000,5.000,0.000,0.000,0.000:
1000
0010
0100
0010
1000
0001
0000
0001
,
1000
0010
0100
0010
1000
0001
0000
0001
,
1000
0100
0010
0100
1000
0001
0000
0001
,
1000
0100
0010
0100
1000
0001
0000
0001
,
1000
0010
0100
0010
0001
0010
0001
0010
,
1000
0100
0010
0100
0001
0100
0001
0100
,
1000
0100
0010
0001
1000
0010
0100
0001
,
1001
0000
0000
0000
0000
0010
0000
0010
,
1000
0100
0010
0000
0001
1001
0000
1001
,
1000
0010
0100
0000
0001
1001
0000
1001
,
1000
0001
0001
0000
1000
1010
0000
1010
,
1000
0001
0001
0000
0001
0011
0000
0011
,
0001
0010
0100
0000
1000
1001
0000
1001
,
0001
0100
0010
0000
1000
1001
0000
1001
,
0001
1000
1000
0000
0001
0011
0000
0011
,
0001
1000
1000
0000
0000
1010
0000
1010
,
0000
0000
1000
0100
0010
0100
1000
0010
,
0100
0010
0000
0110
0000
0101
0000
0000
,
0010
0000
0001
0010
0000
0001
0010
0100
,
0010
0000
0000
0100
0000
0000
1000
0000
0000
0000
0010
0000
0100
0000
0020
0000
,
0000
1000
0000
1000
0000
1000
0030
0010
,
1000
0100
0000
0100
0000
0100
0000
0100
,
0010
0001
0000
0001
0000
0001
0000
0001
,
1000
0010
0000
0010
0000
0010
0000
0100
,
0110
0000
1010
0000
1000
0010
0100
0001
,
0010
0000
0010
0100
0110
0000
0110
0000
,
0011
0000
0101
0001
0010
0001
1000
0010
,
1000
0000
0100
0010
0000
0001
1000
0010
,
0100
0000
0110
0000
0010
0000
0110
0100
,
0001
0000
0010
0000
0000
0000
0010
0000
0000
0000
0010
0001
0010
0000
0010
0000
,
0100
1000
0000
1000
0000
1000
0000
1000
,
0001
0100
0000
0100
0000
0000
0000
0110
,
1010
0000
1000
0010
0100
0001
0010
0100
,
0010
0001
0000
1001
0000
1001
0000
1010
,
0000
0101
0001
0010
0000
0010
0100
1000
,
0010
0010
0000
0100
0000
0100
0010
2000
,
0000
0001
0000
0001
0000
3001
1000
0100
,
0000
0010
0000
0011
0000
0010
0100
1000
,
0010
0110
0000
0110
0000
0101
0000
1010
,
0000
1100
0000
0011
0000
0001
1001
1000
,
1100
0000
0100
0000
0010
0100
0010
0100
,
1000
0000
1000
0010
0000
0100
0001
0010
,
0100
0100
1000
0001
1000
0001
0100
0001
,
0010
0000
0010
0100
0000
0100
1000
0010
,
0000
0100
0001
0100
0010
1000
0100
1000
,
0010
0100
1000
0100
0010
0100
0010
0100
,
0001
0010
0100
1000
0010
0100
1000
0100
,
0010
1000
0100
0010
0001
0100
1000
0100
,
0010
0000
0010
1000
0000
1000
0001
0010
,
0000
0110
0100
1000
0001
0000
1000
0010
,
0000
0110
0100
0001
1000
0000
0100
0110
,
0000
0010
0100
0010
0100
1000
0010
0100
,
0002
1000
0000
1000
0000
1000
0003
1000
,
0100
0010
0000
0011
0000
0101
0000
0001
,
0010
0100
0000
0110
0000
1100
0000
1000
,
0010
0001
0000
0011
0000
0110
0100
0001
,
0010
0000
0110
0000
0100
1000
0001
1000
,
0100
0000
0010
0100
0000
1000
0100
0010
,
0001
1000
0001
0010
1000
0001
1000
0010
,
0001
1000
0001
0100
1000
0001
1000
0100
,
0001
0011
0010
0110
,
0100
0000
0000
0000
1100
0000
0000
0000
1000
0000
0000
0001
1000
0000
0002
0000
,
0000
0000
0000
0000
0000
1003
0002
0000
,
1003
0000
0000
0000
;
