#TITLE:Don't Stop Me Now;
#SUBTITLE:;
#ARTIST:Queen;
#TITLETRANSLIT:;
#SUBTITLETRANSLIT:;
#ARTISTTRANSLIT:;
#GENRE:Rock;
#CREDIT:;
#BANNER:Don't Stop Me Now.png;
#BACKGROUND:;
#LYRICSPATH:;
#CDTITLE:;
#MUSIC:Don't Stop Me Now.mp3;
#OFFSET:0.000;
#SAMPLESTART:91.500;
#SAMPLELENGTH:15.000;
#SELECTABLE:YES;
#BPMS:0.000=97.308
,1.000=113.758
,2.000=88.347
,3.000=137.712
,4.000=90.616
,5.000=97.527
,6.000=100.719
,7.000=104.502
,8.000=109.131
,9.000=85.612
,10.000=139.837
,11.000=111.551
,12.000=144.574
,13.000=146.951
,14.000=146.666
,15.000=164.276
,16.000=138.086
,17.000=145.898
,18.000=156.800
,19.000=162.053
,20.000=161.736
,21.000=150.589
,22.000=157.126
,23.000=154.394
,24.000=154.764
,25.000=157.528
,26.000=165.179
,27.000=140.565
,28.000=159.196
,29.000=163.859
,30.000=140.902
,31.000=156.337
,33.000=159.196
,34.000=144.915
,35.000=162.103
,36.000=156.726
,37.000=151.668
,38.000=152.472
,39.000=155.574
,40.000=159.609
,41.000=157.154
,42.000=145.577
,43.000=158.757
,44.000=172.873
,45.000=146.935
,46.000=156.856
,47.000=147.106
,48.000=164.706
,49.000=158.757
,50.000=161.696
,51.000=143.883
,52.000=159.196
,53.000=151.703
,54.000=151.659
,55.000=165.035
,56.000=152.481
,57.000=159.206
,58.000=143.314
,59.000=174.022
,60.000=158.386
,61.000=148.719
,62.000=149.534
,63.000=148.760
,64.000=156.670
,65.000=157.857
,66.000=156.226
,67.000=152.727
,68.000=166.290
,69.000=163.930
,70.000=150.769
,71.000=146.196
,72.000=159.898
,73.000=156.309
,74.000=156.605
,75.000=160.131
,76.000=151.738
,77.000=153.311
,78.000=159.561
,79.000=174.584
,80.000=155.492
,81.000=140.640
,82.000=155.154
,83.000=152.463
,84.000=157.848
,85.000=154.358
,86.000=155.254
,87.000=167.872
,88.000=156.337
,89.000=153.534
,90.000=152.008
,91.000=163.555
,92.000=146.992
,93.000=163.819
,94.000=160.792
,95.000=162.152
,96.000=159.609
,97.000=143.221
,98.000=155.528
,99.000=158.367
,100.000=158.605
,101.000=158.462
,102.000=159.215
,103.000=158.747
,104.000=172.086
,105.000=150.984
,106.000=160.841
,107.000=159.590
,108.000=133.374
,109.000=165.458
,110.000=163.414
,111.000=144.891
,112.000=160.432
,113.000=163.394
,114.000=155.941
,115.000=162.103
,116.000=161.706
,117.000=153.954
,118.000=155.145
,119.000=152.104
,120.000=148.418
,121.000=168.728
,122.000=158.824
,123.000=160.403
,124.000=150.221
,125.000=154.764
,126.000=157.547
,127.000=161.667
,128.000=158.757
,129.000=155.163
,131.000=161.677
,132.000=164.726
,133.000=163.404
,134.000=166.856
,135.000=156.837
,136.000=155.941
,137.000=162.103
,138.000=164.685
,139.000=153.641
,140.000=155.895
,141.000=156.383
,142.000=166.488
,143.000=154.773
,144.000=162.521
,145.000=133.266
,146.000=163.869
,147.000=155.941
,148.000=160.403
,149.000=143.914
,150.000=161.233
,151.000=157.528
,152.000=154.394
,153.000=162.531
,154.000=148.036
,155.000=157.528
,156.000=151.347
,157.000=155.145
,158.000=153.560
,159.000=166.133
,160.000=155.941
,161.000=152.913
,162.000=154.295
,163.000=157.126
,164.000=154.385
,165.000=160.344
,166.000=147.016
,167.000=161.282
,168.000=157.961
,169.000=149.492
,170.000=163.829
,171.000=152.078
,172.000=153.534
,173.000=154.430
,174.000=160.354
,175.000=158.843
,176.000=158.339
,177.000=166.447
,178.000=158.833
,179.000=152.086
,180.000=149.121
,181.000=166.499
,182.000=139.631
,183.000=169.735
,184.000=149.121
,185.000=145.241
,186.000=170.688
,187.000=158.348
,188.000=151.990
,189.000=161.608
,190.000=154.800
,191.000=157.163
,192.000=154.864
,193.000=155.154
,194.000=149.492
,195.000=172.558
,196.000=157.033
,197.000=148.527
,198.000=160.393
,199.000=153.596
,200.000=155.977
,201.000=159.956
,202.000=146.285
,203.000=166.993
,204.000=155.136
,205.000=146.658
,206.000=166.961
,207.000=158.263
,208.000=153.258
,209.000=160.861
,210.000=159.995
,211.000=154.385
,212.000=157.135
,213.000=149.847
,214.000=161.263
,215.000=153.223
,216.000=169.583
,217.000=150.718
,218.000=161.657
,219.000=156.754
,220.000=155.136
,221.000=157.061
,222.000=154.755
,223.000=156.429
,224.000=157.914
,225.000=164.297
,226.000=160.861
,227.000=145.922
,228.000=167.893
,229.000=148.020
,230.000=172.142
,231.000=138.985
,232.000=151.356
,233.000=166.029
,234.000=145.617
,235.000=159.580
,236.000=151.694
,237.000=158.728
,238.000=160.871
,239.000=155.950
,240.000=155.145
,241.000=158.329
,242.000=151.982
,243.000=159.187
,244.000=158.757
,245.000=139.528
,246.000=170.040
,247.000=159.177
,248.000=163.829
,249.000=153.587
,250.000=157.961
,251.000=163.313
,252.000=149.941
,253.000=163.384
,254.000=163.404
,255.000=139.007
,256.000=168.310
,257.000=165.655
,258.000=139.307
,259.000=168.246
,260.000=164.634
,261.000=152.983
,262.000=165.592
,263.000=153.587
,264.000=155.556
,265.000=159.590
,266.000=149.146
,267.000=155.528
,268.000=161.263
,269.000=147.344
,270.000=166.499
,271.000=163.414
,272.000=170.677
,273.000=165.127
,274.000=168.815
,275.000=169.713
,276.000=147.000
,277.000=177.584
,278.000=146.617
,279.000=199.758
,280.000=94.040
,281.000=92.823
,282.000=97.913
,283.000=94.764
,284.000=91.843
,285.000=99.575
,286.000=93.528
,287.000=92.102
,288.000=96.155
,289.000=102.225
,290.000=91.163
,291.000=99.265
,292.000=100.673
,293.000=94.372
,294.000=99.116
,295.000=99.440
,296.000=103.964
,297.000=96.313
;
#STOPS:
;
#BGCHANGES:-0.500=Don't Stop Me Now.avi=1.000=1=0=0=StretchNoLoop==CrossFade==,
99999=-nosongbg-=1.000=0=0=0 // don't automatically add -songbackground-
;
#KEYSOUNDS:;
#ATTACKS:;

//---------------dance-single - ----------------
#NOTES:
     dance-single:
     :
     Hard:
     12:
     0.640,0.701,0.439,0.220,0.161,487.000,56.000,28.000,0.000,0.000,0.000,0.640,0.701,0.439,0.220,0.161,487.000,56.000,28.000,0.000,0.000,0.000:
1001
0000
0000
1010
0000
0110
0000
0101
,
0000
0001
1000
0100
0001
1000
0010
0001
,
1001
0000
0000
0011
0000
0110
0100
0100
,
1000
0100
0010
1000
0000
1010
0000
0000
,
1000
0000
0010
0000
0001
0000
0101
0000
0000
0000
0110
0000
0010
1000
0010
0000
,
1000
0001
1000
0000
0001
0001
0010
0100
,
0020
0000
0100
0030
0010
0001
0100
0020
,
0000
1030
0000
0010
1000
0100
0001
0101
,
0000
1100
0000
1000
0001
0011
0000
1010
,
0000
0010
0001
0100
0010
1000
0001
0010
,
0001
0100
0100
0000
0010
1000
0001
0020
,
0000
0000
0130
0010
0001
0001
1000
0020
,
0000
0130
0000
0000
0010
1000
0001
0010
,
0011
0000
0000
0110
0000
0000
1100
0000
,
1000
0001
0000
1000
0001
0020
0000
0130
,
0010
0010
0001
0100
0000
0010
0010
1000
,
0100
1000
0001
1000
0000
0100
0010
0001
,
1000
0000
0010
1000
0001
0001
0000
1000
,
0100
0010
0100
1000
0000
0001
0001
1000
,
0001
0100
1000
0100
0001
0010
0000
0120
,
0031
0000
0001
1000
0000
1000
0100
0010
,
0001
0001
1000
0010
0001
0001
0000
0021
,
0000
0000
0130
0100
0010
1000
0010
1000
,
0001
0001
1000
1000
0100
0010
0100
0010
,
0000
0000
0110
0000
0010
0001
0100
0010
,
0010
1000
0100
0010
0010
0001
0100
0001
,
1000
0001
0000
1000
0001
1000
0000
0001
,
1000
0000
0001
0000
0010
0000
0000
0100
0000
0000
0000
0010
0000
0000
0100
0000
,
1000
0001
0000
0100
0001
1000
0000
1010
,
0000
0000
0101
0000
0000
0000
0011
0000
0000
0020
0000
0000
0000
0000
0130
0000
,
0010
0001
0000
0100
0001
0010
0100
1000
,
1001
0000
0011
0000
1001
0000
1010
0010
,
1000
0000
0100
0000
0000
0000
0010
0000
0001
0000
0100
0000
0000
0000
0010
1000
,
0010
1000
0001
1000
0100
0010
0100
0010
0001
1000
0001
1000
0100
0010
0100
0010
,
0200
0000
0000
0000
2300
0000
0000
0000
3001
0000
1000
0000
0100
0000
0010
0001
,
0100
0000
0000
0000
0000
0000
0010
0000
0000
0020
0000
0000
0000
0000
0000
1030
0000
0000
0010
0000
0100
0000
0010
0000
,
0100
0000
0000
0000
0010
0000
0000
0000
0100
0000
0000
0000
0010
0000
0000
0000
1000
0000
0000
0000
0010
0000
0000
0000
0000
0000
0000
0000
0000
0000
1000
0000
0000
0000
0000
0000
0010
0000
0000
1000
0000
0000
0002
0000
0000
0000
0000
0000
,
0000
0013
0010
0100
0100
1000
1000
0020
,
1030
0000
0010
0000
1000
0000
0001
0000
1000
0002
0000
0013
0000
0000
0000
0000
,
0120
0000
0000
0000
0130
0000
0010
0000
0100
0000
1000
0000
0010
0100
0000
0000
,
0102
0000
0103
0110
0000
0010
1000
0100
,
1000
0000
0001
0000
0100
0001
0000
0000
0000
0000
0010
0000
0010
0000
0100
1000
,
0010
0100
1000
1100
0000
0100
0001
0011
,
0000
0000
0002
0000
0013
0000
0100
0000
0001
0000
0100
0000
1000
0100
0010
0000
,
0110
0200
0000
0000
1000
0000
1300
0100
,
1000
1000
0001
0010
0000
0100
0010
0001
,
1000
0010
1000
0000
0010
0000
0100
0001
0100
0000
0010
0000
1000
0001
1000
0000
,
0001
1000
0100
0110
0000
0100
1000
1000
,
0010
0010
0100
0001
0010
0100
0000
0210
,
1300
0000
1000
0010
0010
0010
0020
0130
,
0010
1000
0100
0001
0100
1000
0000
0020
,
0130
0000
0010
1000
0001
1000
0100
0010
,
0100
0100
1000
1000
0001
0001
1000
0010
,
1000
0001
1000
0001
0010
0001
0010
0001
0010
0100
0010
0100
1000
0100
0010
0001
,
0100
0000
0010
1000
0000
1000
0001
0100
,
0000
0010
0010
1000
0001
0001
0010
0100
,
0010
0000
0210
1300
0000
0100
0100
1000
,
0010
0001
0010
1000
0000
0001
1000
0100
,
0010
0000
0100
1100
0000
1000
0001
1001
,
0000
0002
0000
0103
0001
0001
0010
0100
,
0010
0000
0120
0031
0000
0010
0010
0100
,
1000
0001
1000
0020
0000
0130
0010
0000
,
1010
0000
1000
0001
0000
0100
0100
0001
,
0010
0010
0100
1100
0000
1001
0000
0000
,
0101
0000
0100
0110
0000
1010
0000
1001
,
0001
0001
0010
0110
0000
0011
0000
0010
,
0100
0000
1000
0001
1000
0001
0000
0100
,
0002
0000
0000
0000
,
0000
0000
0000
0003
,
2002
0000
0000
0000
0000
0000
0000
3003
,
1000
0001
1000
0100
0010
0000
0100
1000
,
0010
0000
0000
0000
0100
0000
0001
0000
0000
1000
0000
0000
0100
0000
0000
0110
0000
0000
0010
0000
0000
1001
0000
0000
,
0000
0000
1000
0000
0100
0000
0010
0001
0100
0000
0010
0000
1000
0000
1010
0000
,
0000
1001
0000
0011
0000
0010
0110
0010
,
0001
0000
1001
0000
1000
0000
0000
0010
0100
0000
0000
0000
0000
0000
0000
0000
;

//---------------dance-single - Blank----------------
#NOTES:
     dance-single:
     :
     Medium:
     10:
     0.483,0.497,0.282,0.173,0.027,373.000,36.000,22.000,0.000,0.000,0.000,0.483,0.497,0.282,0.173,0.027,373.000,36.000,22.000,0.000,0.000,0.000:
0010
0000
0000
1000
0000
0001
0000
1000
,
0000
1000
0100
0010
,
0001
0000
0000
0100
0000
0010
0100
0000
,
0010
0000
0010
1000
0000
0001
0000
0000
,
0010
0000
0010
0001
0000
1000
0100
0000
,
1000
0010
0100
0000
0010
0100
0001
0010
,
0200
0000
0000
0000
0000
1300
0100
1000
,
0000
0010
0000
0100
0001
0010
0100
0010
,
0000
0110
0000
0000
0100
1000
0000
0001
,
0000
0100
0000
0010
0000
0100
0010
0000
,
1000
0010
1000
0000
0000
0001
1000
0002
,
0000
0000
0000
0013
0001
0001
0010
0100
,
0000
0001
0000
0000
0100
1000
0100
1000
,
0010
0000
0000
0110
0000
0000
0100
0000
,
0000
0101
0000
0001
1000
0001
0000
2000
,
0000
0000
0000
0000
0000
0000
0000
3010
,
1000
1000
0100
0010
0000
0001
0000
0101
,
0000
0000
0100
0100
0010
0100
0000
0010
,
1000
0001
0100
0001
0000
0010
0100
0010
,
0100
1000
0100
1000
0001
1000
0000
0010
,
0200
0000
0000
0000
0000
0000
0000
0301
,
0100
1000
0001
0010
0100
0001
0000
0020
,
0000
0000
0000
0130
0010
0100
1000
0010
,
0100
0100
0001
0001
1000
0001
1000
0001
,
0000
0000
0100
0000
0010
1000
0100
0000
,
0010
0001
0100
0000
0010
1000
0100
0001
,
0100
0001
0000
0100
1000
0100
0000
1000
,
0010
0000
1000
0000
0010
0000
0000
0100
0000
0000
0000
0010
0000
0000
1000
0000
,
0010
1000
0000
0001
1000
0001
0000
0011
,
0000
0110
0000
1100
0000
0000
0000
1000
,
0001
1000
0000
0001
0010
0001
0010
0100
,
1000
0000
0011
0000
1000
0000
0001
0010
,
0100
0010
0000
0100
1000
0100
0000
1000
,
0001
0100
1000
0100
0001
0010
0100
0001
,
2000
0000
0000
0000
3000
0000
0010
0100
,
0020
0000
0000
0000
0000
0000
0031
0010
,
0100
0000
1000
0000
0100
0000
1000
0000
0000
0001
0000
0000
0000
0000
0000
0000
0000
0000
0100
0000
0000
0010
0000
0000
,
0000
1000
0010
1000
0001
0100
0000
0020
,
0000
0000
1030
0000
0010
0000
0001
0000
0010
0000
0000
0110
0000
0000
0000
0000
,
0200
0000
0000
0000
0000
0000
0000
0000
0000
0000
0301
0000
0100
0001
0000
0000
,
0020
0000
0000
0000
0000
0000
0000
0130
,
1000
0000
0100
0000
0010
0001
0000
0000
0000
0000
0000
0000
1000
0000
0001
0000
,
1000
0010
0000
0100
0000
0010
1000
0010
,
0000
1000
0001
1000
0001
0010
0100
1000
,
0000
0000
0020
0000
0000
0000
0000
0130
,
0010
0010
1000
0010
0000
1000
0000
0001
,
1000
0100
0001
0100
1000
0100
0001
0100
,
2000
0000
0000
0000
,
3010
1000
0001
1000
0001
0010
0000
0100
,
1000
0000
0000
0010
0010
0010
0010
0010
,
0100
0001
0100
0001
1000
0100
0000
0020
,
0000
0000
0130
0100
0010
0001
0100
0010
,
1000
1000
0001
0001
1000
1000
0001
0001
,
0010
0100
0010
0100
1000
0001
1000
0001
,
0100
0000
0000
0101
0000
0110
0000
1010
,
0000
0000
0000
1000
0001
1000
0100
0010
,
0100
0000
0202
0000
0000
0000
0303
0100
,
1000
0010
0100
0010
0000
0000
0100
0000
,
0101
0000
0000
1010
0000
0011
0000
1100
,
0000
0100
0000
0010
0100
0000
0010
1000
,
0010
0000
2002
0000
0000
0000
3003
1000
,
1000
0010
0100
0020
0000
0000
0031
0000
,
0011
0000
0000
1010
0000
1000
0100
0100
,
0010
0100
0010
0100
0000
1000
0000
0000
,
1001
0000
0000
0101
0000
1010
0000
0001
,
0010
0010
0100
0001
0000
0010
0000
0100
,
1000
0000
0001
1000
0001
1000
0000
2002
,
0000
0000
0000
0000
,
0000
0000
0000
3003
,
0220
0000
0000
0330
,
0010
1000
1100
0000
0100
0010
0100
0010
,
0011
0000
0011
0000
0010
0100
1000
1010
,
0000
1000
0001
1000
0001
0010
0100
0110
,
0100
1100
1000
1001
0000
0001
0101
0000
,
0110
1010
0000
0000
1001
0000
0000
0000
;

//---------------dance-single - Blank----------------
#NOTES:
     dance-single:
     :
     Beginner:
     3:
     0.109,0.117,0.071,0.008,0.000,87.000,9.000,1.000,0.000,0.000,0.000,0.109,0.117,0.071,0.008,0.000,87.000,9.000,1.000,0.000,0.000,0.000: // measure 0
0000
0000
0000
0000
,  // measure 1
0000
0000
0000
0000
,  // measure 2
0000
0000
0000
0000
,  // measure 3
0000
0000
0000
0000
,  // measure 4
0000
0000
0000
0000
,  // measure 5
1000
0000
1000
0000
,  // measure 6
1000
0000
0000
0000
,  // measure 7
0100
0000
0100
0000
,  // measure 8
0100
0000
0000
0000
,  // measure 9
0000
0000
0000
0000
,  // measure 10
0001
0000
0001
0000
,  // measure 11
0001
0000
0000
0000
,  // measure 12
0010
0000
0010
0000
,  // measure 13
0010
0000
0000
0000
,  // measure 14
0000
0000
0000
0000
,  // measure 15
0110
0000
0000
0000
,  // measure 16
0010
0000
0010
0000
,  // measure 17
0010
0000
0000
0000
,  // measure 18
0000
0000
0000
0000
,  // measure 19
0100
0000
0100
0000
,  // measure 20
0100
0000
0000
0000
,  // measure 21
1000
0000
1000
0000
,  // measure 22
1000
0000
0000
0000
,  // measure 23
0001
0000
0001
0000
,  // measure 24
0001
0000
0000
0000
,  // measure 25
0000
0000
0000
0000
,  // measure 26
1000
0000
0001
0000
,  // measure 27
1000
0000
0000
0000
,  // measure 28
0001
0000
1000
0000
,  // measure 29
0001
0000
0000
0000
,  // measure 30
0010
0000
0100
0000
,  // measure 31
0010
0000
0000
0000
,  // measure 32
0100
0000
0010
0000
,  // measure 33
0100
0000
0000
0000
,  // measure 34
1000
0000
0000
0000
,  // measure 35
0100
0000
0000
0000
,  // measure 36
0010
0000
0000
0000
,  // measure 37
0001
0000
0010
0000
,  // measure 38
0001
0000
0010
0000
,  // measure 39
0100
0000
0000
0000
,  // measure 40
0110
0000
0000
0000
,  // measure 41
0010
0000
0000
0000
,  // measure 42
0011
0000
0000
0000
,  // measure 43
0001
0000
0000
0000
,  // measure 44
1001
0000
0000
0000
,  // measure 45
1000
0000
1000
0000
,  // measure 46
1000
0000
0000
0000
,  // measure 47
0010
0000
0010
0000
,  // measure 48
0010
0000
0000
0000
,  // measure 49
0000
0000
0100
0100
,  // measure 50
0100
0000
0100
0000
,  // measure 51
0100
0000
0000
0000
,  // measure 52
0001
0000
0001
0000
,  // measure 53
0001
0000
0000
0000
,  // measure 54
1000
0000
0000
0000
,  // measure 55
1001
0000
0000
0000
,  // measure 56
0001
0000
0000
0000
,  // measure 57
1001
0000
0000
0000
,  // measure 58
0010
0000
0000
0000
,  // measure 59
0110
0000
0000
0000
,  // measure 60
0100
0000
0000
0000
,  // measure 61
0110
0000
0000
0000
,  // measure 62
0100
0000
0100
0000
,  // measure 63
0100
0000
0000
0000
,  // measure 64
1000
0000
1000
0000
,  // measure 65
1000
0000
0000
0000
,  // measure 66
0010
0000
0010
0000
,  // measure 67
0020
0000
0000
0000
,  // measure 68
0000
0000
0000
0000
,  // measure 69
0130
0000
0000
0000
,  // measure 70
0000
0000
0001
0000
,  // measure 71
0000
0000
1000
0000
,  // measure 72
0000
0000
0001
0000
,  // measure 73
0000
0000
1000
0000
,  // measure 74
0000
0000
1001
0000
;

//---------------dance-single - Blank----------------
#NOTES:
     dance-single:
     :
     Easy:
     6:
     0.300,0.292,0.126,0.102,0.000,239.000,16.000,13.000,0.000,0.000,0.000,0.300,0.292,0.126,0.102,0.000,239.000,16.000,13.000,0.000,0.000,0.000:
1000
0000
0000
1000
0000
0000
0000
1000
,
0000
0001
1000
0001
,
0001
0000
0000
0001
0000
0000
0001
0000
,
1000
0100
1000
0100
,
0010
0001
0010
0001
,
0100
0100
0100
0010
,
2000
0000
0000
3001
,
0001
0000
0010
0010
,
0100
0000
1000
1000
,
0001
0000
0100
0100
,
0010
1000
0001
0010
,
0100
0000
0110
0000
,
0010
0001
0100
0010
,
1010
0000
0000
1010
0000
0000
1010
0000
,
0000
1000
0001
1000
,
0002
0000
0000
0000
,
0013
0000
0010
0000
,
0100
1000
0001
0100
,
0010
1000
0010
0100
,
0001
0010
0100
1000
,
0010
0000
0010
0000
,
1000
0010
0100
0001
,
0010
0000
0010
0000
,
0100
1000
0001
0100
,
0010
0010
1000
0001
,
0010
0010
0001
1000
,
0001
1000
0001
1000
,
0001
0010
0010
0010
,
0001
0010
0001
0010
,
0100
0100
0100
1000
,
0100
1000
0100
1000
,
0010
0010
0010
1000
,
0001
1000
0001
1000
,
0010
1000
0100
0001
,
0101
0000
1100
0000
,
1010
0000
0011
0000
,
0010
0100
0000
0010
,
0100
0001
1000
0100
,
0010
0010
0010
0000
,
0200
0000
0000
1300
,
0200
0000
0300
0200
0000
0000
0310
0000
,
0100
1000
0100
1000
,
0010
0100
0001
0100
,
0010
1000
0001
0010
,
0000
0220
0000
0000
0000
0000
0330
0000
,
0100
1000
0100
1000
,
0010
0100
0001
1000
,
0100
0010
0001
1000
,
0010
0010
0010
0100
,
0001
0001
0001
1000
,
0100
0010
0001
1000
,
0010
0010
0100
0001
,
1000
0100
0010
0001
,
0010
0010
0010
0010
,
0110
0000
0000
0100
0000
1000
0000
0100
,
0000
0000
1000
0001
,
1000
0001
0000
0100
,
0001
0010
0100
0000
,
0110
0000
0000
0001
0000
0010
0000
0001
,
0000
1000
0001
1000
,
0100
0100
0000
0010
,
0001
0100
0010
0000
,
1010
0000
0000
0010
0000
0100
0000
0002
,
0000
0000
0000
0003
,
0011
0000
0000
0010
0000
0100
0000
2000
,
0000
0000
0000
0000
,
3001
1000
0100
0010
,
0220
0000
0000
0000
,
0000
0000
0000
0330
,
0220
0000
0000
0000
,
0000
0330
0100
1000
,
0010
0100
0100
0001
,
0010
1000
0010
0001
,
0100
0010
1000
0010
,
0001
0010
0110
0000
;
