#TITLE:Doctor Who;
#SUBTITLE:;
#ARTIST:JAKAZiD;
#TITLETRANSLIT:;
#SUBTITLETRANSLIT:;
#ARTISTTRANSLIT:;
#GENRE:Techno;
#CREDIT:;
#BANNER:Doctor Who.png;
#BACKGROUND:Doctor Who-bg.png;
#LYRICSPATH:;
#CDTITLE:;
#MUSIC:Doctor Who.ogg;
#OFFSET:-11.190;
#SAMPLESTART:58.600;
#SAMPLELENGTH:15.000;
#SELECTABLE:YES;
#BPMS:0.000=172.000
,32.000=86.000
,46.000=172.000
;
#STOPS:46.000=0.700,
104.000=1.060,
105.000=1.060,
106.000=0.320,
107.000=0.340
;
#BGCHANGES:;
#KEYSOUNDS:;
#ATTACKS:;

//---------------dance-single - ----------------
#NOTES:
     dance-single:
     :
     Hard:
     12:
     0.508,0.468,0.046,0.046,0.182,456.000,6.000,6.000,0.000,0.000,0.000,0.508,0.468,0.046,0.046,0.182,456.000,6.000,6.000,0.000,0.000,0.000: // measure 0
0010
0000
1000
0000
0100
1000
0001
0000
,  // measure 1
0100
0000
0010
0000
1000
0001
0010
0000
,  // measure 2
0100
0000
0010
0000
0001
0100
0010
0000
,  // measure 3
1000
0000
0100
0000
0010
0100
1000
0000
,  // measure 4
0001
0000
0100
0000
0010
1000
0001
0000
,  // measure 5
0010
0000
0100
0000
1000
0010
0100
0000
,  // measure 6
0001
1000
0001
1000
0010
0100
0010
0100
,  // measure 7
0020
0000
0000
0030
,  // measure 8
1001
0000
1000
0010
0100
0000
0100
0001
,  // measure 9
0010
0000
0010
0001
0100
0000
0100
0010
,  // measure 10
1000
0100
0010
0000
0010
0100
1000
0000
,  // measure 11
1000
0001
0001
0100
0010
0000
0110
0000
,  // measure 12
0010
0000
0010
1000
0000
1000
0100
0000
0100
1000
0000
1000
,  // measure 13
0010
0000
0010
0100
0000
0100
0001
0000
0001
0010
0000
0010
,  // measure 14
0001
0000
0100
0010
0000
1000
0001
0000
0010
0100
0000
1000
,  // measure 15
0001
0000
0100
0010
0000
1000
0001
0000
0010
0000
0001
0000
,  // measure 16
0100
0000
0100
1000
0000
1000
0100
0000
0100
0010
0000
0010
,  // measure 17
1000
0000
1000
0001
0000
0001
0010
0000
0010
0100
0000
0100
,  // measure 18
1000
0000
1000
0010
0000
0010
0001
0000
0001
0010
0000
0010
,  // measure 19
1000
0000
1000
0001
0000
0001
0010
0000
0001
0000
0100
0000
,  // measure 20
1000
0000
1000
0100
0000
0000
0001
0000
0001
1000
0000
0000
,  // measure 21
0010
0000
0010
0100
0000
0000
0001
0000
0001
0010
0000
0000
,  // measure 22
0010
0000
0010
0001
0000
0000
0001
0000
0001
0100
0000
0000
,  // measure 23
0010
0000
0010
1000
0000
0000
0001
0000
0010
0000
0100
0000
,  // measure 24
1000
0000
0001
0100
0000
0000
0001
0000
1000
0100
0000
0000
,  // measure 25
1000
0000
1000
0100
0000
0100
0010
0000
0010
0001
0000
0001
,  // measure 26
1000
1100
0011
1001
,  // measure 27
1000
0000
0000
0001
0000
0000
1000
0000
0001
0000
0000
0000
0100
0000
0000
0000
,  // measure 28
0010
1000
0100
0000
1000
0010
0100
0000
,  // measure 29
0001
0010
0100
0000
0010
0001
0100
0010
,  // measure 30
1000
0001
0010
0000
0001
0100
0010
0000
,  // measure 31
1000
0100
1000
0000
0001
0100
0010
1000
,  // measure 32
0001
0010
0100
0000
0010
0001
0100
0000
,  // measure 33
0010
1000
0001
0000
1000
0010
0100
0001
,  // measure 34
0100
0010
1000
0010
0100
0001
0010
0100
,  // measure 35
1000
0100
0010
0001
1000
0010
0100
0001
,  // measure 36
0010
0001
0100
0000
0010
1000
0100
0000
,  // measure 37
1000
0001
0100
0010
1000
0001
0010
0000
,  // measure 38
0001
0100
0010
0000
1000
0100
1000
0000
,  // measure 39
0010
0100
0001
0100
0010
1000
0001
0001
,  // measure 40
0010
0001
0100
0000
0010
1000
0100
0000
,  // measure 41
1000
0010
0100
0001
1000
0010
0100
0001
,  // measure 42
0010
0001
0100
0010
1000
0001
0010
0100
,  // measure 43
2000
0000
0000
0000
,  // measure 44
3010
1000
0100
0001
0100
1000
0010
0000
,  // measure 45
0010
0100
0001
0100
0010
1000
0001
0000
,  // measure 46
0010
0001
0100
0010
1000
0001
0010
0000
,  // measure 47
0001
0100
0010
1000
0100
0010
0100
0000
,  // measure 48
0010
0001
0100
1000
0100
0001
0010
0000
,  // measure 49
0001
0100
0010
1000
0001
0010
0100
0000
,  // measure 50
1000
0001
0001
0100
,  // measure 51
0100
0010
0010
1000
,  // measure 52
1000
0010
0100
0001
0100
0010
1000
0001
,  // measure 53
0010
0100
1000
0100
0010
0001
0100
0000
,  // measure 54
0001
0010
0001
0100
0010
1000
0001
0010
,  // measure 55
0100
1000
0100
0010
0001
1000
0010
0000
,  // measure 56
0100
0001
0100
0010
1000
0001
0010
0100
,  // measure 57
1000
0100
0010
0001
1000
0010
0100
0000
,  // measure 58
0001
0000
0010
0000
0010
0000
0001
0100
,  // measure 59
0020
0000
0000
0000
,  // measure 60
1030
0000
0100
0000
1000
0010
0100
0000
,  // measure 61
0001
0000
0010
0000
0100
0010
0001
0000
,  // measure 62
0100
0000
0010
0000
1000
0100
0001
0000
,  // measure 63
0100
0000
0010
0000
1000
0001
0010
0000
,  // measure 64
0100
0000
1000
0000
0010
0100
0001
0000
,  // measure 65
0100
0000
0010
0000
1000
0100
0010
0000
,  // measure 66
0100
0000
1000
0000
0010
0100
0001
0000
,  // measure 67
0010
0000
0001
0000
1000
0100
0001
0100
,  // measure 68
1000
0010
0100
0001
,  // measure 69
0010
0000
1000
0000
0010
0000
0001
0100
,  // measure 70
0010
1000
0001
0010
,  // measure 71
0100
0000
1000
0000
0010
0100
0001
0000
,  // measure 72
0100
0010
1000
0001
,  // measure 73
0010
0000
0100
0000
1000
0001
0100
0000
,  // measure 74
0010
0000
1000
0000
0001
0010
0100
1000
,  // measure 75
0020
0000
0100
0130
,  // measure 76
2002
0000
0000
0000
,  // measure 77
3003
0000
0000
0000
;

//---------------dance-single - ----------------
#NOTES:
     dance-single:
     :
     Medium:
     10:
     0.411,0.322,0.061,0.068,0.068,362.000,8.000,9.000,0.000,0.000,0.000,0.411,0.322,0.061,0.068,0.068,362.000,8.000,9.000,0.000,0.000,0.000:
0010
1000
0100
0001
,
0100
0000
1000
0000
0010
0100
0001
0000
,
1000
0100
0010
0001
,
1000
0000
0010
0000
0100
0001
1000
0000
,
0100
0010
0100
1000
,
0010
0000
0100
0000
0001
0010
0100
0000
,
0010
0001
0100
0010
,
2002
0000
0000
3003
,
0010
0000
1000
0000
0100
0010
0001
0000
,
0100
0000
0010
0000
1000
0100
0001
0000
,
0100
0000
0010
0000
1000
0100
0010
0000
,
0001
0100
0010
1001
,
0010
0000
0000
1000
0000
0000
0100
0000
0100
1000
0000
0000
,
0010
0000
0000
0100
0000
0000
0001
0000
0001
0010
0000
0000
,
0100
0000
0000
1000
0000
0000
0010
0000
0010
1000
0000
0000
,
0100
0000
0000
0010
0000
0000
0001
0000
1000
0000
0010
0000
,
0100
0000
0000
0001
0000
0000
0010
0000
0010
0001
0000
0000
,
0100
0000
0000
0010
0000
0000
1000
0000
1000
0100
0000
0000
,
1000
0000
0000
0010
0000
0000
0100
0000
0100
0001
0000
0000
,
0010
0000
0000
0100
0000
0000
1000
0000
0001
0000
0100
0000
,
0010
0000
0000
1000
0000
0000
0100
0000
1000
0100
0000
0000
,
0010
0000
0000
0001
0000
0000
0100
0000
0001
0010
0000
0000
,
0001
0000
0000
0100
0000
0000
0010
0000
1000
0001
0000
0000
,
0010
0000
0000
0100
0000
0000
1000
0000
0010
0000
0100
0000
,
0001
0000
0000
0010
0000
0000
0001
0000
0100
0010
0000
0000
,
1000
0000
0000
0001
0000
0000
0010
0000
0100
1000
0000
0000
,
0010
0101
0100
1010
,
1000
0000
0000
0100
0000
0000
0010
0000
0002
0000
0000
0000
0000
0000
0000
0000
,
1003
0000
0010
0000
0100
0001
1000
0000
,
0100
0000
0010
0000
0100
1000
0001
0000
,
0100
0000
0010
0000
1000
0001
0010
0000
,
0001
0000
1000
0000
0010
0100
0001
0000
,
0010
0000
0100
0000
1000
0001
0100
0000
,
0010
0000
1000
0000
0100
0010
0100
0000
,
1000
0000
0010
0000
0100
0001
0010
0000
,
0100
0000
0010
0000
0001
0100
0010
0000
,
1000
0000
0001
0000
1000
0010
0100
0000
,
0001
0000
0100
0000
0010
1000
0001
0000
,
0010
0000
0100
0000
0010
0001
1000
0000
,
0010
0000
0100
0000
0010
1000
0001
0000
,
0010
0000
0100
0000
1000
0100
0010
0000
,
0100
0000
1000
0000
0001
0100
0010
0000
,
0100
0000
0001
0000
1000
0100
0010
0000
,
0002
0000
0000
0000
,
1003
0000
0010
0000
0100
0001
0100
0000
,
0010
0000
1000
0000
0001
0010
0001
0000
,
0100
0000
0010
0000
1000
0100
1000
0000
,
0010
0000
0100
0000
0001
0100
0010
1000
,
0001
0000
0010
0000
0100
1000
0100
0000
,
0010
0000
0001
0000
0100
0010
0100
0000
,
0001
0000
1000
0000
0010
1000
0010
0000
,
1000
0000
0100
0000
0010
0001
0100
0010
,
1000
0000
0001
0000
0010
0100
0010
0000
,
0001
0000
0100
0000
0010
1000
0010
0000
,
1000
0000
0001
0000
0010
0001
0010
0000
,
0100
0000
1000
0000
0001
0100
0010
1000
,
0001
0010
0100
0010
,
0001
0000
0100
0000
0010
1000
0001
0000
,
0010
0100
1000
0000
0001
0100
0010
0000
,
2002
0000
0000
3003
,
1000
0100
0010
0001
,
0100
0010
0100
0000
0001
1000
0001
0000
,
0010
0110
1000
0010
,
0100
0001
0100
0000
0010
1000
0010
0000
,
1000
0100
0010
0001
,
1000
0010
1000
0000
0001
0010
0001
0000
,
0100
0010
0100
0001
,
1000
0100
1000
0000
0001
0010
0001
0000
,
0100
0010
1000
0100
,
0010
0001
0100
0000
0010
1000
0100
0000
,
1000
0010
0100
0001
,
0010
0001
1000
0000
0001
1000
0100
0000
,
0001
0100
0010
1000
,
0001
0010
0100
0000
0010
0001
1000
0000
,
0010
0100
0001
0010
,
0120
0000
0100
0130
,
2002
0000
0000
0000
,
3003
0000
0000
0000
;

//---------------dance-single - ----------------
#NOTES:
     dance-single:
     :
     Easy:
     7:
     0.345,0.380,0.046,0.046,0.027,306.000,6.000,6.000,0.000,0.000,0.000,0.345,0.380,0.046,0.046,0.027,306.000,6.000,6.000,0.000,0.000,0.000:
1000
0000
0100
0000
,
0010
0001
0100
0000
,
0010
0000
0100
0000
,
0001
1000
0100
0000
,
0010
0000
0001
0000
,
0100
0010
1000
0000
,
0001
0010
0100
1000
,
0010
0000
0000
0000
,
0010
0000
1000
0000
0100
1000
0100
0000
,
0010
0000
0001
0000
0100
0001
0100
0000
,
0010
0000
1000
0000
0001
0100
0001
0000
,
0010
0100
1000
1001
,
0010
1000
0100
0001
,
0100
1000
0010
0100
,
0001
0010
0100
1000
,
0010
0000
0000
0100
0000
0000
0001
0000
1000
0000
0100
0000
,
0010
0100
1000
0001
,
0100
0010
1000
0001
,
0010
0100
1000
0010
,
0100
0000
0000
0001
0000
0000
1000
0000
0100
0000
0010
0000
,
0001
0100
0001
0010
,
0100
1000
0010
0100
,
0010
1000
0001
0010
,
0100
0000
0000
0010
0000
0000
0001
0000
0100
0000
0010
0000
,
1000
0001
0100
0010
,
1000
0001
0010
0100
,
1001
0110
1100
0011
,
0001
0000
0000
0100
0000
0000
0010
0000
2000
0000
0000
0000
0000
0000
0000
0000
,
3001
0010
0001
0100
,
0010
1000
0100
0100
,
1000
0010
0100
0001
,
0010
0000
0100
0000
0010
0001
0010
0000
,
0001
0100
0010
1000
,
0100
1000
0010
1000
,
1000
0010
0001
0100
,
1000
0000
0100
0000
0010
0100
0010
0000
,
0001
0100
0010
1000
,
0100
1000
0001
0100
,
0010
1000
0100
1000
,
0010
0000
0100
0000
0001
0100
0001
0000
,
0010
0100
0010
0001
,
0100
0010
1000
0100
,
0100
1000
1000
0010
,
0200
0000
0000
0000
,
0310
0001
0100
0010
,
1000
0100
1000
1000
,
0010
0100
0001
0010
,
0100
0000
0010
0000
0001
0100
1000
0000
,
0100
0001
0010
0100
,
1000
0001
0100
0010
,
0010
1000
0100
1000
,
0010
0000
0100
0000
0001
0010
1000
0000
,
0010
0001
0100
0010
,
1000
0100
0010
0100
,
1000
0001
0100
0010
,
1000
0000
0100
0000
0010
0001
0100
0000
,
0001
0010
0100
1000
,
0001
0000
0100
0000
0010
0000
1000
0001
,
0010
0100
1000
0010
,
0200
0000
0000
0300
,
0010
1000
0100
0001
,
0100
0000
1000
0000
0010
0010
0010
0000
,
1000
0100
0010
0001
,
0100
0000
0010
0000
1000
1000
1000
0000
,
0010
0100
0001
0010
,
0100
0000
0010
0000
0001
0001
0001
0000
,
0100
0001
0010
0100
,
1000
0000
0010
0000
0100
0100
0100
0000
,
0010
1000
0100
0010
,
0001
0000
0100
0000
0010
0010
0010
0000
,
0100
0001
0010
0100
,
1000
0000
0001
0000
0100
0100
0100
0000
,
0001
0010
0100
1000
,
0010
0000
0100
0000
0001
0001
0001
0000
,
0010
0001
0100
0010
,
2000
0000
0001
3001
,
2002
0000
0000
0000
,
3003
0000
0000
0000
;

//---------------dance-single - ----------------
#NOTES:
     dance-single:
     :
     Beginner:
     2:
     0.113,0.173,0.023,0.000,0.000,101.000,3.000,0.000,0.000,0.000,0.000,0.113,0.173,0.023,0.000,0.000,101.000,3.000,0.000,0.000,0.000,0.000:
1000
0000
0000
0000
,
0010
0000
0000
0000
,
0100
0000
0000
0000
,
0001
0000
0000
0000
,
0010
0000
0000
0000
,
0100
0000
0000
0000
,
1000
0000
0000
0000
,
1001
0000
0000
0000
,
1000
0000
0000
0000
,
0010
0000
0000
0000
,
0100
0000
0000
0000
,
0001
0000
0000
0010
,
0010
0000
0010
0000
,
0010
0000
0000
0000
,
1000
0000
1000
0000
,
1000
0000
0000
0000
,
0100
0000
0100
0000
,
0100
0000
0000
0000
,
0001
0000
0001
0000
,
0001
0000
0000
0000
,
1000
0000
0000
0000
,
0010
0000
0000
0000
,
0100
0000
0000
0000
,
0001
0000
0000
0000
,
0010
0000
0000
0000
,
0100
0000
0000
0000
,
1000
0001
1000
0001
,
1001
0000
0000
0000
,
0010
0000
0010
0000
,
0010
0000
0000
0000
,
0100
0000
0100
0000
,
0100
0000
0000
0000
,
0001
0000
0001
0000
,
0001
0000
0000
0000
,
1000
0000
1000
0000
,
1000
0000
0000
0000
,
0010
0000
0010
0000
,
0010
0000
0000
0000
,
1000
0000
1000
0000
,
1000
0000
0000
0000
,
0100
0000
0100
0000
,
0100
0000
0000
0000
,
0001
0000
0001
0000
,
0001
0000
0000
0000
,
0001
0000
0010
0000
,
0001
0000
0000
0000
,
1000
0000
0010
0000
,
1000
0000
0000
0000
,
0001
0000
0100
0000
,
0001
0000
0000
0000
,
1000
0000
0001
0000
,
1000
0000
0000
0000
,
0010
0000
1000
0000
,
0100
0000
0000
0000
,
0100
0000
1000
0000
,
0010
0000
0000
0000
,
0100
0000
0001
0000
,
0010
0000
0000
0000
,
0010
0000
0001
0000
,
0100
0000
0000
0000
,
0010
0000
0000
0000
,
1000
0000
0000
0000
,
0100
0000
0000
0000
,
0001
0000
0000
0000
,
0010
0000
0000
0000
,
0001
0000
0000
0000
,
0100
0000
0000
0000
,
1000
0000
0000
0000
,
0010
0000
0000
0000
,
1000
0000
0000
0000
,
0100
0000
0000
0000
,
0001
0000
0000
0000
,
0010
0000
0000
0000
,
0100
0000
0000
0000
,
1000
0000
0000
0000
,
0001
0000
0000
0000
,
1001
0000
0000
0000
;
